  0
SECTION
  2
HEADER
  9
$ACADVER
  1
AC1015
  9
$ACADMAINTVER
 70
    20
  9
$DWGCODEPAGE
  3
ANSI_932
  9
$INSBASE
 10
0.0
 20
0.0
 30
0.0
  9
$EXTMIN
 10
-0.045445148674844
 20
-0.0109373778768713
 30
-0.0000000000000058
  9
$EXTMAX
 10
1485.037875973764
 20
1050.01035751816
 30
0.0000000000000104
  9
$LIMMIN
 10
0.0
 20
0.0
  9
$LIMMAX
 10
420.0
 20
297.0
  9
$ORTHOMODE
 70
     0
  9
$REGENMODE
 70
     1
  9
$FILLMODE
 70
     1
  9
$QTEXTMODE
 70
     0
  9
$MIRRTEXT
 70
     0
  9
$LTSCALE
 40
1.0
  9
$ATTMODE
 70
     1
  9
$TEXTSIZE
 40
2.5
  9
$TRACEWID
 40
1.0
  9
$TEXTSTYLE
  7
Standard
  9
$CLAYER
  8
0
  9
$CELTYPE
  6
ByLayer
  9
$CECOLOR
 62
   256
  9
$CELTSCALE
 40
1.0
  9
$DISPSILH
 70
     0
  9
$DIMSCALE
 40
5.0
  9
$DIMASZ
 40
1.0
  9
$DIMEXO
 40
1.0
  9
$DIMDLI
 40
0.38
  9
$DIMRND
 40
0.0
  9
$DIMDLE
 40
0.0
  9
$DIMEXE
 40
0.18
  9
$DIMTP
 40
0.0
  9
$DIMTM
 40
0.0
  9
$DIMTXT
 40
0.18
  9
$DIMCEN
 40
0.09
  9
$DIMTSZ
 40
0.0
  9
$DIMTOL
 70
     0
  9
$DIMLIM
 70
     0
  9
$DIMTIH
 70
     0
  9
$DIMTOH
 70
     0
  9
$DIMSE1
 70
     0
  9
$DIMSE2
 70
     0
  9
$DIMTAD
 70
     1
  9
$DIMZIN
 70
     0
  9
$DIMBLK
  1

  9
$DIMASO
 70
     1
  9
$DIMSHO
 70
     1
  9
$DIMPOST
  1

  9
$DIMAPOST
  1

  9
$DIMALT
 70
     0
  9
$DIMALTD
 70
     2
  9
$DIMALTF
 40
25.4
  9
$DIMLFAC
 40
1.0
  9
$DIMTOFL
 70
     0
  9
$DIMTVP
 40
0.0
  9
$DIMTIX
 70
     0
  9
$DIMSOXD
 70
     0
  9
$DIMSAH
 70
     0
  9
$DIMBLK1
  1

  9
$DIMBLK2
  1

  9
$DIMSTYLE
  2
DimStyle
  9
$DIMCLRD
 70
     0
  9
$DIMCLRE
 70
     0
  9
$DIMCLRT
 70
     0
  9
$DIMTFAC
 40
1.0
  9
$DIMGAP
 40
0.5
  9
$DIMJUST
 70
     0
  9
$DIMSD1
 70
     0
  9
$DIMSD2
 70
     0
  9
$DIMTOLJ
 70
     1
  9
$DIMTZIN
 70
     0
  9
$DIMALTZ
 70
     0
  9
$DIMALTTZ
 70
     0
  9
$DIMUPT
 70
     0
  9
$DIMDEC
 70
     0
  9
$DIMTDEC
 70
     4
  9
$DIMALTU
 70
     2
  9
$DIMALTTD
 70
     2
  9
$DIMTXSTY
  7
Dimsmall
  9
$DIMAUNIT
 70
     0
  9
$DIMADEC
 70
     0
  9
$DIMALTRND
 40
0.0
  9
$DIMAZIN
 70
     0
  9
$DIMDSEP
 70
    46
  9
$DIMATFIT
 70
     3
  9
$DIMFRAC
 70
     0
  9
$DIMLDRBLK
  1

  9
$DIMLUNIT
 70
     2
  9
$DIMLWD
 70
    -2
  9
$DIMLWE
 70
    -2
  9
$DIMTMOVE
 70
     0
  9
$LUNITS
 70
     2
  9
$LUPREC
 70
     4
  9
$SKETCHINC
 40
1.0
  9
$FILLETRAD
 40
0.0
  9
$AUNITS
 70
     0
  9
$AUPREC
 70
     0
  9
$MENU
  1
.
  9
$ELEVATION
 40
0.0
  9
$PELEVATION
 40
0.0
  9
$THICKNESS
 40
0.0
  9
$LIMCHECK
 70
     0
  9
$CHAMFERA
 40
0.0
  9
$CHAMFERB
 40
0.0
  9
$CHAMFERC
 40
0.0
  9
$CHAMFERD
 40
0.0
  9
$SKPOLY
 70
     0
  9
$TDCREATE
 40
2457081.582992141
  9
$TDUCREATE
 40
2457081.207992141
  9
$TDUPDATE
 40
2457082.391019190
  9
$TDUUPDATE
 40
2457082.016019190
  9
$TDINDWG
 40
0.0708194213
  9
$TDUSRTIMER
 40
0.0708192361
  9
$USRTIMER
 70
     1
  9
$ANGBASE
 50
0.0
  9
$ANGDIR
 70
     0
  9
$PDMODE
 70
     0
  9
$PDSIZE
 40
0.0
  9
$PLINEWID
 40
0.0
  9
$SPLFRAME
 70
     0
  9
$SPLINETYPE
 70
     6
  9
$SPLINESEGS
 70
     8
  9
$HANDSEED
  5
F52
  9
$SURFTAB1
 70
     6
  9
$SURFTAB2
 70
     6
  9
$SURFTYPE
 70
     6
  9
$SURFU
 70
     6
  9
$SURFV
 70
     6
  9
$UCSBASE
  2

  9
$UCSNAME
  2

  9
$UCSORG
 10
0.0
 20
0.0
 30
0.0
  9
$UCSXDIR
 10
1.0
 20
0.0
 30
0.0
  9
$UCSYDIR
 10
0.0
 20
1.0
 30
0.0
  9
$UCSORTHOREF
  2

  9
$UCSORTHOVIEW
 70
     0
  9
$UCSORGTOP
 10
0.0
 20
0.0
 30
0.0
  9
$UCSORGBOTTOM
 10
0.0
 20
0.0
 30
0.0
  9
$UCSORGLEFT
 10
0.0
 20
0.0
 30
0.0
  9
$UCSORGRIGHT
 10
0.0
 20
0.0
 30
0.0
  9
$UCSORGFRONT
 10
0.0
 20
0.0
 30
0.0
  9
$UCSORGBACK
 10
0.0
 20
0.0
 30
0.0
  9
$PUCSBASE
  2

  9
$PUCSNAME
  2

  9
$PUCSORG
 10
0.0
 20
0.0
 30
0.0
  9
$PUCSXDIR
 10
1.0
 20
0.0
 30
0.0
  9
$PUCSYDIR
 10
0.0
 20
1.0
 30
0.0
  9
$PUCSORTHOREF
  2

  9
$PUCSORTHOVIEW
 70
     0
  9
$PUCSORGTOP
 10
0.0
 20
0.0
 30
0.0
  9
$PUCSORGBOTTOM
 10
0.0
 20
0.0
 30
0.0
  9
$PUCSORGLEFT
 10
0.0
 20
0.0
 30
0.0
  9
$PUCSORGRIGHT
 10
0.0
 20
0.0
 30
0.0
  9
$PUCSORGFRONT
 10
0.0
 20
0.0
 30
0.0
  9
$PUCSORGBACK
 10
0.0
 20
0.0
 30
0.0
  9
$USERI1
 70
     0
  9
$USERI2
 70
     0
  9
$USERI3
 70
     0
  9
$USERI4
 70
     0
  9
$USERI5
 70
     0
  9
$USERR1
 40
0.0
  9
$USERR2
 40
0.0
  9
$USERR3
 40
0.0
  9
$USERR4
 40
0.0
  9
$USERR5
 40
0.0
  9
$WORLDVIEW
 70
     1
  9
$SHADEDGE
 70
     3
  9
$SHADEDIF
 70
    70
  9
$TILEMODE
 70
     1
  9
$MAXACTVP
 70
    64
  9
$PINSBASE
 10
0.0
 20
0.0
 30
0.0
  9
$PLIMCHECK
 70
     0
  9
$PEXTMIN
 10
1.000000000000000E+20
 20
1.000000000000000E+20
 30
1.000000000000000E+20
  9
$PEXTMAX
 10
-1.000000000000000E+20
 20
-1.000000000000000E+20
 30
-1.000000000000000E+20
  9
$PLIMMIN
 10
0.0
 20
0.0
  9
$PLIMMAX
 10
420.0
 20
297.0
  9
$UNITMODE
 70
     0
  9
$VISRETAIN
 70
     1
  9
$PLINEGEN
 70
     0
  9
$PSLTSCALE
 70
     1
  9
$TREEDEPTH
 70
  3020
  9
$CMLSTYLE
  2
Standard
  9
$CMLJUST
 70
     0
  9
$CMLSCALE
 40
20.0
  9
$PROXYGRAPHICS
 70
     1
  9
$MEASUREMENT
 70
     1
  9
$CELWEIGHT
370
    -1
  9
$ENDCAPS
280
     0
  9
$JOINSTYLE
280
     0
  9
$LWDISPLAY
290
     0
  9
$INSUNITS
 70
     4
  9
$HYPERLINKBASE
  1

  9
$STYLESHEET
  1
monochrome.ctb
  9
$XEDIT
290
     1
  9
$CEPSNTYPE
380
     0
  9
$PSTYLEMODE
290
     1
  9
$FINGERPRINTGUID
  2
{65DAA29C-744F-49D8-AB7A-AB073D571CF7}
  9
$VERSIONGUID
  2
{7EC63B1E-C14C-404D-B182-75A9CDDEF237}
  9
$EXTNAMES
290
     1
  9
$PSVPSCALE
 40
0.0
  9
$OLESTARTUP
290
     0
  0
ENDSEC
  0
SECTION
  2
CLASSES
  0
CLASS
  1
ACDBDICTIONARYWDFLT
  2
AcDbDictionaryWithDefault
  3
ObjectDBX Classes
 90
        0
280
     0
281
     0
  0
CLASS
  1
MATERIAL
  2
AcDbMaterial
  3
ObjectDBX Classes
 90
     1153
280
     0
281
     0
  0
CLASS
  1
VISUALSTYLE
  2
AcDbVisualStyle
  3
ObjectDBX Classes
 90
     4095
280
     0
281
     0
  0
CLASS
  1
SCALE
  2
AcDbScale
  3
ObjectDBX Classes
 90
     1153
280
     0
281
     0
  0
CLASS
  1
TABLESTYLE
  2
AcDbTableStyle
  3
ObjectDBX Classes
 90
     4095
280
     0
281
     0
  0
CLASS
  1
MLEADERSTYLE
  2
AcDbMLeaderStyle
  3
ACDB_MLEADERSTYLE_CLASS
 90
     4095
280
     0
281
     0
  0
CLASS
  1
IMAGEDEF
  2
AcDbRasterImageDef
  3
ISM
 90
        0
280
     0
281
     0
  0
CLASS
  1
IMAGE
  2
AcDbRasterImage
  3
ISM
 90
     2175
280
     0
281
     1
  0
CLASS
  1
IMAGEDEF_REACTOR
  2
AcDbRasterImageDefReactor
  3
ISM
 90
        1
280
     0
281
     0
  0
CLASS
  1
RASTERVARIABLES
  2
AcDbRasterVariables
  3
ISM
 90
        0
280
     0
281
     0
  0
CLASS
  1
DICTIONARYVAR
  2
AcDbDictionaryVar
  3
ObjectDBX Classes
 90
        0
280
     0
281
     0
  0
CLASS
  1
CELLSTYLEMAP
  2
AcDbCellStyleMap
  3
ObjectDBX Classes
 90
     1152
280
     0
281
     0
  0
CLASS
  1
ACDBPLACEHOLDER
  2
AcDbPlaceHolder
  3
ObjectDBX Classes
 90
        0
280
     0
281
     0
  0
CLASS
  1
LAYOUT
  2
AcDbLayout
  3
ObjectDBX Classes
 90
        0
280
     0
281
     0
  0
CLASS
  1
SORTENTSTABLE
  2
AcDbSortentsTable
  3
ObjectDBX Classes
 90
        0
280
     0
281
     0
  0
CLASS
  1
DIMASSOC
  2
AcDbDimAssoc
  3
"AcDbDimAssoc|Product Desc:     AcDim ARX App For Dimension|Company:          Autodesk, Inc.|WEB Address:      www.autodesk.com"
 90
        0
280
     0
281
     0
  0
ENDSEC
  0
SECTION
  2
TABLES
  0
TABLE
  2
VPORT
  5
8
330
0
100
AcDbSymbolTable
 70
     1
  0
VPORT
  5
4F
330
8
100
AcDbSymbolTableRecord
100
AcDbViewportTableRecord
  2
*Active
 70
     0
 10
0.0
 20
0.0
 11
1.0
 21
1.0
 12
742.496215412545
 22
524.9997100701417
 13
0.0
 23
0.0
 14
10.0
 24
10.0
 15
10.0
 25
10.0
 16
0.0
 26
0.0
 36
1.0
 17
0.0
 27
0.0
 37
0.0
 40
1058.20327901211
 41
1.762028608582574
 42
50.0
 43
0.0
 44
0.0
 50
0.0
 51
0.0
 71
     0
 72
  1000
 73
     1
 74
     3
 75
     0
 76
     0
 77
     0
 78
     0
281
     0
 65
     1
110
0.0
120
0.0
130
0.0
111
1.0
121
0.0
131
0.0
112
0.0
122
1.0
132
0.0
 79
     0
146
0.0
  0
ENDTAB
  0
TABLE
  2
LTYPE
  5
5
330
0
100
AcDbSymbolTable
 70
     5
  0
LTYPE
  5
53
330
5
100
AcDbSymbolTableRecord
100
AcDbLinetypeTableRecord
  2
ByBlock
 70
     0
  3

 72
    65
 73
     0
 40
0.0
  0
LTYPE
  5
54
330
5
100
AcDbSymbolTableRecord
100
AcDbLinetypeTableRecord
  2
ByLayer
 70
     0
  3

 72
    65
 73
     0
 40
0.0
  0
LTYPE
  5
55
330
5
100
AcDbSymbolTableRecord
100
AcDbLinetypeTableRecord
  2
Continuous
 70
     0
  3
Solid line
 72
    65
 73
     0
 40
0.0
  0
LTYPE
  5
73
330
5
100
AcDbSymbolTableRecord
100
AcDbLinetypeTableRecord
  2
ACAD_ISO08W100
 70
     0
  3
ISO long-dash short-dash ____ __ ____ __ ____ _
 72
    65
 73
     4
 40
36.0
 49
24.0
 74
     0
 49
-3.0
 74
     0
 49
6.0
 74
     0
 49
-3.0
 74
     0
  0
LTYPE
  5
9E5
330
5
100
AcDbSymbolTableRecord
100
AcDbLinetypeTableRecord
  2
HIDDEN
 70
     0
  3
Hidden __ __ __ __ __ __ __ __ __ __ __ __ __ _
 72
    65
 73
     2
 40
9.524999999999996
 49
6.349999999999997
 74
     0
 49
-3.174999999999998
 74
     0
  0
ENDTAB
  0
TABLE
  2
LAYER
  5
2
102
{ACAD_XDICTIONARY
360
9F1
102
}
330
0
100
AcDbSymbolTable
 70
    11
  0
LAYER
  5
4C
330
2
100
AcDbSymbolTableRecord
100
AcDbLayerTableRecord
  2
0
 70
     0
 62
     7
  6
Continuous
370
     9
390
F
  0
LAYER
  5
6F
330
2
100
AcDbSymbolTableRecord
100
AcDbLayerTableRecord
  2
寸法線
 70
     0
 62
     7
  6
Continuous
370
     9
390
F
  0
LAYER
  5
70
330
2
100
AcDbSymbolTableRecord
100
AcDbLayerTableRecord
  2
図面枠
 70
     0
 62
     7
  6
Continuous
370
    -3
390
F
  0
LAYER
  5
71
330
2
100
AcDbSymbolTableRecord
100
AcDbLayerTableRecord
  2
用紙枠
 70
     0
 62
     6
  6
Continuous
290
     0
370
    -3
390
F
  0
LAYER
  5
72
330
2
100
AcDbSymbolTableRecord
100
AcDbLayerTableRecord
  2
クリップ
 70
     0
 62
     7
  6
Continuous
370
    -3
390
F
  0
LAYER
  5
347
330
2
100
AcDbSymbolTableRecord
100
AcDbLayerTableRecord
  2
Defpoints
 70
     0
 62
     7
  6
Continuous
290
     0
370
    -3
390
F
  0
LAYER
  5
4CF
330
2
100
AcDbSymbolTableRecord
100
AcDbLayerTableRecord
  2
φ10
 70
     2
 62
   120
  6
Continuous
370
    -3
390
F
1001
AcAecLayerStandard
1000

1000

  0
LAYER
  5
991
330
2
100
AcDbSymbolTableRecord
100
AcDbLayerTableRecord
  2
取っ手
 70
     2
 62
    41
  6
Continuous
370
    -3
390
F
1001
AcAecLayerStandard
1000

1000

  0
LAYER
  5
9E6
330
2
100
AcDbSymbolTableRecord
100
AcDbLayerTableRecord
  2
01_部品
 70
     0
 62
   151
  6
Continuous
370
    15
390
F
1001
AcAecLayerStandard
1000

1000

  0
LAYER
  5
9E7
330
2
100
AcDbSymbolTableRecord
100
AcDbLayerTableRecord
  2
10_本体点線
 70
     0
 62
   151
  6
HIDDEN
370
     9
390
F
1001
AcAecLayerStandard
1000

1000

  0
LAYER
  5
D2F
330
2
100
AcDbSymbolTableRecord
100
AcDbLayerTableRecord
  2
ﾚｲﾔ1
 70
     0
 62
     7
  6
Continuous
370
    -3
390
F
  0
ENDTAB
  0
TABLE
  2
STYLE
  5
3
330
0
100
AcDbSymbolTable
 70
    19
  0
STYLE
  5
4D
330
3
100
AcDbSymbolTableRecord
100
AcDbTextStyleTableRecord
  2
Standard
 70
     0
 40
0.0
 41
1.0
 50
0.0
 71
     0
 42
2.5
  3
txt
  4

  0
STYLE
  5
52
330
3
100
AcDbSymbolTableRecord
100
AcDbTextStyleTableRecord
  2
Annotative
 70
     0
 40
0.0
 41
1.0
 50
0.0
 71
     0
 42
0.2
  3
txt
  4

1001
AcadAnnotative
1000
AnnotativeData
1002
{
1070
     1
1070
     1
1002
}
  0
STYLE
  5
74
330
3
100
AcDbSymbolTableRecord
100
AcDbTextStyleTableRecord
  2
A3Logos
 70
     0
 40
5.0
 41
1.0
 50
0.0
 71
     0
 42
2.5
  3
swissk.ttf
  4

1001
ACAD
1000
Swis721 Blk BT
1071
      257
1001
AcadAnnotative
1000
AnnotativeData
1002
{
1070
     1
1070
     1
1002
}
  0
STYLE
  5
75
330
3
100
AcDbSymbolTableRecord
100
AcDbTextStyleTableRecord
  2
A3smallText
 70
     0
 40
3.0
 41
1.0
 50
0.0
 71
     0
 42
2.5
  3
arial.ttf
  4

1001
ACAD
1000
Arial
1071
      257
1001
AcadAnnotative
1000
AnnotativeData
1002
{
1070
     1
1070
     1
1002
}
  0
STYLE
  5
76
330
3
100
AcDbSymbolTableRecord
100
AcDbTextStyleTableRecord
  2
A3small
 70
     0
 40
1.5
 41
1.0
 50
0.0
 71
     0
 42
2.5
  3
arial.ttf
  4

1001
ACAD
1000
Arial
1071
      257
1001
AcadAnnotative
1000
AnnotativeData
1002
{
1070
     1
1070
     1
1002
}
  0
STYLE
  5
77
330
3
100
AcDbSymbolTableRecord
100
AcDbTextStyleTableRecord
  2
A3MspGothic
 70
     0
 40
1.5
 41
1.0
 50
0.0
 71
     0
 42
2.5
  3

  4

1001
ACAD
1000
MS PGothic
1071
      257
1001
AcadAnnotative
1000
AnnotativeData
1002
{
1070
     1
1070
     1
1002
}
  0
STYLE
  5
78
330
3
100
AcDbSymbolTableRecord
100
AcDbTextStyleTableRecord
  2
A3MspGothic2
 70
     0
 40
2.5
 41
1.0
 50
0.0
 71
     0
 42
2.5
  3

  4

1001
ACAD
1000
MS PGothic
1071
      257
1001
AcadAnnotative
1000
AnnotativeData
1002
{
1070
     1
1070
     1
1002
}
  0
STYLE
  5
79
330
3
100
AcDbSymbolTableRecord
100
AcDbTextStyleTableRecord
  2
A4Logos
 70
     0
 40
3.5
 41
1.0
 50
0.0
 71
     0
 42
2.5
  3
swissk.ttf
  4

1001
ACAD
1000
Swis721 Blk BT
1071
      257
1001
AcadAnnotative
1000
AnnotativeData
1002
{
1070
     1
1070
     1
1002
}
  0
STYLE
  5
7A
330
3
100
AcDbSymbolTableRecord
100
AcDbTextStyleTableRecord
  2
A4smallText
 70
     0
 40
2.0
 41
1.0
 50
0.0
 71
     0
 42
2.5
  3
arial.ttf
  4

1001
ACAD
1000
Arial
1071
      257
1001
AcadAnnotative
1000
AnnotativeData
1002
{
1070
     1
1070
     1
1002
}
  0
STYLE
  5
7B
330
3
100
AcDbSymbolTableRecord
100
AcDbTextStyleTableRecord
  2
A4small
 70
     0
 40
1.0
 41
1.0
 50
0.0
 71
     0
 42
2.5
  3
arial.ttf
  4

1001
ACAD
1000
Arial
1071
      257
1001
AcadAnnotative
1000
AnnotativeData
1002
{
1070
     1
1070
     1
1002
}
  0
STYLE
  5
7C
330
3
100
AcDbSymbolTableRecord
100
AcDbTextStyleTableRecord
  2
A4MspGothic
 70
     0
 40
1.0
 41
1.0
 50
0.0
 71
     0
 42
2.5
  3

  4

1001
ACAD
1000
MS PGothic
1071
      257
1001
AcadAnnotative
1000
AnnotativeData
1002
{
1070
     1
1070
     1
1002
}
  0
STYLE
  5
7D
330
3
100
AcDbSymbolTableRecord
100
AcDbTextStyleTableRecord
  2
A4MspGothic2
 70
     0
 40
1.7
 41
1.0
 50
0.0
 71
     0
 42
2.5
  3

  4

1001
ACAD
1000
MS PGothic
1071
      257
1001
AcadAnnotative
1000
AnnotativeData
1002
{
1070
     1
1070
     1
1002
}
  0
STYLE
  5
7E
330
3
100
AcDbSymbolTableRecord
100
AcDbTextStyleTableRecord
  2
Dimsmall
 70
     0
 40
8.5
 41
1.0
 50
0.0
 71
     0
 42
2.5
  3
arial.ttf
  4

1001
ACAD
1000
Arial
1071
      257
1001
AcadAnnotative
1000
AnnotativeData
1002
{
1070
     1
1070
     1
1002
}
  0
STYLE
  5
7F
330
3
100
AcDbSymbolTableRecord
100
AcDbTextStyleTableRecord
  2
DimClipsmall
 70
     0
 40
8.5
 41
1.0
 50
0.0
 71
     0
 42
2.5
  3
arial.ttf
  4

1001
ACAD
1000
Arial
1071
      257
1001
AcadAnnotative
1000
AnnotativeData
1002
{
1070
     1
1070
     1
1002
}
  0
STYLE
  5
80
330
3
100
AcDbSymbolTableRecord
100
AcDbTextStyleTableRecord
  2
LeaderLine
 70
     0
 40
12.5
 41
1.0
 50
0.0
 71
     0
 42
2.5
  3

  4

1001
ACAD
1000
MS PGothic
1071
      257
1001
AcadAnnotative
1000
AnnotativeData
1002
{
1070
     1
1070
     1
1002
}
  0
STYLE
  5
81
330
3
100
AcDbSymbolTableRecord
100
AcDbTextStyleTableRecord
  2
A3ImageText
 70
     0
 40
3.0
 41
1.0
 50
0.0
 71
     0
 42
2.5
  3

  4

1001
ACAD
1000
MS PGothic
1071
      257
1001
AcadAnnotative
1000
AnnotativeData
1002
{
1070
     1
1070
     1
1002
}
  0
STYLE
  5
82
330
3
100
AcDbSymbolTableRecord
100
AcDbTextStyleTableRecord
  2
A4ImageText
 70
     0
 40
2.1
 41
1.0
 50
0.0
 71
     0
 42
2.5
  3

  4

1001
ACAD
1000
MS PGothic
1071
      257
1001
AcadAnnotative
1000
AnnotativeData
1002
{
1070
     1
1070
     1
1002
}
  0
STYLE
  5
9E8
330
3
100
AcDbSymbolTableRecord
100
AcDbTextStyleTableRecord
  2
寸法、注釈用
 70
     0
 40
30.0
 41
0.8
 50
0.0
 71
     0
 42
30.0
  3
romans.shx
  4
extfont2.shx
1001
AcadAnnotative
1000
AnnotativeData
1002
{
1070
     1
1070
     1
1002
}
  0
ENDTAB
  0
TABLE
  2
VIEW
  5
6
330
0
100
AcDbSymbolTable
 70
     0
  0
ENDTAB
  0
TABLE
  2
UCS
  5
7
330
0
100
AcDbSymbolTable
 70
     0
  0
ENDTAB
  0
TABLE
  2
APPID
  5
9
330
0
100
AcDbSymbolTable
 70
    16
  0
APPID
  5
4E
330
9
100
AcDbSymbolTableRecord
100
AcDbRegAppTableRecord
  2
ACAD
 70
     0
  0
APPID
  5
56
330
9
100
AcDbSymbolTableRecord
100
AcDbRegAppTableRecord
  2
AcadAnnotative
 70
     0
  0
APPID
  5
60
330
9
100
AcDbSymbolTableRecord
100
AcDbRegAppTableRecord
  2
ACAD_MLEADERVER
 70
     0
  0
APPID
  5
3EE
330
9
100
AcDbSymbolTableRecord
100
AcDbRegAppTableRecord
  2
ACAD_DSTYLE_DIMJOGGED_JOGANGLE_SYMBOL
 70
     0
  0
APPID
  5
416
330
9
100
AcDbSymbolTableRecord
100
AcDbRegAppTableRecord
  2
ACAD_EXEMPT_FROM_CAD_STANDARDS
 70
     0
  0
APPID
  5
4D0
330
9
100
AcDbSymbolTableRecord
100
AcDbRegAppTableRecord
  2
AcAecLayerStandard
 70
     0
  0
APPID
  5
9EA
330
9
100
AcDbSymbolTableRecord
100
AcDbRegAppTableRecord
  2
ACAD_PSEXT
 70
     0
  0
APPID
  5
9EB
330
9
100
AcDbSymbolTableRecord
100
AcDbRegAppTableRecord
  2
ACAD_DSTYLE_DIMJAG
 70
     0
  0
APPID
  5
9EC
330
9
100
AcDbSymbolTableRecord
100
AcDbRegAppTableRecord
  2
ACAD_DSTYLE_DIMBREAK
 70
     0
  0
APPID
  5
9ED
330
9
100
AcDbSymbolTableRecord
100
AcDbRegAppTableRecord
  2
ACAD_DSTYLE_DIMTALN
 70
     0
  0
APPID
  5
9EE
330
9
100
AcDbSymbolTableRecord
100
AcDbRegAppTableRecord
  2
ACAD_NAV_VCDISPLAY
 70
     0
  0
APPID
  5
B69
330
9
100
AcDbSymbolTableRecord
100
AcDbRegAppTableRecord
  2
ACAD_DSTYLE_DIMRADIAL_EXTENSION
 70
     0
  0
APPID
  5
D87
330
9
100
AcDbSymbolTableRecord
100
AcDbRegAppTableRecord
  2
ACAD_DSTYLE_DIMARC_LENGTH_SYMBOL
 70
     0
  0
APPID
  5
D88
330
9
100
AcDbSymbolTableRecord
100
AcDbRegAppTableRecord
  2
ACAD_DSTYLE_DIM_LINETYPE
 70
     0
  0
APPID
  5
D89
330
9
100
AcDbSymbolTableRecord
100
AcDbRegAppTableRecord
  2
ACAD_DSTYLE_DIM_EXT1_LINETYPE
 70
     0
  0
APPID
  5
D8A
330
9
100
AcDbSymbolTableRecord
100
AcDbRegAppTableRecord
  2
ACAD_DSTYLE_DIM_EXT2_LINETYPE
 70
     0
  0
ENDTAB
  0
TABLE
  2
DIMSTYLE
  5
A
330
0
100
AcDbSymbolTable
 70
    14
100
AcDbDimStyleTable
 71
     2
340
84
340
50
  0
DIMSTYLE
105
50
330
A
100
AcDbSymbolTableRecord
100
AcDbDimStyleTableRecord
  2
ISO-25
 70
     0
 41
2.5
 42
0.625
 43
3.75
 44
1.25
 73
     0
 74
     0
 77
     1
 78
     8
140
2.5
141
2.5
143
0.03937007874016
147
0.625
171
     3
172
     1
271
     2
272
     2
274
     3
283
     0
284
     8
340
4D
1001
ACAD_DSTYLE_DIMJOGGED_JOGANGLE_SYMBOL
1070
   384
1040
1.570796326794896
  0
DIMSTYLE
105
51
330
A
100
AcDbSymbolTableRecord
100
AcDbDimStyleTableRecord
  2
Annotative
 70
     0
340
4D
1001
AcadAnnotative
1000
AnnotativeData
1002
{
1070
     1
1070
     1
1002
}
  0
DIMSTYLE
105
83
330
A
100
AcDbSymbolTableRecord
100
AcDbDimStyleTableRecord
  2
Standard
 70
     0
 41
4.0
 42
1.0
 73
     0
 74
     0
 77
     1
147
0.5
271
     0
340
4D
  0
DIMSTYLE
105
84
102
{ACAD_REACTORS
330
422
330
43A
330
452
330
A24
330
A3C
330
A71
330
A92
330
AD2
330
AEA
330
B00
330
B18
330
B30
330
B95
330
C02
330
CD9
330
CF1
330
D12
102
}
330
A
100
AcDbSymbolTableRecord
100
AcDbDimStyleTableRecord
  2
DimStyle
 70
     0
 40
5.0
 41
1.0
 42
1.0
 73
     0
 74
     0
 77
     1
147
0.5
271
     0
340
7E
  0
DIMSTYLE
105
85
330
A
100
AcDbSymbolTableRecord
100
AcDbDimStyleTableRecord
  2
DimStyleDec1
 70
     0
 40
5.0
 41
1.0
 42
1.0
 73
     0
 74
     0
 77
     1
147
0.5
271
     1
340
7E
  0
DIMSTYLE
105
86
330
A
100
AcDbSymbolTableRecord
100
AcDbDimStyleTableRecord
  2
DimClip
 70
     0
 40
5.0
 41
4.0
 42
1.0
 73
     0
 74
     0
 77
     1
147
0.5
271
     0
340
7F
  0
DIMSTYLE
105
87
330
A
100
AcDbSymbolTableRecord
100
AcDbDimStyleTableRecord
  2
LeaderLine
 70
     0
 40
5.0
 41
4.0
 42
1.0
 73
     0
 74
     0
 77
     1
147
0.5
271
     0
340
80
  0
DIMSTYLE
105
9E9
330
A
100
AcDbSymbolTableRecord
100
AcDbDimStyleTableRecord
  2
機械図面用
 70
     0
 41
30.0
 42
15.0
 43
100.0
 44
1.25
 73
     0
 74
     0
 77
     1
 78
     8
 79
     2
140
30.0
141
2.5
143
0.03937007874016
147
5.0
171
     3
172
     1
176
   256
177
   256
178
   256
179
     2
271
     2
272
     2
274
     3
283
     0
284
     8
340
9E8
341
9E1
342
9E1
371
    -1
372
    -1
1001
ACAD_DSTYLE_DIMBREAK
1070
   391
1040
2.0
1001
AcadAnnotative
1000
AnnotativeData
1002
{
1070
     1
1070
     1
1002
}
1001
ACAD_DSTYLE_DIMJAG
1070
   388
1040
1.5
1001
ACAD_DSTYLE_DIMTALN
1070
   392
1070
     0
1001
ACAD_DSTYLE_DIMARC_LENGTH_SYMBOL
1070
   379
1070
     1
1001
ACAD_DSTYLE_DIM_LINETYPE
1070
   380
1005
54
1001
ACAD_DSTYLE_DIM_EXT1_LINETYPE
1070
   381
1005
54
1001
ACAD_DSTYLE_DIM_EXT2_LINETYPE
1070
   382
1005
54
  0
DIMSTYLE
105
D30
330
A
100
AcDbSymbolTableRecord
100
AcDbDimStyleTableRecord
  2
コピー ～ DimStyle
 70
     0
 40
10.0
 41
1.0
 42
1.0
 73
     0
 74
     0
 77
     1
140
17.0
144
0.4
147
0.5
271
     0
272
     0
340
7E
1001
ACAD_DSTYLE_DIMBREAK
1070
   391
1040
3.75
1001
ACAD_DSTYLE_DIMJAG
1070
   388
1040
1.5
1001
ACAD_DSTYLE_DIMTALN
1070
   392
1070
     0
  0
DIMSTYLE
105
D31
330
A
100
AcDbSymbolTableRecord
100
AcDbDimStyleTableRecord
  2
コピー(2) ～ DimStyle
 70
     0
 40
10.0
 41
1.0
 42
1.0
 73
     0
 74
     0
 77
     1
140
17.0
144
0.75
147
0.5
271
     0
272
     0
340
7E
1001
ACAD_DSTYLE_DIMBREAK
1070
   391
1040
3.75
1001
ACAD_DSTYLE_DIMJAG
1070
   388
1040
1.5
1001
ACAD_DSTYLE_DIMTALN
1070
   392
1070
     0
  0
DIMSTYLE
105
D32
330
A
100
AcDbSymbolTableRecord
100
AcDbDimStyleTableRecord
  2
コピー(3) ～ DimStyle
 70
     0
 40
10.0
 41
1.0
 42
1.0
 73
     0
 74
     0
 77
     1
140
17.0
144
0.3
147
0.5
271
     0
272
     0
340
7E
1001
ACAD_DSTYLE_DIMBREAK
1070
   391
1040
3.75
1001
ACAD_DSTYLE_DIMJAG
1070
   388
1040
1.5
1001
ACAD_DSTYLE_DIMTALN
1070
   392
1070
     0
  0
DIMSTYLE
105
D33
330
A
100
AcDbSymbolTableRecord
100
AcDbDimStyleTableRecord
  2
コピー(4) ～ DimStyle
 70
     0
 40
10.0
 41
0.35
 42
1.0
 73
     0
 74
     0
 77
     1
140
11.0
144
0.4
147
0.5
271
     0
272
     0
340
7E
1001
ACAD_DSTYLE_DIMBREAK
1070
   391
1040
3.75
1001
ACAD_DSTYLE_DIMJAG
1070
   388
1040
1.5
1001
ACAD_DSTYLE_DIMTALN
1070
   392
1070
     0
  0
ENDTAB
  0
TABLE
  2
BLOCK_RECORD
  5
1
330
0
100
AcDbSymbolTable
 70
    69
  0
BLOCK_RECORD
  5
65
102
{ACAD_XDICTIONARY
360
41F
102
}
330
1
100
AcDbSymbolTableRecord
100
AcDbBlockTableRecord
  2
*Model_Space
340
68
  0
BLOCK_RECORD
  5
61
330
1
100
AcDbSymbolTableRecord
100
AcDbBlockTableRecord
  2
*Paper_Space
340
64
  0
BLOCK_RECORD
  5
69
330
1
100
AcDbSymbolTableRecord
100
AcDbBlockTableRecord
  2
*Paper_Space0
340
6C
  0
BLOCK_RECORD
  5
348
330
1
100
AcDbSymbolTableRecord
100
AcDbBlockTableRecord
  2
*D1
340
0
  0
BLOCK_RECORD
  5
3C1
330
1
100
AcDbSymbolTableRecord
100
AcDbBlockTableRecord
  2
*D2
340
0
  0
BLOCK_RECORD
  5
3CE
330
1
100
AcDbSymbolTableRecord
100
AcDbBlockTableRecord
  2
*D3
340
0
  0
BLOCK_RECORD
  5
423
330
1
100
AcDbSymbolTableRecord
100
AcDbBlockTableRecord
  2
*D4
340
0
  0
BLOCK_RECORD
  5
43B
330
1
100
AcDbSymbolTableRecord
100
AcDbBlockTableRecord
  2
*D5
340
0
  0
BLOCK_RECORD
  5
453
330
1
100
AcDbSymbolTableRecord
100
AcDbBlockTableRecord
  2
*D6
340
0
  0
BLOCK_RECORD
  5
485
330
1
100
AcDbSymbolTableRecord
100
AcDbBlockTableRecord
  2
*D7
340
0
  0
BLOCK_RECORD
  5
4B8
330
1
100
AcDbSymbolTableRecord
100
AcDbBlockTableRecord
  2
*D8
340
0
  0
BLOCK_RECORD
  5
4DD
330
1
100
AcDbSymbolTableRecord
100
AcDbBlockTableRecord
  2
*D9
340
0
  0
BLOCK_RECORD
  5
4F7
330
1
100
AcDbSymbolTableRecord
100
AcDbBlockTableRecord
  2
*D10
340
0
  0
BLOCK_RECORD
  5
5F0
330
1
100
AcDbSymbolTableRecord
100
AcDbBlockTableRecord
  2
*D11
340
0
  0
BLOCK_RECORD
  5
668
330
1
100
AcDbSymbolTableRecord
100
AcDbBlockTableRecord
  2
*D12
340
0
  0
BLOCK_RECORD
  5
680
330
1
100
AcDbSymbolTableRecord
100
AcDbBlockTableRecord
  2
*D13
340
0
  0
BLOCK_RECORD
  5
698
330
1
100
AcDbSymbolTableRecord
100
AcDbBlockTableRecord
  2
*D14
340
0
  0
BLOCK_RECORD
  5
6DD
102
{ACAD_XDICTIONARY
360
D66
102
}
330
1
100
AcDbSymbolTableRecord
100
AcDbBlockTableRecord
  2
a
340
0
310
2800000020000000200000000100080000000000000400000000000000000000000000000000000000000000000080000080000000808000800000008000800080800000C0C0C000C0DCC000F0CAA6000020400000206000002080000020A0000020C0000020E00000400000004020000040400000406000004080000040A0
310
000040C0000040E00000600000006020000060400000606000006080000060A0000060C0000060E00000800000008020000080400000806000008080000080A0000080C0000080E00000A0000000A0200000A0400000A0600000A0800000A0A00000A0C00000A0E00000C0000000C0200000C0400000C0600000C0800000C0
310
A00000C0C00000C0E00000E0000000E0200000E0400000E0600000E0800000E0A00000E0C00000E0E00040000000400020004000400040006000400080004000A0004000C0004000E00040200000402020004020400040206000402080004020A0004020C0004020E000404000004040200040404000404060004040800040
310
40A0004040C0004040E00040600000406020004060400040606000406080004060A0004060C0004060E00040800000408020004080400040806000408080004080A0004080C0004080E00040A0000040A0200040A0400040A0600040A0800040A0A00040A0C00040A0E00040C0000040C0200040C0400040C0600040C08000
310
40C0A00040C0C00040C0E00040E0000040E0200040E0400040E0600040E0800040E0A00040E0C00040E0E00080000000800020008000400080006000800080008000A0008000C0008000E00080200000802020008020400080206000802080008020A0008020C0008020E00080400000804020008040400080406000804080
310
008040A0008040C0008040E00080600000806020008060400080606000806080008060A0008060C0008060E00080800000808020008080400080806000808080008080A0008080C0008080E00080A0000080A0200080A0400080A0600080A0800080A0A00080A0C00080A0E00080C0000080C0200080C0400080C0600080C0
310
800080C0A00080C0C00080C0E00080E0000080E0200080E0400080E0600080E0800080E0A00080E0C00080E0E000C0000000C0002000C0004000C0006000C0008000C000A000C000C000C000E000C0200000C0202000C0204000C0206000C0208000C020A000C020C000C020E000C0400000C0402000C0404000C0406000C0
310
408000C040A000C040C000C040E000C0600000C0602000C0604000C0606000C0608000C060A000C060C000C060E000C0800000C0802000C0804000C0806000C0808000C080A000C080C000C080E000C0A00000C0A02000C0A04000C0A06000C0A08000C0A0A000C0A0C000C0A0E000C0C00000C0C02000C0C04000C0C06000
310
C0C08000C0C0A000F0FBFF00A4A0A000808080000000FF0000FF000000FFFF00FF000000FF00FF00FFFF0000FFFFFF0000000000000000000000000000000000000000000000000000000000000000000000000000000000000000000000000000000000000000000000000000000000000000000000000000000000000000
310
00000000000000000000000000000000000000000000000000000000000000000000000000000000000000000000000000000000000000000000000000000000000000000000000000000000000000000000000000000000000000000000000000000000000000000000000000000000000000000000000000000000000000
310
00000000000000000000000000000000000000000000000000000000000000000000000000000000000000000000000000000000000000000000000000000000000000000000000000000000000000000000000000000000000000000000000000000000000000000000000000000000000000000000000000000000000000
310
00000000000000000000000000000000000000000000000000000000000000000000000000000000000000000000000000000000000000000000000000000000000000000000000000000000000000000000000000000000000000000000000000000000000000000000000000000000000000000000000000000000000000
310
000000000000000000000000000000000000000000FFFFFFFFFFFFFFFFFFFFFFFFFFFFFFFFFFFFFFFFFFFFFFFFFFFFFFFFFFFF0000FFFFFFFFFFFFFFFFFFFFFFFFFFFFFFFFFFFFFFFFFFFFFFFFFFFFFFFFFFFF0000000000000000000000000000000000000000000000000000000000000000000000000000000000000000
310
00000000000000000000000000000000000000000000000000000000000000000000000000000000000000000000000000000000000000000000000000000000000000000000000000000000000000000000000000000000000000000000000000000000000000000000000000000000000000000000000000000000000000
310
00000000000000000000000000000000000000000000000000000000000000000000000000000000000000000000000000000000000000000000000000000000000000000000000000000000000000000000000000000000000000000000000000000000000000000000000000000000000000000000000000000000000000
310
00000000000000000000000000000000000000000000000000000000000000000000000000000000000000000000000000000000000000000000000000000000000000000000000000000000000000000000000000000000000000000000000000000000000000000000000000000000000000000000000000000000000000
310
0000000000000000000000000000000000000000000000000000000000000000000000000000000000000000000000000000000000000000
102
{BLKREFS
331
6F4
331
96E
331
970
331
972
331
974
102
}
1001
ACAD
1000
DesignCenter Data
1002
{
1070
     1
1070
     4
1002
}
  0
BLOCK_RECORD
  5
6F5
102
{ACAD_XDICTIONARY
360
D69
102
}
330
1
100
AcDbSymbolTableRecord
100
AcDbBlockTableRecord
  2
b
340
0
310
2800000020000000200000000100080000000000000400000000000000000000000000000000000000000000000080000080000000808000800000008000800080800000C0C0C000C0DCC000F0CAA6000020400000206000002080000020A0000020C0000020E00000400000004020000040400000406000004080000040A0
310
000040C0000040E00000600000006020000060400000606000006080000060A0000060C0000060E00000800000008020000080400000806000008080000080A0000080C0000080E00000A0000000A0200000A0400000A0600000A0800000A0A00000A0C00000A0E00000C0000000C0200000C0400000C0600000C0800000C0
310
A00000C0C00000C0E00000E0000000E0200000E0400000E0600000E0800000E0A00000E0C00000E0E00040000000400020004000400040006000400080004000A0004000C0004000E00040200000402020004020400040206000402080004020A0004020C0004020E000404000004040200040404000404060004040800040
310
40A0004040C0004040E00040600000406020004060400040606000406080004060A0004060C0004060E00040800000408020004080400040806000408080004080A0004080C0004080E00040A0000040A0200040A0400040A0600040A0800040A0A00040A0C00040A0E00040C0000040C0200040C0400040C0600040C08000
310
40C0A00040C0C00040C0E00040E0000040E0200040E0400040E0600040E0800040E0A00040E0C00040E0E00080000000800020008000400080006000800080008000A0008000C0008000E00080200000802020008020400080206000802080008020A0008020C0008020E00080400000804020008040400080406000804080
310
008040A0008040C0008040E00080600000806020008060400080606000806080008060A0008060C0008060E00080800000808020008080400080806000808080008080A0008080C0008080E00080A0000080A0200080A0400080A0600080A0800080A0A00080A0C00080A0E00080C0000080C0200080C0400080C0600080C0
310
800080C0A00080C0C00080C0E00080E0000080E0200080E0400080E0600080E0800080E0A00080E0C00080E0E000C0000000C0002000C0004000C0006000C0008000C000A000C000C000C000E000C0200000C0202000C0204000C0206000C0208000C020A000C020C000C020E000C0400000C0402000C0404000C0406000C0
310
408000C040A000C040C000C040E000C0600000C0602000C0604000C0606000C0608000C060A000C060C000C060E000C0800000C0802000C0804000C0806000C0808000C080A000C080C000C080E000C0A00000C0A02000C0A04000C0A06000C0A08000C0A0A000C0A0C000C0A0E000C0C00000C0C02000C0C04000C0C06000
310
C0C08000C0C0A000F0FBFF00A4A0A000808080000000FF0000FF000000FFFF00FF000000FF00FF00FFFF0000FFFFFF0000000000000000000000000000000000000000000000000000000000000000000000000000000000000000000000000000000000000000000000000000000000000000000000000000000000000000
310
00000000000000000000000000000000000000000000000000000000000000000000000000000000000000000000000000000000000000000000000000000000000000000000000000000000000000000000000000000000000000000000000000000000000000000000000000000000000000000000000000000000000000
310
00000000000000000000000000000000000000000000000000000000000000000000000000000000000000000000000000000000000000000000000000000000000000000000000000000000000000000000000000000000000000000000000000000000000000000000000000000000000000000000000000000000000000
310
00000000000000000000000000000000000000000000000000000000000000000000000000000000000000000000000000000000000000000000000000000000000000000000000000000000000000000000000000000000000000000000000000000000000000000000000000000000000000000000000000000000000000
310
000000000000000000000000000000000000000000FFFFFFFFFFFFFFFFFFFFFFFFFFFFFFFFFFFFFFFFFFFFFFFFFFFFFFFFFFFF0000FFFFFFFFFFFFFFFFFFFFFFFFFFFFFFFFFFFFFFFFFFFFFFFFFFFFFFFFFFFF0000000000000000000000000000000000000000000000000000000000000000000000000000000000000000
310
00000000000000000000000000000000000000000000000000000000000000000000000000000000000000000000000000000000000000000000000000000000000000000000000000000000000000000000000000000000000000000000000000000000000000000000000000000000000000000000000000000000000000
310
00000000000000000000000000000000000000000000000000000000000000000000000000000000000000000000000000000000000000000000000000000000000000000000000000000000000000000000000000000000000000000000000000000000000000000000000000000000000000000000000000000000000000
310
00000000000000000000000000000000000000000000000000000000000000000000000000000000000000000000000000000000000000000000000000000000000000000000000000000000000000000000000000000000000000000000000000000000000000000000000000000000000000000000000000000000000000
310
0000000000000000000000000000000000000000000000000000000000000000000000000000000000000000000000000000000000000000
102
{BLKREFS
331
70B
331
96F
331
971
331
973
331
975
102
}
1001
ACAD
1000
DesignCenter Data
1002
{
1070
     1
1070
     4
1002
}
  0
BLOCK_RECORD
  5
70C
102
{ACAD_XDICTIONARY
360
D6C
102
}
330
1
100
AcDbSymbolTableRecord
100
AcDbBlockTableRecord
  2
c
340
0
310
2800000020000000200000000100080000000000000400000000000000000000000000000000000000000000000080000080000000808000800000008000800080800000C0C0C000C0DCC000F0CAA6000020400000206000002080000020A0000020C0000020E00000400000004020000040400000406000004080000040A0
310
000040C0000040E00000600000006020000060400000606000006080000060A0000060C0000060E00000800000008020000080400000806000008080000080A0000080C0000080E00000A0000000A0200000A0400000A0600000A0800000A0A00000A0C00000A0E00000C0000000C0200000C0400000C0600000C0800000C0
310
A00000C0C00000C0E00000E0000000E0200000E0400000E0600000E0800000E0A00000E0C00000E0E00040000000400020004000400040006000400080004000A0004000C0004000E00040200000402020004020400040206000402080004020A0004020C0004020E000404000004040200040404000404060004040800040
310
40A0004040C0004040E00040600000406020004060400040606000406080004060A0004060C0004060E00040800000408020004080400040806000408080004080A0004080C0004080E00040A0000040A0200040A0400040A0600040A0800040A0A00040A0C00040A0E00040C0000040C0200040C0400040C0600040C08000
310
40C0A00040C0C00040C0E00040E0000040E0200040E0400040E0600040E0800040E0A00040E0C00040E0E00080000000800020008000400080006000800080008000A0008000C0008000E00080200000802020008020400080206000802080008020A0008020C0008020E00080400000804020008040400080406000804080
310
008040A0008040C0008040E00080600000806020008060400080606000806080008060A0008060C0008060E00080800000808020008080400080806000808080008080A0008080C0008080E00080A0000080A0200080A0400080A0600080A0800080A0A00080A0C00080A0E00080C0000080C0200080C0400080C0600080C0
310
800080C0A00080C0C00080C0E00080E0000080E0200080E0400080E0600080E0800080E0A00080E0C00080E0E000C0000000C0002000C0004000C0006000C0008000C000A000C000C000C000E000C0200000C0202000C0204000C0206000C0208000C020A000C020C000C020E000C0400000C0402000C0404000C0406000C0
310
408000C040A000C040C000C040E000C0600000C0602000C0604000C0606000C0608000C060A000C060C000C060E000C0800000C0802000C0804000C0806000C0808000C080A000C080C000C080E000C0A00000C0A02000C0A04000C0A06000C0A08000C0A0A000C0A0C000C0A0E000C0C00000C0C02000C0C04000C0C06000
310
C0C08000C0C0A000F0FBFF00A4A0A000808080000000FF0000FF000000FFFF00FF000000FF00FF00FFFF0000FFFFFF0000000000000000000000000000000000000000000000000000000000000000000000000000000000000000000000000000000000000000000000000000000000000000000000000000000000000000
310
00000000000000000000000000000000000000000000000000000000000000000000000000000000000000000000000000000000000000000000000000000000000000000000000000000000000000000000000000000000000000000000000000000000000000000000000000000000000000000000000000000000000000
310
00000000000000000000000000000000000000000000000000000000000000000000000000000000000000000000000000000000000000000000000000000000000000000000000000000000000000000000000000000000000000000000000000000000000000000000000000000000000000000000000000000000000000
310
00000000000000000000000000000000000000000000000000000000000000000000000000000000000000000000000000000000000000000000000000000000000000000000000000000000000000000000000000000000000000000000000000000000000000000000000000000000000000000000000000000000000000
310
000000000000000000000000000000000000000000FFFFFFFFFFFFFFFFFFFFFFFFFFFFFFFFFFFFFFFFFFFFFFFFFFFFFFFFFFFF0000FFFFFFFFFFFFFFFFFFFFFFFFFFFFFFFFFFFFFFFFFFFFFFFFFFFFFFFFFFFF0000000000000000000000000000000000000000000000000000000000000000000000000000000000000000
310
00000000000000000000000000000000000000000000000000000000000000000000000000000000000000000000000000000000000000000000000000000000000000000000000000000000000000000000000000000000000000000000000000000000000000000000000000000000000000000000000000000000000000
310
00000000000000000000000000000000000000000000000000000000000000000000000000000000000000000000000000000000000000000000000000000000000000000000000000000000000000000000000000000000000000000000000000000000000000000000000000000000000000000000000000000000000000
310
00000000000000000000000000000000000000000000000000000000000000000000000000000000000000000000000000000000000000000000000000000000000000000000000000000000000000000000000000000000000000000000000000000000000000000000000000000000000000000000000000000000000000
310
0000000000000000000000000000000000000000000000000000000000000000000000000000000000000000000000000000000000000000
1001
ACAD
1000
DesignCenter Data
1002
{
1070
     1
1070
     4
1002
}
  0
BLOCK_RECORD
  5
724
102
{ACAD_XDICTIONARY
360
D6F
102
}
330
1
100
AcDbSymbolTableRecord
100
AcDbBlockTableRecord
  2
d
340
0
310
2800000020000000200000000100080000000000000400000000000000000000000000000000000000000000000080000080000000808000800000008000800080800000C0C0C000C0DCC000F0CAA6000020400000206000002080000020A0000020C0000020E00000400000004020000040400000406000004080000040A0
310
000040C0000040E00000600000006020000060400000606000006080000060A0000060C0000060E00000800000008020000080400000806000008080000080A0000080C0000080E00000A0000000A0200000A0400000A0600000A0800000A0A00000A0C00000A0E00000C0000000C0200000C0400000C0600000C0800000C0
310
A00000C0C00000C0E00000E0000000E0200000E0400000E0600000E0800000E0A00000E0C00000E0E00040000000400020004000400040006000400080004000A0004000C0004000E00040200000402020004020400040206000402080004020A0004020C0004020E000404000004040200040404000404060004040800040
310
40A0004040C0004040E00040600000406020004060400040606000406080004060A0004060C0004060E00040800000408020004080400040806000408080004080A0004080C0004080E00040A0000040A0200040A0400040A0600040A0800040A0A00040A0C00040A0E00040C0000040C0200040C0400040C0600040C08000
310
40C0A00040C0C00040C0E00040E0000040E0200040E0400040E0600040E0800040E0A00040E0C00040E0E00080000000800020008000400080006000800080008000A0008000C0008000E00080200000802020008020400080206000802080008020A0008020C0008020E00080400000804020008040400080406000804080
310
008040A0008040C0008040E00080600000806020008060400080606000806080008060A0008060C0008060E00080800000808020008080400080806000808080008080A0008080C0008080E00080A0000080A0200080A0400080A0600080A0800080A0A00080A0C00080A0E00080C0000080C0200080C0400080C0600080C0
310
800080C0A00080C0C00080C0E00080E0000080E0200080E0400080E0600080E0800080E0A00080E0C00080E0E000C0000000C0002000C0004000C0006000C0008000C000A000C000C000C000E000C0200000C0202000C0204000C0206000C0208000C020A000C020C000C020E000C0400000C0402000C0404000C0406000C0
310
408000C040A000C040C000C040E000C0600000C0602000C0604000C0606000C0608000C060A000C060C000C060E000C0800000C0802000C0804000C0806000C0808000C080A000C080C000C080E000C0A00000C0A02000C0A04000C0A06000C0A08000C0A0A000C0A0C000C0A0E000C0C00000C0C02000C0C04000C0C06000
310
C0C08000C0C0A000F0FBFF00A4A0A000808080000000FF0000FF000000FFFF00FF000000FF00FF00FFFF0000FFFFFF0000000000000000000000000000000000000000000000000000000000000000000000000000000000000000000000000000000000000000000000000000000000000000000000000000000000000000
310
00000000000000000000000000000000000000000000000000000000000000000000000000000000000000000000000000000000000000000000000000000000000000000000000000000000000000000000000000000000000000000000000000000000000000000000000000000000000000000000000000000000000000
310
00000000000000000000000000000000000000000000000000000000000000000000000000000000000000000000000000000000000000000000000000000000000000000000000000000000000000000000000000000000000000000000000000000000000000000000000000000000000000000000000000000000000000
310
00000000000000000000000000000000000000000000000000000000000000000000000000000000000000000000000000000000000000000000000000000000000000000000000000000000000000000000000000000000000000000000000000000000000000000000000000000000000000000000000000000000000000
310
000000000000000000000000000000000000000000FFFFFFFFFFFFFFFFFFFFFFFFFFFFFFFFFFFFFFFFFFFFFFFFFFFFFFFFFFFF0000FFFFFFFFFFFFFFFFFFFFFFFFFFFFFFFFFFFFFFFFFFFFFFFFFFFFFFFFFFFF0000000000000000000000000000000000000000000000000000000000000000000000000000000000000000
310
00000000000000000000000000000000000000000000000000000000000000000000000000000000000000000000000000000000000000000000000000000000000000000000000000000000000000000000000000000000000000000000000000000000000000000000000000000000000000000000000000000000000000
310
00000000000000000000000000000000000000000000000000000000000000000000000000000000000000000000000000000000000000000000000000000000000000000000000000000000000000000000000000000000000000000000000000000000000000000000000000000000000000000000000000000000000000
310
00000000000000000000000000000000000000000000000000000000000000000000000000000000000000000000000000000000000000000000000000000000000000000000000000000000000000000000000000000000000000000000000000000000000000000000000000000000000000000000000000000000000000
310
0000000000000000000000000000000000000000000000000000000000000000000000000000000000000000000000000000000000000000
1001
ACAD
1000
DesignCenter Data
1002
{
1070
     1
1070
     4
1002
}
  0
BLOCK_RECORD
  5
73B
102
{ACAD_XDICTIONARY
360
D72
102
}
330
1
100
AcDbSymbolTableRecord
100
AcDbBlockTableRecord
  2
e
340
0
310
2800000020000000200000000100080000000000000400000000000000000000000000000000000000000000000080000080000000808000800000008000800080800000C0C0C000C0DCC000F0CAA6000020400000206000002080000020A0000020C0000020E00000400000004020000040400000406000004080000040A0
310
000040C0000040E00000600000006020000060400000606000006080000060A0000060C0000060E00000800000008020000080400000806000008080000080A0000080C0000080E00000A0000000A0200000A0400000A0600000A0800000A0A00000A0C00000A0E00000C0000000C0200000C0400000C0600000C0800000C0
310
A00000C0C00000C0E00000E0000000E0200000E0400000E0600000E0800000E0A00000E0C00000E0E00040000000400020004000400040006000400080004000A0004000C0004000E00040200000402020004020400040206000402080004020A0004020C0004020E000404000004040200040404000404060004040800040
310
40A0004040C0004040E00040600000406020004060400040606000406080004060A0004060C0004060E00040800000408020004080400040806000408080004080A0004080C0004080E00040A0000040A0200040A0400040A0600040A0800040A0A00040A0C00040A0E00040C0000040C0200040C0400040C0600040C08000
310
40C0A00040C0C00040C0E00040E0000040E0200040E0400040E0600040E0800040E0A00040E0C00040E0E00080000000800020008000400080006000800080008000A0008000C0008000E00080200000802020008020400080206000802080008020A0008020C0008020E00080400000804020008040400080406000804080
310
008040A0008040C0008040E00080600000806020008060400080606000806080008060A0008060C0008060E00080800000808020008080400080806000808080008080A0008080C0008080E00080A0000080A0200080A0400080A0600080A0800080A0A00080A0C00080A0E00080C0000080C0200080C0400080C0600080C0
310
800080C0A00080C0C00080C0E00080E0000080E0200080E0400080E0600080E0800080E0A00080E0C00080E0E000C0000000C0002000C0004000C0006000C0008000C000A000C000C000C000E000C0200000C0202000C0204000C0206000C0208000C020A000C020C000C020E000C0400000C0402000C0404000C0406000C0
310
408000C040A000C040C000C040E000C0600000C0602000C0604000C0606000C0608000C060A000C060C000C060E000C0800000C0802000C0804000C0806000C0808000C080A000C080C000C080E000C0A00000C0A02000C0A04000C0A06000C0A08000C0A0A000C0A0C000C0A0E000C0C00000C0C02000C0C04000C0C06000
310
C0C08000C0C0A000F0FBFF00A4A0A000808080000000FF0000FF000000FFFF00FF000000FF00FF00FFFF0000FFFFFF0000000000000000000000000000000000000000000000000000000000000000000000000000000000000000000000000000000000000000000000000000000000000000000000000000000000000000
310
00000000000000000000000000000000000000000000000000000000000000000000000000000000000000000000000000000000000000000000000000000000000000000000000000000000000000000000000000000000000000000000000000000000000000000000000000000000000000000000000000000000000000
310
00000000000000000000000000000000000000000000000000000000000000000000000000000000000000000000000000000000000000000000000000000000000000000000000000000000000000000000000000000000000000000000000000000000000000000000000000000000000000000000000000000000000000
310
00000000000000000000000000000000000000000000000000000000000000000000000000000000000000000000000000000000000000000000000000000000000000000000000000000000000000000000000000000000000000000000000000000000000000000000000000000000000000000000000000000000000000
310
000000000000000000000000000000000000000000FFFFFFFFFFFFFFFFFFFFFFFFFFFFFFFFFFFFFFFFFFFFFFFFFFFFFFFFFFFF0000FFFFFFFFFFFFFFFFFFFFFFFFFFFFFFFFFFFFFFFFFFFFFFFFFFFFFFFFFFFF0000000000000000000000000000000000000000000000000000000000000000000000000000000000000000
310
00000000000000000000000000000000000000000000000000000000000000000000000000000000000000000000000000000000000000000000000000000000000000000000000000000000000000000000000000000000000000000000000000000000000000000000000000000000000000000000000000000000000000
310
00000000000000000000000000000000000000000000000000000000000000000000000000000000000000000000000000000000000000000000000000000000000000000000000000000000000000000000000000000000000000000000000000000000000000000000000000000000000000000000000000000000000000
310
00000000000000000000000000000000000000000000000000000000000000000000000000000000000000000000000000000000000000000000000000000000000000000000000000000000000000000000000000000000000000000000000000000000000000000000000000000000000000000000000000000000000000
310
0000000000000000000000000000000000000000000000000000000000000000000000000000000000000000000000000000000000000000
1001
ACAD
1000
DesignCenter Data
1002
{
1070
     1
1070
     4
1002
}
  0
BLOCK_RECORD
  5
753
102
{ACAD_XDICTIONARY
360
D75
102
}
330
1
100
AcDbSymbolTableRecord
100
AcDbBlockTableRecord
  2
f
340
0
310
2800000020000000200000000100080000000000000400000000000000000000000000000000000000000000000080000080000000808000800000008000800080800000C0C0C000C0DCC000F0CAA6000020400000206000002080000020A0000020C0000020E00000400000004020000040400000406000004080000040A0
310
000040C0000040E00000600000006020000060400000606000006080000060A0000060C0000060E00000800000008020000080400000806000008080000080A0000080C0000080E00000A0000000A0200000A0400000A0600000A0800000A0A00000A0C00000A0E00000C0000000C0200000C0400000C0600000C0800000C0
310
A00000C0C00000C0E00000E0000000E0200000E0400000E0600000E0800000E0A00000E0C00000E0E00040000000400020004000400040006000400080004000A0004000C0004000E00040200000402020004020400040206000402080004020A0004020C0004020E000404000004040200040404000404060004040800040
310
40A0004040C0004040E00040600000406020004060400040606000406080004060A0004060C0004060E00040800000408020004080400040806000408080004080A0004080C0004080E00040A0000040A0200040A0400040A0600040A0800040A0A00040A0C00040A0E00040C0000040C0200040C0400040C0600040C08000
310
40C0A00040C0C00040C0E00040E0000040E0200040E0400040E0600040E0800040E0A00040E0C00040E0E00080000000800020008000400080006000800080008000A0008000C0008000E00080200000802020008020400080206000802080008020A0008020C0008020E00080400000804020008040400080406000804080
310
008040A0008040C0008040E00080600000806020008060400080606000806080008060A0008060C0008060E00080800000808020008080400080806000808080008080A0008080C0008080E00080A0000080A0200080A0400080A0600080A0800080A0A00080A0C00080A0E00080C0000080C0200080C0400080C0600080C0
310
800080C0A00080C0C00080C0E00080E0000080E0200080E0400080E0600080E0800080E0A00080E0C00080E0E000C0000000C0002000C0004000C0006000C0008000C000A000C000C000C000E000C0200000C0202000C0204000C0206000C0208000C020A000C020C000C020E000C0400000C0402000C0404000C0406000C0
310
408000C040A000C040C000C040E000C0600000C0602000C0604000C0606000C0608000C060A000C060C000C060E000C0800000C0802000C0804000C0806000C0808000C080A000C080C000C080E000C0A00000C0A02000C0A04000C0A06000C0A08000C0A0A000C0A0C000C0A0E000C0C00000C0C02000C0C04000C0C06000
310
C0C08000C0C0A000F0FBFF00A4A0A000808080000000FF0000FF000000FFFF00FF000000FF00FF00FFFF0000FFFFFF0000000000000000000000000000000000000000000000000000000000000000000000000000000000000000000000000000000000000000000000000000000000000000000000000000000000000000
310
00000000000000000000000000000000000000000000000000000000000000000000000000000000000000000000000000000000000000000000000000000000000000000000000000000000000000000000000000000000000000000000000000000000000000000000000000000000000000000000000000000000000000
310
00000000000000000000000000000000000000000000000000000000000000000000000000000000000000000000000000000000000000000000000000000000000000000000000000000000000000000000000000000000000000000000000000000000000000000000000000000000000000000000000000000000000000
310
00000000000000000000000000000000000000000000000000000000000000000000000000000000000000000000000000000000000000000000000000000000000000000000000000000000000000000000000000000000000000000000000000000000000000000000000000000000000000000000000000000000000000
310
000000000000000000000000000000000000000000FFFFFFFFFFFFFFFFFFFFFFFFFFFFFFFFFFFFFFFFFFFFFFFFFFFFFFFFFFFF0000FFFFFFFFFFFFFFFFFFFFFFFFFFFFFFFFFFFFFFFFFFFFFFFFFFFFFFFFFFFF0000000000000000000000000000000000000000000000000000000000000000000000000000000000000000
310
00000000000000000000000000000000000000000000000000000000000000000000000000000000000000000000000000000000000000000000000000000000000000000000000000000000000000000000000000000000000000000000000000000000000000000000000000000000000000000000000000000000000000
310
00000000000000000000000000000000000000000000000000000000000000000000000000000000000000000000000000000000000000000000000000000000000000000000000000000000000000000000000000000000000000000000000000000000000000000000000000000000000000000000000000000000000000
310
00000000000000000000000000000000000000000000000000000000000000000000000000000000000000000000000000000000000000000000000000000000000000000000000000000000000000000000000000000000000000000000000000000000000000000000000000000000000000000000000000000000000000
310
0000000000000000000000000000000000000000000000000000000000000000000000000000000000000000000000000000000000000000
1001
ACAD
1000
DesignCenter Data
1002
{
1070
     1
1070
     4
1002
}
  0
BLOCK_RECORD
  5
76A
102
{ACAD_XDICTIONARY
360
D78
102
}
330
1
100
AcDbSymbolTableRecord
100
AcDbBlockTableRecord
  2
g
340
0
310
2800000020000000200000000100080000000000000400000000000000000000000000000000000000000000000080000080000000808000800000008000800080800000C0C0C000C0DCC000F0CAA6000020400000206000002080000020A0000020C0000020E00000400000004020000040400000406000004080000040A0
310
000040C0000040E00000600000006020000060400000606000006080000060A0000060C0000060E00000800000008020000080400000806000008080000080A0000080C0000080E00000A0000000A0200000A0400000A0600000A0800000A0A00000A0C00000A0E00000C0000000C0200000C0400000C0600000C0800000C0
310
A00000C0C00000C0E00000E0000000E0200000E0400000E0600000E0800000E0A00000E0C00000E0E00040000000400020004000400040006000400080004000A0004000C0004000E00040200000402020004020400040206000402080004020A0004020C0004020E000404000004040200040404000404060004040800040
310
40A0004040C0004040E00040600000406020004060400040606000406080004060A0004060C0004060E00040800000408020004080400040806000408080004080A0004080C0004080E00040A0000040A0200040A0400040A0600040A0800040A0A00040A0C00040A0E00040C0000040C0200040C0400040C0600040C08000
310
40C0A00040C0C00040C0E00040E0000040E0200040E0400040E0600040E0800040E0A00040E0C00040E0E00080000000800020008000400080006000800080008000A0008000C0008000E00080200000802020008020400080206000802080008020A0008020C0008020E00080400000804020008040400080406000804080
310
008040A0008040C0008040E00080600000806020008060400080606000806080008060A0008060C0008060E00080800000808020008080400080806000808080008080A0008080C0008080E00080A0000080A0200080A0400080A0600080A0800080A0A00080A0C00080A0E00080C0000080C0200080C0400080C0600080C0
310
800080C0A00080C0C00080C0E00080E0000080E0200080E0400080E0600080E0800080E0A00080E0C00080E0E000C0000000C0002000C0004000C0006000C0008000C000A000C000C000C000E000C0200000C0202000C0204000C0206000C0208000C020A000C020C000C020E000C0400000C0402000C0404000C0406000C0
310
408000C040A000C040C000C040E000C0600000C0602000C0604000C0606000C0608000C060A000C060C000C060E000C0800000C0802000C0804000C0806000C0808000C080A000C080C000C080E000C0A00000C0A02000C0A04000C0A06000C0A08000C0A0A000C0A0C000C0A0E000C0C00000C0C02000C0C04000C0C06000
310
C0C08000C0C0A000F0FBFF00A4A0A000808080000000FF0000FF000000FFFF00FF000000FF00FF00FFFF0000FFFFFF0000000000000000000000000000000000000000000000000000000000000000000000000000000000000000000000000000000000000000000000000000000000000000000000000000000000000000
310
00000000000000000000000000000000000000000000000000000000000000000000000000000000000000000000000000000000000000000000000000000000000000000000000000000000000000000000000000000000000000000000000000000000000000000000000000000000000000000000000000000000000000
310
00000000000000000000000000000000000000000000000000000000000000000000000000000000000000000000000000000000000000000000000000000000000000000000000000000000000000000000000000000000000000000000000000000000000000000000000000000000000000000000000000000000000000
310
00000000000000000000000000000000000000000000000000000000000000000000000000000000000000000000000000000000000000000000000000000000000000000000000000000000000000000000000000000000000000000000000000000000000000000000000000000000000000000000000000000000000000
310
000000000000000000000000000000000000000000FFFFFFFFFFFFFFFFFFFFFFFFFFFFFFFFFFFFFFFFFFFFFFFFFFFFFFFFFFFF0000FFFFFFFFFFFFFFFFFFFFFFFFFFFFFFFFFFFFFFFFFFFFFFFFFFFFFFFFFFFF0000000000000000000000000000000000000000000000000000000000000000000000000000000000000000
310
00000000000000000000000000000000000000000000000000000000000000000000000000000000000000000000000000000000000000000000000000000000000000000000000000000000000000000000000000000000000000000000000000000000000000000000000000000000000000000000000000000000000000
310
00000000000000000000000000000000000000000000000000000000000000000000000000000000000000000000000000000000000000000000000000000000000000000000000000000000000000000000000000000000000000000000000000000000000000000000000000000000000000000000000000000000000000
310
00000000000000000000000000000000000000000000000000000000000000000000000000000000000000000000000000000000000000000000000000000000000000000000000000000000000000000000000000000000000000000000000000000000000000000000000000000000000000000000000000000000000000
310
0000000000000000000000000000000000000000000000000000000000000000000000000000000000000000000000000000000000000000
1001
ACAD
1000
DesignCenter Data
1002
{
1070
     1
1070
     4
1002
}
  0
BLOCK_RECORD
  5
782
102
{ACAD_XDICTIONARY
360
D7B
102
}
330
1
100
AcDbSymbolTableRecord
100
AcDbBlockTableRecord
  2
h
340
0
310
2800000020000000200000000100080000000000000400000000000000000000000000000000000000000000000080000080000000808000800000008000800080800000C0C0C000C0DCC000F0CAA6000020400000206000002080000020A0000020C0000020E00000400000004020000040400000406000004080000040A0
310
000040C0000040E00000600000006020000060400000606000006080000060A0000060C0000060E00000800000008020000080400000806000008080000080A0000080C0000080E00000A0000000A0200000A0400000A0600000A0800000A0A00000A0C00000A0E00000C0000000C0200000C0400000C0600000C0800000C0
310
A00000C0C00000C0E00000E0000000E0200000E0400000E0600000E0800000E0A00000E0C00000E0E00040000000400020004000400040006000400080004000A0004000C0004000E00040200000402020004020400040206000402080004020A0004020C0004020E000404000004040200040404000404060004040800040
310
40A0004040C0004040E00040600000406020004060400040606000406080004060A0004060C0004060E00040800000408020004080400040806000408080004080A0004080C0004080E00040A0000040A0200040A0400040A0600040A0800040A0A00040A0C00040A0E00040C0000040C0200040C0400040C0600040C08000
310
40C0A00040C0C00040C0E00040E0000040E0200040E0400040E0600040E0800040E0A00040E0C00040E0E00080000000800020008000400080006000800080008000A0008000C0008000E00080200000802020008020400080206000802080008020A0008020C0008020E00080400000804020008040400080406000804080
310
008040A0008040C0008040E00080600000806020008060400080606000806080008060A0008060C0008060E00080800000808020008080400080806000808080008080A0008080C0008080E00080A0000080A0200080A0400080A0600080A0800080A0A00080A0C00080A0E00080C0000080C0200080C0400080C0600080C0
310
800080C0A00080C0C00080C0E00080E0000080E0200080E0400080E0600080E0800080E0A00080E0C00080E0E000C0000000C0002000C0004000C0006000C0008000C000A000C000C000C000E000C0200000C0202000C0204000C0206000C0208000C020A000C020C000C020E000C0400000C0402000C0404000C0406000C0
310
408000C040A000C040C000C040E000C0600000C0602000C0604000C0606000C0608000C060A000C060C000C060E000C0800000C0802000C0804000C0806000C0808000C080A000C080C000C080E000C0A00000C0A02000C0A04000C0A06000C0A08000C0A0A000C0A0C000C0A0E000C0C00000C0C02000C0C04000C0C06000
310
C0C08000C0C0A000F0FBFF00A4A0A000808080000000FF0000FF000000FFFF00FF000000FF00FF00FFFF0000FFFFFF0000000000000000000000000000000000000000000000000000000000000000000000000000000000000000000000000000000000000000000000000000000000000000000000000000000000000000
310
00000000000000000000000000000000000000000000000000000000000000000000000000000000000000000000000000000000000000000000000000000000000000000000000000000000000000000000000000000000000000000000000000000000000000000000000000000000000000000000000000000000000000
310
00000000000000000000000000000000000000000000000000000000000000000000000000000000000000000000000000000000000000000000000000000000000000000000000000000000000000000000000000000000000000000000000000000000000000000000000000000000000000000000000000000000000000
310
00000000000000000000000000000000000000000000000000000000000000000000000000000000000000000000000000000000000000000000000000000000000000000000000000000000000000000000000000000000000000000000000000000000000000000000000000000000000000000000000000000000000000
310
000000000000000000000000000000000000000000FFFFFFFFFFFFFFFFFFFFFFFFFFFFFFFFFFFFFFFFFFFFFFFFFFFFFFFFFFFF0000FFFFFFFFFFFFFFFFFFFFFFFFFFFFFFFFFFFFFFFFFFFFFFFFFFFFFFFFFFFF0000000000000000000000000000000000000000000000000000000000000000000000000000000000000000
310
00000000000000000000000000000000000000000000000000000000000000000000000000000000000000000000000000000000000000000000000000000000000000000000000000000000000000000000000000000000000000000000000000000000000000000000000000000000000000000000000000000000000000
310
00000000000000000000000000000000000000000000000000000000000000000000000000000000000000000000000000000000000000000000000000000000000000000000000000000000000000000000000000000000000000000000000000000000000000000000000000000000000000000000000000000000000000
310
00000000000000000000000000000000000000000000000000000000000000000000000000000000000000000000000000000000000000000000000000000000000000000000000000000000000000000000000000000000000000000000000000000000000000000000000000000000000000000000000000000000000000
310
0000000000000000000000000000000000000000000000000000000000000000000000000000000000000000000000000000000000000000
1001
ACAD
1000
DesignCenter Data
1002
{
1070
     1
1070
     4
1002
}
  0
BLOCK_RECORD
  5
799
102
{ACAD_XDICTIONARY
360
D7E
102
}
330
1
100
AcDbSymbolTableRecord
100
AcDbBlockTableRecord
  2
i
340
0
310
2800000020000000200000000100080000000000000400000000000000000000000000000000000000000000000080000080000000808000800000008000800080800000C0C0C000C0DCC000F0CAA6000020400000206000002080000020A0000020C0000020E00000400000004020000040400000406000004080000040A0
310
000040C0000040E00000600000006020000060400000606000006080000060A0000060C0000060E00000800000008020000080400000806000008080000080A0000080C0000080E00000A0000000A0200000A0400000A0600000A0800000A0A00000A0C00000A0E00000C0000000C0200000C0400000C0600000C0800000C0
310
A00000C0C00000C0E00000E0000000E0200000E0400000E0600000E0800000E0A00000E0C00000E0E00040000000400020004000400040006000400080004000A0004000C0004000E00040200000402020004020400040206000402080004020A0004020C0004020E000404000004040200040404000404060004040800040
310
40A0004040C0004040E00040600000406020004060400040606000406080004060A0004060C0004060E00040800000408020004080400040806000408080004080A0004080C0004080E00040A0000040A0200040A0400040A0600040A0800040A0A00040A0C00040A0E00040C0000040C0200040C0400040C0600040C08000
310
40C0A00040C0C00040C0E00040E0000040E0200040E0400040E0600040E0800040E0A00040E0C00040E0E00080000000800020008000400080006000800080008000A0008000C0008000E00080200000802020008020400080206000802080008020A0008020C0008020E00080400000804020008040400080406000804080
310
008040A0008040C0008040E00080600000806020008060400080606000806080008060A0008060C0008060E00080800000808020008080400080806000808080008080A0008080C0008080E00080A0000080A0200080A0400080A0600080A0800080A0A00080A0C00080A0E00080C0000080C0200080C0400080C0600080C0
310
800080C0A00080C0C00080C0E00080E0000080E0200080E0400080E0600080E0800080E0A00080E0C00080E0E000C0000000C0002000C0004000C0006000C0008000C000A000C000C000C000E000C0200000C0202000C0204000C0206000C0208000C020A000C020C000C020E000C0400000C0402000C0404000C0406000C0
310
408000C040A000C040C000C040E000C0600000C0602000C0604000C0606000C0608000C060A000C060C000C060E000C0800000C0802000C0804000C0806000C0808000C080A000C080C000C080E000C0A00000C0A02000C0A04000C0A06000C0A08000C0A0A000C0A0C000C0A0E000C0C00000C0C02000C0C04000C0C06000
310
C0C08000C0C0A000F0FBFF00A4A0A000808080000000FF0000FF000000FFFF00FF000000FF00FF00FFFF0000FFFFFF0000000000000000000000000000000000000000000000000000000000000000000000000000000000000000000000000000000000000000000000000000000000000000000000000000000000000000
310
00000000000000000000000000000000000000000000000000000000000000000000000000000000000000000000000000000000000000000000000000000000000000000000000000000000000000000000000000000000000000000000000000000000000000000000000000000000000000000000000000000000000000
310
00000000000000000000000000000000000000000000000000000000000000000000000000000000000000000000000000000000000000000000000000000000000000000000000000000000000000000000000000000000000000000000000000000000000000000000000000000000000000000000000000000000000000
310
00000000000000000000000000000000000000000000000000000000000000000000000000000000000000000000000000000000000000000000000000000000000000000000000000000000000000000000000000000000000000000000000000000000000000000000000000000000000000000000000000000000000000
310
000000000000000000000000000000000000000000FFFFFFFFFFFFFFFFFFFFFFFFFFFFFFFFFFFFFFFFFFFFFFFFFFFFFFFFFFFF0000FFFFFFFFFFFFFFFFFFFFFFFFFFFFFFFFFFFFFFFFFFFFFFFFFFFFFFFFFFFF0000000000000000000000000000000000000000000000000000000000000000000000000000000000000000
310
00000000000000000000000000000000000000000000000000000000000000000000000000000000000000000000000000000000000000000000000000000000000000000000000000000000000000000000000000000000000000000000000000000000000000000000000000000000000000000000000000000000000000
310
00000000000000000000000000000000000000000000000000000000000000000000000000000000000000000000000000000000000000000000000000000000000000000000000000000000000000000000000000000000000000000000000000000000000000000000000000000000000000000000000000000000000000
310
00000000000000000000000000000000000000000000000000000000000000000000000000000000000000000000000000000000000000000000000000000000000000000000000000000000000000000000000000000000000000000000000000000000000000000000000000000000000000000000000000000000000000
310
0000000000000000000000000000000000000000000000000000000000000000000000000000000000000000000000000000000000000000
1001
ACAD
1000
DesignCenter Data
1002
{
1070
     1
1070
     4
1002
}
  0
BLOCK_RECORD
  5
7B1
102
{ACAD_XDICTIONARY
360
D81
102
}
330
1
100
AcDbSymbolTableRecord
100
AcDbBlockTableRecord
  2
j
340
0
310
2800000020000000200000000100080000000000000400000000000000000000000000000000000000000000000080000080000000808000800000008000800080800000C0C0C000C0DCC000F0CAA6000020400000206000002080000020A0000020C0000020E00000400000004020000040400000406000004080000040A0
310
000040C0000040E00000600000006020000060400000606000006080000060A0000060C0000060E00000800000008020000080400000806000008080000080A0000080C0000080E00000A0000000A0200000A0400000A0600000A0800000A0A00000A0C00000A0E00000C0000000C0200000C0400000C0600000C0800000C0
310
A00000C0C00000C0E00000E0000000E0200000E0400000E0600000E0800000E0A00000E0C00000E0E00040000000400020004000400040006000400080004000A0004000C0004000E00040200000402020004020400040206000402080004020A0004020C0004020E000404000004040200040404000404060004040800040
310
40A0004040C0004040E00040600000406020004060400040606000406080004060A0004060C0004060E00040800000408020004080400040806000408080004080A0004080C0004080E00040A0000040A0200040A0400040A0600040A0800040A0A00040A0C00040A0E00040C0000040C0200040C0400040C0600040C08000
310
40C0A00040C0C00040C0E00040E0000040E0200040E0400040E0600040E0800040E0A00040E0C00040E0E00080000000800020008000400080006000800080008000A0008000C0008000E00080200000802020008020400080206000802080008020A0008020C0008020E00080400000804020008040400080406000804080
310
008040A0008040C0008040E00080600000806020008060400080606000806080008060A0008060C0008060E00080800000808020008080400080806000808080008080A0008080C0008080E00080A0000080A0200080A0400080A0600080A0800080A0A00080A0C00080A0E00080C0000080C0200080C0400080C0600080C0
310
800080C0A00080C0C00080C0E00080E0000080E0200080E0400080E0600080E0800080E0A00080E0C00080E0E000C0000000C0002000C0004000C0006000C0008000C000A000C000C000C000E000C0200000C0202000C0204000C0206000C0208000C020A000C020C000C020E000C0400000C0402000C0404000C0406000C0
310
408000C040A000C040C000C040E000C0600000C0602000C0604000C0606000C0608000C060A000C060C000C060E000C0800000C0802000C0804000C0806000C0808000C080A000C080C000C080E000C0A00000C0A02000C0A04000C0A06000C0A08000C0A0A000C0A0C000C0A0E000C0C00000C0C02000C0C04000C0C06000
310
C0C08000C0C0A000F0FBFF00A4A0A000808080000000FF0000FF000000FFFF00FF000000FF00FF00FFFF0000FFFFFF0000000000000000000000000000000000000000000000000000000000000000000000000000000000000000000000000000000000000000000000000000000000000000000000000000000000000000
310
00000000000000000000000000000000000000000000000000000000000000000000000000000000000000000000000000000000000000000000000000000000000000000000000000000000000000000000000000000000000000000000000000000000000000000000000000000000000000000000000000000000000000
310
00000000000000000000000000000000000000000000000000000000000000000000000000000000000000000000000000000000000000000000000000000000000000000000000000000000000000000000000000000000000000000000000000000000000000000000000000000000000000000000000000000000000000
310
00000000000000000000000000000000000000000000000000000000000000000000000000000000000000000000000000000000000000000000000000000000000000000000000000000000000000000000000000000000000000000000000000000000000000000000000000000000000000000000000000000000000000
310
000000000000000000000000000000000000000000FFFFFFFFFFFFFFFFFFFFFFFFFFFFFFFFFFFFFFFFFFFFFFFFFFFFFFFFFFFF0000FFFFFFFFFFFFFFFFFFFFFFFFFFFFFFFFFFFFFFFFFFFFFFFFFFFFFFFFFFFF0000000000000000000000000000000000000000000000000000000000000000000000000000000000000000
310
00000000000000000000000000000000000000000000000000000000000000000000000000000000000000000000000000000000000000000000000000000000000000000000000000000000000000000000000000000000000000000000000000000000000000000000000000000000000000000000000000000000000000
310
00000000000000000000000000000000000000000000000000000000000000000000000000000000000000000000000000000000000000000000000000000000000000000000000000000000000000000000000000000000000000000000000000000000000000000000000000000000000000000000000000000000000000
310
00000000000000000000000000000000000000000000000000000000000000000000000000000000000000000000000000000000000000000000000000000000000000000000000000000000000000000000000000000000000000000000000000000000000000000000000000000000000000000000000000000000000000
310
0000000000000000000000000000000000000000000000000000000000000000000000000000000000000000000000000000000000000000
1001
ACAD
1000
DesignCenter Data
1002
{
1070
     1
1070
     4
1002
}
  0
BLOCK_RECORD
  5
7C8
102
{ACAD_XDICTIONARY
360
D84
102
}
330
1
100
AcDbSymbolTableRecord
100
AcDbBlockTableRecord
  2
k
340
0
310
2800000020000000200000000100080000000000000400000000000000000000000000000000000000000000000080000080000000808000800000008000800080800000C0C0C000C0DCC000F0CAA6000020400000206000002080000020A0000020C0000020E00000400000004020000040400000406000004080000040A0
310
000040C0000040E00000600000006020000060400000606000006080000060A0000060C0000060E00000800000008020000080400000806000008080000080A0000080C0000080E00000A0000000A0200000A0400000A0600000A0800000A0A00000A0C00000A0E00000C0000000C0200000C0400000C0600000C0800000C0
310
A00000C0C00000C0E00000E0000000E0200000E0400000E0600000E0800000E0A00000E0C00000E0E00040000000400020004000400040006000400080004000A0004000C0004000E00040200000402020004020400040206000402080004020A0004020C0004020E000404000004040200040404000404060004040800040
310
40A0004040C0004040E00040600000406020004060400040606000406080004060A0004060C0004060E00040800000408020004080400040806000408080004080A0004080C0004080E00040A0000040A0200040A0400040A0600040A0800040A0A00040A0C00040A0E00040C0000040C0200040C0400040C0600040C08000
310
40C0A00040C0C00040C0E00040E0000040E0200040E0400040E0600040E0800040E0A00040E0C00040E0E00080000000800020008000400080006000800080008000A0008000C0008000E00080200000802020008020400080206000802080008020A0008020C0008020E00080400000804020008040400080406000804080
310
008040A0008040C0008040E00080600000806020008060400080606000806080008060A0008060C0008060E00080800000808020008080400080806000808080008080A0008080C0008080E00080A0000080A0200080A0400080A0600080A0800080A0A00080A0C00080A0E00080C0000080C0200080C0400080C0600080C0
310
800080C0A00080C0C00080C0E00080E0000080E0200080E0400080E0600080E0800080E0A00080E0C00080E0E000C0000000C0002000C0004000C0006000C0008000C000A000C000C000C000E000C0200000C0202000C0204000C0206000C0208000C020A000C020C000C020E000C0400000C0402000C0404000C0406000C0
310
408000C040A000C040C000C040E000C0600000C0602000C0604000C0606000C0608000C060A000C060C000C060E000C0800000C0802000C0804000C0806000C0808000C080A000C080C000C080E000C0A00000C0A02000C0A04000C0A06000C0A08000C0A0A000C0A0C000C0A0E000C0C00000C0C02000C0C04000C0C06000
310
C0C08000C0C0A000F0FBFF00A4A0A000808080000000FF0000FF000000FFFF00FF000000FF00FF00FFFF0000FFFFFF0000000000000000000000000000000000000000000000000000000000000000000000000000000000000000000000000000000000000000000000000000000000000000000000000000000000000000
310
00000000000000000000000000000000000000000000000000000000000000000000000000000000000000000000000000000000000000000000000000000000000000000000000000000000000000000000000000000000000000000000000000000000000000000000000000000000000000000000000000000000000000
310
00000000000000000000000000000000000000000000000000000000000000000000000000000000000000000000000000000000000000000000000000000000000000000000000000000000000000000000000000000000000000000000000000000000000000000000000000000000000000000000000000000000000000
310
00000000000000000000000000000000000000000000000000000000000000000000000000000000000000000000000000000000000000000000000000000000000000000000000000000000000000000000000000000000000000000000000000000000000000000000000000000000000000000000000000000000000000
310
000000000000000000000000000000000000000000FFFFFFFFFFFFFFFFFFFFFFFFFFFFFFFFFFFFFFFFFFFFFFFFFFFFFFFFFFFF0000FFFFFFFFFFFFFFFFFFFFFFFFFFFFFFFFFFFFFFFFFFFFFFFFFFFFFFFFFFFF0000000000000000000000000000000000000000000000000000000000000000000000000000000000000000
310
00000000000000000000000000000000000000000000000000000000000000000000000000000000000000000000000000000000000000000000000000000000000000000000000000000000000000000000000000000000000000000000000000000000000000000000000000000000000000000000000000000000000000
310
00000000000000000000000000000000000000000000000000000000000000000000000000000000000000000000000000000000000000000000000000000000000000000000000000000000000000000000000000000000000000000000000000000000000000000000000000000000000000000000000000000000000000
310
00000000000000000000000000000000000000000000000000000000000000000000000000000000000000000000000000000000000000000000000000000000000000000000000000000000000000000000000000000000000000000000000000000000000000000000000000000000000000000000000000000000000000
310
0000000000000000000000000000000000000000000000000000000000000000000000000000000000000000000000000000000000000000
102
{BLKREFS
331
7DF
102
}
1001
ACAD
1000
DesignCenter Data
1002
{
1070
     1
1070
     4
1002
}
  0
BLOCK_RECORD
  5
7E2
330
1
100
AcDbSymbolTableRecord
100
AcDbBlockTableRecord
  2
*D26
340
0
  0
BLOCK_RECORD
  5
7FA
330
1
100
AcDbSymbolTableRecord
100
AcDbBlockTableRecord
  2
*D27
340
0
  0
BLOCK_RECORD
  5
814
330
1
100
AcDbSymbolTableRecord
100
AcDbBlockTableRecord
  2
*D28
340
0
  0
BLOCK_RECORD
  5
82C
330
1
100
AcDbSymbolTableRecord
100
AcDbBlockTableRecord
  2
*D29
340
0
  0
BLOCK_RECORD
  5
844
330
1
100
AcDbSymbolTableRecord
100
AcDbBlockTableRecord
  2
*D30
340
0
  0
BLOCK_RECORD
  5
85C
330
1
100
AcDbSymbolTableRecord
100
AcDbBlockTableRecord
  2
*D31
340
0
  0
BLOCK_RECORD
  5
874
330
1
100
AcDbSymbolTableRecord
100
AcDbBlockTableRecord
  2
*D32
340
0
  0
BLOCK_RECORD
  5
88C
330
1
100
AcDbSymbolTableRecord
100
AcDbBlockTableRecord
  2
*D33
340
0
  0
BLOCK_RECORD
  5
8BF
330
1
100
AcDbSymbolTableRecord
100
AcDbBlockTableRecord
  2
*D34
340
0
  0
BLOCK_RECORD
  5
8D7
330
1
100
AcDbSymbolTableRecord
100
AcDbBlockTableRecord
  2
*D35
340
0
  0
BLOCK_RECORD
  5
8F1
330
1
100
AcDbSymbolTableRecord
100
AcDbBlockTableRecord
  2
*D36
340
0
  0
BLOCK_RECORD
  5
909
330
1
100
AcDbSymbolTableRecord
100
AcDbBlockTableRecord
  2
*D37
340
0
  0
BLOCK_RECORD
  5
923
330
1
100
AcDbSymbolTableRecord
100
AcDbBlockTableRecord
  2
*D38
340
0
  0
BLOCK_RECORD
  5
93D
330
1
100
AcDbSymbolTableRecord
100
AcDbBlockTableRecord
  2
*D39
340
0
  0
BLOCK_RECORD
  5
955
330
1
100
AcDbSymbolTableRecord
100
AcDbBlockTableRecord
  2
*D40
340
0
  0
BLOCK_RECORD
  5
978
330
1
100
AcDbSymbolTableRecord
100
AcDbBlockTableRecord
  2
*D41
340
0
  0
BLOCK_RECORD
  5
9E1
330
1
100
AcDbSymbolTableRecord
100
AcDbBlockTableRecord
  2
_DotSmall
340
0
  0
BLOCK_RECORD
  5
A25
330
1
100
AcDbSymbolTableRecord
100
AcDbBlockTableRecord
  2
*D43
340
0
  0
BLOCK_RECORD
  5
A3D
330
1
100
AcDbSymbolTableRecord
100
AcDbBlockTableRecord
  2
*D44
340
0
  0
BLOCK_RECORD
  5
A72
330
1
100
AcDbSymbolTableRecord
100
AcDbBlockTableRecord
  2
*D45
340
0
  0
BLOCK_RECORD
  5
A93
330
1
100
AcDbSymbolTableRecord
100
AcDbBlockTableRecord
  2
*D46
340
0
  0
BLOCK_RECORD
  5
AAB
330
1
100
AcDbSymbolTableRecord
100
AcDbBlockTableRecord
  2
*D47
340
0
  0
BLOCK_RECORD
  5
AD3
330
1
100
AcDbSymbolTableRecord
100
AcDbBlockTableRecord
  2
*D48
340
0
  0
BLOCK_RECORD
  5
AEB
330
1
100
AcDbSymbolTableRecord
100
AcDbBlockTableRecord
  2
*D49
340
0
  0
BLOCK_RECORD
  5
B01
330
1
100
AcDbSymbolTableRecord
100
AcDbBlockTableRecord
  2
*D50
340
0
  0
BLOCK_RECORD
  5
B19
330
1
100
AcDbSymbolTableRecord
100
AcDbBlockTableRecord
  2
*D51
340
0
  0
BLOCK_RECORD
  5
B31
330
1
100
AcDbSymbolTableRecord
100
AcDbBlockTableRecord
  2
*D52
340
0
  0
BLOCK_RECORD
  5
B50
330
1
100
AcDbSymbolTableRecord
100
AcDbBlockTableRecord
  2
*D53
340
0
  0
BLOCK_RECORD
  5
B6B
330
1
100
AcDbSymbolTableRecord
100
AcDbBlockTableRecord
  2
*D54
340
0
  0
BLOCK_RECORD
  5
B7C
330
1
100
AcDbSymbolTableRecord
100
AcDbBlockTableRecord
  2
*D55
340
0
  0
BLOCK_RECORD
  5
B96
330
1
100
AcDbSymbolTableRecord
100
AcDbBlockTableRecord
  2
*D56
340
0
  0
BLOCK_RECORD
  5
BED
330
1
100
AcDbSymbolTableRecord
100
AcDbBlockTableRecord
  2
*D57
340
0
  0
BLOCK_RECORD
  5
C03
330
1
100
AcDbSymbolTableRecord
100
AcDbBlockTableRecord
  2
*D58
340
0
  0
BLOCK_RECORD
  5
CDA
330
1
100
AcDbSymbolTableRecord
100
AcDbBlockTableRecord
  2
*D59
340
0
  0
BLOCK_RECORD
  5
CF2
330
1
100
AcDbSymbolTableRecord
100
AcDbBlockTableRecord
  2
*D60
340
0
  0
BLOCK_RECORD
  5
D13
330
1
100
AcDbSymbolTableRecord
100
AcDbBlockTableRecord
  2
*D61
340
0
  0
BLOCK_RECORD
  5
DDD
330
1
100
AcDbSymbolTableRecord
100
AcDbBlockTableRecord
  2
*D62
340
0
  0
BLOCK_RECORD
  5
DFC
330
1
100
AcDbSymbolTableRecord
100
AcDbBlockTableRecord
  2
*D63
340
0
  0
BLOCK_RECORD
  5
E09
330
1
100
AcDbSymbolTableRecord
100
AcDbBlockTableRecord
  2
*D64
340
0
  0
BLOCK_RECORD
  5
E69
330
1
100
AcDbSymbolTableRecord
100
AcDbBlockTableRecord
  2
*D65
340
0
  0
BLOCK_RECORD
  5
E7F
330
1
100
AcDbSymbolTableRecord
100
AcDbBlockTableRecord
  2
*D66
340
0
  0
ENDTAB
  0
ENDSEC
  0
SECTION
  2
BLOCKS
  0
BLOCK
  5
66
330
65
100
AcDbEntity
  8
0
100
AcDbBlockBegin
  2
*Model_Space
 70
     0
 10
0.0
 20
0.0
 30
0.0
  3
*Model_Space
  1

  0
ENDBLK
  5
67
330
65
100
AcDbEntity
  8
0
100
AcDbBlockEnd
  0
BLOCK
  5
62
330
61
100
AcDbEntity
 67
     1
  8
0
100
AcDbBlockBegin
  2
*Paper_Space
 70
     0
 10
0.0
 20
0.0
 30
0.0
  3
*Paper_Space
  1

  0
ENDBLK
  5
63
330
61
100
AcDbEntity
 67
     1
  8
0
100
AcDbBlockEnd
  0
BLOCK
  5
6A
330
69
100
AcDbEntity
 67
     1
  8
0
100
AcDbBlockBegin
  2
*Paper_Space0
 70
     0
 10
0.0
 20
0.0
 30
0.0
  3
*Paper_Space0
  1

  0
ENDBLK
  5
6B
330
69
100
AcDbEntity
 67
     1
  8
0
100
AcDbBlockEnd
  0
BLOCK
  5
349
330
348
100
AcDbEntity
  8
0
100
AcDbBlockBegin
  2
*D1
 70
     1
 10
0.0
 20
0.0
 30
0.0
  3
*D1
  1

  0
LINE
  5
34B
330
348
100
AcDbEntity
  8
寸法線
 62
     0
370
    -2
100
AcDbLine
 10
210.0
 20
-295.0
 30
0.0
 11
210.0
 21
-259.1
 31
0.0
  0
LINE
  5
34C
330
348
100
AcDbEntity
  8
寸法線
 62
     0
370
    -2
100
AcDbLine
 10
310.0
 20
-295.0
 30
0.0
 11
310.0
 21
-259.1
 31
0.0
  0
LINE
  5
34D
330
348
100
AcDbEntity
  8
寸法線
 62
     0
370
    -2
100
AcDbLine
 10
215.0
 20
-260.0
 30
0.0
 11
305.0
 21
-260.0
 31
0.0
  0
SOLID
  5
34E
330
348
100
AcDbEntity
  8
寸法線
 62
     0
100
AcDbTrace
 10
215.0
 20
-259.1666666666667
 30
0.0
 11
215.0
 21
-260.8333333333333
 31
0.0
 12
210.0
 22
-260.0
 32
0.0
 13
210.0
 23
-260.0
 33
0.0
  0
SOLID
  5
34F
330
348
100
AcDbEntity
  8
寸法線
 62
     0
100
AcDbTrace
 10
305.0
 20
-259.1666666666667
 30
0.0
 11
305.0
 21
-260.8333333333333
 31
0.0
 12
310.0
 22
-260.0
 32
0.0
 13
310.0
 23
-260.0
 33
0.0
  0
MTEXT
  5
350
330
348
100
AcDbEntity
  8
寸法線
 62
     0
100
AcDbMText
 10
260.0
 20
-253.1601296043656
 30
0.0
 40
8.5
 41
0.0
 71
     5
 72
     1
  1
\A1;100
  7
Dimsmall
 73
     1
 44
1.0
1001
ACAD
1000
MTEXTBEGIN
1070
    73
1070
     1
1070
    44
1040
1.0
1070
    74
1070
     0
1000
MTEXTEND
  0
POINT
  5
351
330
348
100
AcDbEntity
  8
Defpoints
 62
     0
100
AcDbPoint
 10
210.0
 20
-300.0
 30
0.0
  0
POINT
  5
352
330
348
100
AcDbEntity
  8
Defpoints
 62
     0
100
AcDbPoint
 10
310.0
 20
-300.0
 30
0.0
  0
POINT
  5
353
330
348
100
AcDbEntity
  8
Defpoints
 62
     0
100
AcDbPoint
 10
310.0
 20
-260.0
 30
0.0
  0
ENDBLK
  5
34A
330
348
100
AcDbEntity
  8
0
100
AcDbBlockEnd
  0
BLOCK
  5
3C2
330
3C1
100
AcDbEntity
  8
0
100
AcDbBlockBegin
  2
*D2
 70
     1
 10
0.0
 20
0.0
 30
0.0
  3
*D2
  1

  0
LINE
  5
3C4
330
3C1
100
AcDbEntity
  8
寸法線
 62
     0
370
    -2
100
AcDbLine
 10
480.0
 20
840.0
 30
0.0
 11
444.1000000000001
 21
840.0
 31
0.0
  0
LINE
  5
3C5
330
3C1
100
AcDbEntity
  8
寸法線
 62
     0
370
    -2
100
AcDbLine
 10
480.0
 20
-160.0
 30
0.0
 11
444.0999999999998
 21
-159.9999999999999
 31
0.0
  0
LINE
  5
3C6
330
3C1
100
AcDbEntity
  8
寸法線
 62
     0
370
    -2
100
AcDbLine
 10
445.0000000000001
 20
835.0
 30
0.0
 11
444.9999999999998
 21
-155.0
 31
0.0
  0
SOLID
  5
3C7
330
3C1
100
AcDbEntity
  8
寸法線
 62
     0
100
AcDbTrace
 10
444.1666666666669
 20
835.0
 30
0.0
 11
445.8333333333333
 21
835.0
 31
0.0
 12
445.0000000000001
 22
840.0
 32
0.0
 13
445.0000000000001
 23
840.0
 33
0.0
  0
SOLID
  5
3C8
330
3C1
100
AcDbEntity
  8
寸法線
 62
     0
100
AcDbTrace
 10
444.1666666666666
 20
-155.0
 30
0.0
 11
445.8333333333333
 21
-155.0
 31
0.0
 12
444.9999999999998
 22
-159.9999999999999
 32
0.0
 13
444.9999999999998
 23
-159.9999999999999
 33
0.0
  0
MTEXT
  5
3C9
330
3C1
100
AcDbEntity
  8
寸法線
 62
     0
100
AcDbMText
 10
438.1601296043656
 20
340.0000000000001
 30
0.0
 40
8.5
 41
0.0
 71
     5
 72
     1
  1
\A1;1000
  7
Dimsmall
 11
0.0000000000000001
 21
1.0
 31
0.0
 73
     1
 44
1.0
1001
ACAD
1000
MTEXTBEGIN
1070
    73
1070
     1
1070
    44
1040
1.0
1070
    74
1070
     0
1000
MTEXTEND
  0
POINT
  5
3CA
330
3C1
100
AcDbEntity
  8
Defpoints
 62
     0
100
AcDbPoint
 10
485.0
 20
840.0
 30
0.0
  0
POINT
  5
3CB
330
3C1
100
AcDbEntity
  8
Defpoints
 62
     0
100
AcDbPoint
 10
485.0
 20
-160.0
 30
0.0
  0
POINT
  5
3CC
330
3C1
100
AcDbEntity
  8
Defpoints
 62
     0
100
AcDbPoint
 10
444.9999999999998
 20
-159.9999999999999
 30
0.0
  0
ENDBLK
  5
3C3
330
3C1
100
AcDbEntity
  8
0
100
AcDbBlockEnd
  0
BLOCK
  5
3CF
330
3CE
100
AcDbEntity
  8
0
100
AcDbBlockBegin
  2
*D3
 70
     1
 10
0.0
 20
0.0
 30
0.0
  3
*D3
  1

  0
LINE
  5
3D1
330
3CE
100
AcDbEntity
  8
寸法線
 62
     0
370
    -2
100
AcDbLine
 10
485.0
 20
-165.0
 30
0.0
 11
485.0
 21
-200.9
 31
0.0
  0
LINE
  5
3D2
330
3CE
100
AcDbEntity
  8
寸法線
 62
     0
370
    -2
100
AcDbLine
 10
504.0
 20
-165.0
 30
0.0
 11
504.0
 21
-200.9
 31
0.0
  0
LINE
  5
3D3
330
3CE
100
AcDbEntity
  8
寸法線
 62
     0
370
    -2
100
AcDbLine
 10
490.0
 20
-200.0
 30
0.0
 11
499.0
 21
-200.0
 31
0.0
  0
SOLID
  5
3D4
330
3CE
100
AcDbEntity
  8
寸法線
 62
     0
100
AcDbTrace
 10
490.0
 20
-199.1666666666666
 30
0.0
 11
490.0
 21
-200.8333333333333
 31
0.0
 12
485.0
 22
-200.0
 32
0.0
 13
485.0
 23
-200.0
 33
0.0
  0
SOLID
  5
3D5
330
3CE
100
AcDbEntity
  8
寸法線
 62
     0
100
AcDbTrace
 10
499.0
 20
-199.1666666666666
 30
0.0
 11
499.0
 21
-200.8333333333333
 31
0.0
 12
504.0
 22
-200.0
 32
0.0
 13
504.0
 23
-200.0
 33
0.0
  0
MTEXT
  5
3D6
330
3CE
100
AcDbEntity
  8
寸法線
 62
     0
100
AcDbMText
 10
494.5
 20
-193.1601296043656
 30
0.0
 40
8.5
 41
0.0
 71
     5
 72
     1
  1
\A1;19
  7
Dimsmall
 73
     1
 44
1.0
1001
ACAD
1000
MTEXTBEGIN
1070
    73
1070
     1
1070
    44
1040
1.0
1070
    74
1070
     0
1000
MTEXTEND
  0
POINT
  5
3D7
330
3CE
100
AcDbEntity
  8
Defpoints
 62
     0
100
AcDbPoint
 10
485.0
 20
-160.0
 30
0.0
  0
POINT
  5
3D8
330
3CE
100
AcDbEntity
  8
Defpoints
 62
     0
100
AcDbPoint
 10
504.0
 20
-160.0
 30
0.0
  0
POINT
  5
3D9
330
3CE
100
AcDbEntity
  8
Defpoints
 62
     0
100
AcDbPoint
 10
504.0
 20
-200.0
 30
0.0
  0
ENDBLK
  5
3D0
330
3CE
100
AcDbEntity
  8
0
100
AcDbBlockEnd
  0
BLOCK
  5
424
330
423
100
AcDbEntity
  8
0
100
AcDbBlockBegin
  2
*D4
 70
     1
 10
0.0
 20
0.0
 30
0.0
  3
*D4
  1

  0
LINE
  5
EF8
330
423
100
AcDbEntity
  8
0
 62
     0
370
    -2
100
AcDbLine
 10
893.9958737716715
 20
759.4711826389847
 30
0.0
 11
862.9191383496303
 21
759.4711826389847
 31
0.0
  0
LINE
  5
EF9
330
423
100
AcDbEntity
  8
0
 62
     0
370
    -2
100
AcDbLine
 10
893.9958737716715
 20
674.4711826389846
 30
0.0
 11
862.9191383496303
 21
674.4711826389846
 31
0.0
  0
LINE
  5
EFA
330
423
100
AcDbEntity
  8
0
 62
     0
370
    -2
100
AcDbLine
 10
863.8191383496303
 20
754.4711826389847
 30
0.0
 11
863.8191383496303
 21
679.4711826389845
 31
0.0
  0
SOLID
  5
EFB
330
423
100
AcDbEntity
  8
0
 62
     0
100
AcDbTrace
 10
862.9858050162971
 20
754.4711826389847
 30
0.0
 11
864.6524716829638
 21
754.4711826389847
 31
0.0
 12
863.8191383496303
 22
759.4711826389847
 32
0.0
 13
863.8191383496303
 23
759.4711826389847
 33
0.0
  0
SOLID
  5
EFC
330
423
100
AcDbEntity
  8
0
 62
     0
100
AcDbTrace
 10
862.9858050162971
 20
679.4711826389845
 30
0.0
 11
864.6524716829638
 21
679.4711826389845
 31
0.0
 12
863.8191383496303
 22
674.4711826389846
 32
0.0
 13
863.8191383496303
 23
674.4711826389846
 33
0.0
  0
MTEXT
  5
EFD
330
423
100
AcDbEntity
  8
0
 62
     0
100
AcDbMText
 10
856.9792679539958
 20
716.9711826389848
 30
0.0
 40
8.5
 41
0.0
 71
     5
 72
     1
  1
\A1;85
  7
Dimsmall
 11
0.0000000000000001
 21
1.0
 31
0.0
 73
     1
 44
1.0
1001
ACAD
1000
MTEXTBEGIN
1070
    73
1070
     1
1070
    44
1040
1.0
1070
    74
1070
     0
1000
MTEXTEND
  0
POINT
  5
EFE
330
423
100
AcDbEntity
  8
Defpoints
 62
     0
100
AcDbPoint
 10
898.9958737716714
 20
759.4711826389847
 30
0.0
  0
POINT
  5
EFF
330
423
100
AcDbEntity
  8
Defpoints
 62
     0
100
AcDbPoint
 10
898.9958737716714
 20
674.4711826389846
 30
0.0
  0
POINT
  5
F00
330
423
100
AcDbEntity
  8
Defpoints
 62
     0
100
AcDbPoint
 10
863.8191383496303
 20
674.4711826389846
 30
0.0
  0
ENDBLK
  5
425
330
423
100
AcDbEntity
  8
0
100
AcDbBlockEnd
  0
BLOCK
  5
43C
330
43B
100
AcDbEntity
  8
0
100
AcDbBlockBegin
  2
*D5
 70
     1
 10
0.0
 20
0.0
 30
0.0
  3
*D5
  1

  0
LINE
  5
F13
330
43B
100
AcDbEntity
  8
0
 62
     0
370
    -2
100
AcDbLine
 10
1138.995873771671
 20
744.4711826389847
 30
0.0
 11
1169.532851158712
 21
744.4711826389847
 31
0.0
  0
LINE
  5
F14
330
43B
100
AcDbEntity
  8
0
 62
     0
370
    -2
100
AcDbLine
 10
1138.995873771671
 20
689.4711826389847
 30
0.0
 11
1169.532851158712
 21
689.4711826389847
 31
0.0
  0
LINE
  5
F15
330
43B
100
AcDbEntity
  8
0
 62
     0
370
    -2
100
AcDbLine
 10
1168.632851158712
 20
739.4711826389847
 30
0.0
 11
1168.632851158712
 21
694.4711826389847
 31
0.0
  0
SOLID
  5
F16
330
43B
100
AcDbEntity
  8
0
 62
     0
100
AcDbTrace
 10
1167.799517825378
 20
739.4711826389847
 30
0.0
 11
1169.466184492045
 21
739.4711826389847
 31
0.0
 12
1168.632851158712
 22
744.4711826389847
 32
0.0
 13
1168.632851158712
 23
744.4711826389847
 33
0.0
  0
SOLID
  5
F17
330
43B
100
AcDbEntity
  8
0
 62
     0
100
AcDbTrace
 10
1167.799517825378
 20
694.4711826389847
 30
0.0
 11
1169.466184492045
 21
694.4711826389847
 31
0.0
 12
1168.632851158712
 22
689.4711826389847
 32
0.0
 13
1168.632851158712
 23
689.4711826389847
 33
0.0
  0
MTEXT
  5
F18
330
43B
100
AcDbEntity
  8
0
 62
     0
100
AcDbMText
 10
1161.8103750332
 20
716.9711826389848
 30
0.0
 40
8.5
 41
0.0
 71
     5
 72
     1
  1
\A1;55
  7
Dimsmall
 11
0.0000000000000001
 21
1.0
 31
0.0
 73
     1
 44
1.0
1001
ACAD
1000
MTEXTBEGIN
1070
    73
1070
     1
1070
    44
1040
1.0
1070
    74
1070
     0
1000
MTEXTEND
  0
POINT
  5
F19
330
43B
100
AcDbEntity
  8
Defpoints
 62
     0
100
AcDbPoint
 10
1133.995873771671
 20
744.4711826389847
 30
0.0
  0
POINT
  5
F1A
330
43B
100
AcDbEntity
  8
Defpoints
 62
     0
100
AcDbPoint
 10
1133.995873771671
 20
689.4711826389847
 30
0.0
  0
POINT
  5
F1B
330
43B
100
AcDbEntity
  8
Defpoints
 62
     0
100
AcDbPoint
 10
1168.632851158712
 20
689.4711826389847
 30
0.0
  0
ENDBLK
  5
43D
330
43B
100
AcDbEntity
  8
0
100
AcDbBlockEnd
  0
BLOCK
  5
454
330
453
100
AcDbEntity
  8
0
100
AcDbBlockBegin
  2
*D6
 70
     1
 10
0.0
 20
0.0
 30
0.0
  3
*D6
  1

  0
LINE
  5
F01
330
453
100
AcDbEntity
  8
0
 62
     0
370
    -2
100
AcDbLine
 10
898.9958737716714
 20
669.4711826389846
 30
0.0
 11
898.9958737716714
 21
638.9827739000623
 31
0.0
  0
LINE
  5
F02
330
453
100
AcDbEntity
  8
0
 62
     0
370
    -2
100
AcDbLine
 10
1133.995873771671
 20
684.4711826389847
 30
0.0
 11
1133.995873771671
 21
638.9827739000623
 31
0.0
  0
LINE
  5
F03
330
453
100
AcDbEntity
  8
0
 62
     0
370
    -2
100
AcDbLine
 10
903.9958737716714
 20
639.8827739000624
 30
0.0
 11
1128.995873771671
 21
639.8827739000624
 31
0.0
  0
SOLID
  5
F04
330
453
100
AcDbEntity
  8
0
 62
     0
100
AcDbTrace
 10
903.9958737716714
 20
640.7161072333957
 30
0.0
 11
903.9958737716714
 21
639.049440566729
 31
0.0
 12
898.9958737716714
 22
639.8827739000624
 32
0.0
 13
898.9958737716714
 23
639.8827739000624
 33
0.0
  0
SOLID
  5
F05
330
453
100
AcDbEntity
  8
0
 62
     0
100
AcDbTrace
 10
1128.995873771671
 20
640.7161072333957
 30
0.0
 11
1128.995873771671
 21
639.049440566729
 31
0.0
 12
1133.995873771671
 22
639.8827739000624
 32
0.0
 13
1133.995873771671
 23
639.8827739000624
 33
0.0
  0
MTEXT
  5
F06
330
453
100
AcDbEntity
  8
0
 62
     0
100
AcDbMText
 10
1016.495873771671
 20
646.7255433407172
 30
0.0
 40
8.5
 41
0.0
 71
     5
 72
     1
  1
\A1;235
  7
Dimsmall
 73
     1
 44
1.0
1001
ACAD
1000
MTEXTBEGIN
1070
    73
1070
     1
1070
    44
1040
1.0
1070
    74
1070
     0
1000
MTEXTEND
  0
POINT
  5
F07
330
453
100
AcDbEntity
  8
Defpoints
 62
     0
100
AcDbPoint
 10
898.9958737716714
 20
674.4711826389846
 30
0.0
  0
POINT
  5
F08
330
453
100
AcDbEntity
  8
Defpoints
 62
     0
100
AcDbPoint
 10
1133.995873771671
 20
689.4711826389847
 30
0.0
  0
POINT
  5
F09
330
453
100
AcDbEntity
  8
Defpoints
 62
     0
100
AcDbPoint
 10
1133.995873771671
 20
639.8827739000624
 30
0.0
  0
ENDBLK
  5
455
330
453
100
AcDbEntity
  8
0
100
AcDbBlockEnd
  0
BLOCK
  5
486
330
485
100
AcDbEntity
  8
0
100
AcDbBlockBegin
  2
*D7
 70
     1
 10
0.0
 20
0.0
 30
0.0
  3
*D7
  1

  0
LINE
  5
4AE
330
485
100
AcDbEntity
  8
用紙枠
 62
     0
370
    -2
100
AcDbLine
 10
226.4845855205269
 20
356.4060172314348
 30
0.0
 11
226.4845855205269
 21
393.1685349709527
 31
0.0
  0
LINE
  5
4AF
330
485
100
AcDbEntity
  8
用紙枠
 62
     0
370
    -2
100
AcDbLine
 10
642.45777109597
 20
356.4060172314348
 30
0.0
 11
642.45777109597
 21
393.1685349709527
 31
0.0
  0
LINE
  5
4B0
330
485
100
AcDbEntity
  8
用紙枠
 62
     0
370
    -2
100
AcDbLine
 10
231.484585520527
 20
392.2685349709527
 30
0.0
 11
637.4577710959697
 21
392.2685349709527
 31
0.0
  0
SOLID
  5
4B1
330
485
100
AcDbEntity
  8
用紙枠
 62
     0
100
AcDbTrace
 10
231.484585520527
 20
393.101868304286
 30
0.0
 11
231.484585520527
 21
391.4352016376194
 31
0.0
 12
226.4845855205269
 22
392.2685349709527
 32
0.0
 13
226.4845855205269
 23
392.2685349709527
 33
0.0
  0
SOLID
  5
4B2
330
485
100
AcDbEntity
  8
用紙枠
 62
     0
100
AcDbTrace
 10
637.4577710959697
 20
393.101868304286
 30
0.0
 11
637.4577710959697
 21
391.4352016376194
 31
0.0
 12
642.45777109597
 22
392.2685349709527
 32
0.0
 13
642.45777109597
 23
392.2685349709527
 33
0.0
  0
MTEXT
  5
4B3
330
485
100
AcDbEntity
  8
用紙枠
 62
     0
100
AcDbMText
 10
434.4711783082482
 20
399.1084053665872
 30
0.0
 40
8.5
 41
0.0
 71
     5
 72
     1
  1
\A1;416
  7
Dimsmall
 73
     1
 44
1.0
1001
ACAD
1000
MTEXTBEGIN
1070
    73
1070
     1
1070
    44
1040
1.0
1070
    74
1070
     0
1000
MTEXTEND
  0
POINT
  5
4B4
330
485
100
AcDbEntity
  8
Defpoints
 62
     0
100
AcDbPoint
 10
226.4845855205269
 20
351.4060172314348
 30
0.0
  0
POINT
  5
4B5
330
485
100
AcDbEntity
  8
Defpoints
 62
     0
100
AcDbPoint
 10
642.45777109597
 20
351.4060172314348
 30
0.0
  0
POINT
  5
4B6
330
485
100
AcDbEntity
  8
Defpoints
 62
     0
100
AcDbPoint
 10
642.45777109597
 20
392.2685349709527
 30
0.0
  0
ENDBLK
  5
487
330
485
100
AcDbEntity
  8
0
100
AcDbBlockEnd
  0
BLOCK
  5
4B9
330
4B8
100
AcDbEntity
  8
0
100
AcDbBlockBegin
  2
*D8
 70
     1
 10
0.0
 20
0.0
 30
0.0
  3
*D8
  1

  0
LINE
  5
504
330
4B8
100
AcDbEntity
  8
用紙枠
 62
     0
370
    -2
100
AcDbLine
 10
239.4712166061208
 20
346.4060172314348
 30
0.0
 11
239.4712166061208
 21
258.8418666910303
 31
0.0
  0
LINE
  5
505
330
4B8
100
AcDbEntity
  8
用紙枠
 62
     0
370
    -2
100
AcDbLine
 10
629.4712166061207
 20
346.4060172314348
 30
0.0
 11
629.4712166061207
 21
258.8418666910303
 31
0.0
  0
LINE
  5
506
330
4B8
100
AcDbEntity
  8
用紙枠
 62
     0
370
    -2
100
AcDbLine
 10
244.4712166061208
 20
259.7418666910304
 30
0.0
 11
624.4712166061207
 21
259.7418666910304
 31
0.0
  0
SOLID
  5
507
330
4B8
100
AcDbEntity
  8
用紙枠
 62
     0
100
AcDbTrace
 10
244.4712166061208
 20
260.5752000243636
 30
0.0
 11
244.4712166061208
 21
258.908533357697
 31
0.0
 12
239.4712166061208
 22
259.7418666910304
 32
0.0
 13
239.4712166061208
 23
259.7418666910304
 33
0.0
  0
SOLID
  5
508
330
4B8
100
AcDbEntity
  8
用紙枠
 62
     0
100
AcDbTrace
 10
624.4712166061207
 20
260.5752000243636
 30
0.0
 11
624.4712166061207
 21
258.908533357697
 31
0.0
 12
629.4712166061207
 22
259.7418666910304
 32
0.0
 13
629.4712166061207
 23
259.7418666910304
 33
0.0
  0
MTEXT
  5
509
330
4B8
100
AcDbEntity
  8
用紙枠
 62
     0
100
AcDbMText
 10
434.4712166061208
 20
266.5846361316851
 30
0.0
 40
8.5
 41
0.0
 71
     5
 72
     1
  1
\A1;390
  7
Dimsmall
 73
     1
 44
1.0
1001
ACAD
1000
MTEXTBEGIN
1070
    73
1070
     1
1070
    44
1040
1.0
1070
    74
1070
     0
1000
MTEXTEND
  0
POINT
  5
50A
330
4B8
100
AcDbEntity
  8
Defpoints
 62
     0
100
AcDbPoint
 10
239.4712166061208
 20
351.4060172314348
 30
0.0
  0
POINT
  5
50B
330
4B8
100
AcDbEntity
  8
Defpoints
 62
     0
100
AcDbPoint
 10
629.4712166061207
 20
351.4060172314348
 30
0.0
  0
POINT
  5
50C
330
4B8
100
AcDbEntity
  8
Defpoints
 62
     0
100
AcDbPoint
 10
629.4712166061207
 20
259.7418666910304
 30
0.0
  0
ENDBLK
  5
4BA
330
4B8
100
AcDbEntity
  8
0
100
AcDbBlockEnd
  0
BLOCK
  5
4DE
330
4DD
100
AcDbEntity
  8
0
100
AcDbBlockBegin
  2
*D9
 70
     1
 10
0.0
 20
0.0
 30
0.0
  3
*D9
  1

  0
LINE
  5
521
330
4DD
100
AcDbEntity
  8
φ10
 62
     0
370
    -2
100
AcDbLine
 10
226.4845855205269
 20
356.4060172314348
 30
0.0
 11
226.4845855205269
 21
367.4278303965719
 31
0.0
  0
LINE
  5
522
330
4DD
100
AcDbEntity
  8
φ10
 62
     0
370
    -2
100
AcDbLine
 10
239.4712166061208
 20
356.4060172314348
 30
0.0
 11
239.4712166061208
 21
367.4278303965719
 31
0.0
  0
LINE
  5
523
330
4DD
100
AcDbEntity
  8
φ10
 62
     0
370
    -2
100
AcDbLine
 10
221.484585520527
 20
366.527830396572
 30
0.0
 11
216.484585520527
 21
366.527830396572
 31
0.0
  0
LINE
  5
524
330
4DD
100
AcDbEntity
  8
φ10
 62
     0
370
    -2
100
AcDbLine
 10
244.4712166061208
 20
366.527830396572
 30
0.0
 11
265.8470692664209
 21
366.527830396572
 31
0.0
  0
SOLID
  5
525
330
4DD
100
AcDbEntity
  8
φ10
 62
     0
100
AcDbTrace
 10
221.484585520527
 20
367.3611637299054
 30
0.0
 11
221.484585520527
 21
365.6944970632387
 31
0.0
 12
226.4845855205269
 22
366.527830396572
 32
0.0
 13
226.4845855205269
 23
366.527830396572
 33
0.0
  0
SOLID
  5
526
330
4DD
100
AcDbEntity
  8
φ10
 62
     0
100
AcDbTrace
 10
244.4712166061208
 20
367.3611637299054
 30
0.0
 11
244.4712166061208
 21
365.6944970632387
 31
0.0
 12
239.4712166061208
 22
366.527830396572
 32
0.0
 13
239.4712166061208
 23
366.527830396572
 33
0.0
  0
MTEXT
  5
527
330
4DD
100
AcDbEntity
  8
φ10
 62
     0
100
AcDbMText
 10
257.6591429362708
 20
373.3705998372268
 30
0.0
 40
8.5
 41
0.0
 71
     5
 72
     1
  1
\A1;13
  7
Dimsmall
 73
     1
 44
1.0
1001
ACAD
1000
MTEXTBEGIN
1070
    73
1070
     1
1070
    44
1040
1.0
1070
    74
1070
     0
1000
MTEXTEND
  0
POINT
  5
528
330
4DD
100
AcDbEntity
  8
Defpoints
 62
     0
100
AcDbPoint
 10
226.4845855205269
 20
351.4060172314348
 30
0.0
  0
POINT
  5
529
330
4DD
100
AcDbEntity
  8
Defpoints
 62
     0
100
AcDbPoint
 10
239.4712166061208
 20
351.4060172314348
 30
0.0
  0
POINT
  5
52A
330
4DD
100
AcDbEntity
  8
Defpoints
 62
     0
100
AcDbPoint
 10
239.4712166061208
 20
366.527830396572
 30
0.0
  0
ENDBLK
  5
4DF
330
4DD
100
AcDbEntity
  8
0
100
AcDbBlockEnd
  0
BLOCK
  5
4F8
330
4F7
100
AcDbEntity
  8
0
100
AcDbBlockBegin
  2
*D10
 70
     1
 10
0.0
 20
0.0
 30
0.0
  3
*D10
  1

  0
LINE
  5
50D
330
4F7
100
AcDbEntity
  8
φ10
 62
     0
370
    -2
100
AcDbLine
 10
629.4712166061207
 20
356.4060172314348
 30
0.0
 11
629.4712166061207
 21
366.2451105748258
 31
0.0
  0
LINE
  5
50E
330
4F7
100
AcDbEntity
  8
φ10
 62
     0
370
    -2
100
AcDbLine
 10
642.45777109597
 20
356.4060172314348
 30
0.0
 11
642.45777109597
 21
366.2451105748258
 31
0.0
  0
LINE
  5
50F
330
4F7
100
AcDbEntity
  8
φ10
 62
     0
370
    -2
100
AcDbLine
 10
624.4712166061207
 20
365.3451105748259
 30
0.0
 11
619.4712166061207
 21
365.3451105748259
 31
0.0
  0
LINE
  5
510
330
4F7
100
AcDbEntity
  8
φ10
 62
     0
370
    -2
100
AcDbLine
 10
647.45777109597
 20
365.3451105748259
 30
0.0
 11
668.8336237562699
 21
365.3451105748259
 31
0.0
  0
SOLID
  5
511
330
4F7
100
AcDbEntity
  8
φ10
 62
     0
100
AcDbTrace
 10
624.4712166061207
 20
366.1784439081592
 30
0.0
 11
624.4712166061207
 21
364.5117772414926
 31
0.0
 12
629.4712166061207
 22
365.3451105748259
 32
0.0
 13
629.4712166061207
 23
365.3451105748259
 33
0.0
  0
SOLID
  5
512
330
4F7
100
AcDbEntity
  8
φ10
 62
     0
100
AcDbTrace
 10
647.45777109597
 20
366.1784439081592
 30
0.0
 11
647.45777109597
 21
364.5117772414926
 31
0.0
 12
642.45777109597
 22
365.3451105748259
 32
0.0
 13
642.45777109597
 23
365.3451105748259
 33
0.0
  0
MTEXT
  5
513
330
4F7
100
AcDbEntity
  8
φ10
 62
     0
100
AcDbMText
 10
660.64569742612
 20
372.1878800154806
 30
0.0
 40
8.5
 41
0.0
 71
     5
 72
     1
  1
\A1;13
  7
Dimsmall
 73
     1
 44
1.0
1001
ACAD
1000
MTEXTBEGIN
1070
    73
1070
     1
1070
    44
1040
1.0
1070
    74
1070
     0
1000
MTEXTEND
  0
POINT
  5
514
330
4F7
100
AcDbEntity
  8
Defpoints
 62
     0
100
AcDbPoint
 10
629.4712166061207
 20
351.4060172314348
 30
0.0
  0
POINT
  5
515
330
4F7
100
AcDbEntity
  8
Defpoints
 62
     0
100
AcDbPoint
 10
642.45777109597
 20
351.4060172314348
 30
0.0
  0
POINT
  5
516
330
4F7
100
AcDbEntity
  8
Defpoints
 62
     0
100
AcDbPoint
 10
642.45777109597
 20
365.3451105748259
 30
0.0
  0
ENDBLK
  5
4F9
330
4F7
100
AcDbEntity
  8
0
100
AcDbBlockEnd
  0
BLOCK
  5
5F1
330
5F0
100
AcDbEntity
  8
0
100
AcDbBlockBegin
  2
*D11
 70
     1
 10
0.0
 20
0.0
 30
0.0
  3
*D11
  1

  0
LINE
  5
5FD
330
5F0
100
AcDbEntity
  8
φ10
 62
     0
370
    -2
100
AcDbLine
 10
240.2629332606275
 20
331.4060172314348
 30
0.0
 11
203.85239064371
 21
331.4060172314348
 31
0.0
  0
LINE
  5
5FE
330
5F0
100
AcDbEntity
  8
φ10
 62
     0
370
    -2
100
AcDbLine
 10
239.4712166061208
 20
351.4060172314348
 30
0.0
 11
203.85239064371
 21
351.4060172314348
 31
0.0
  0
LINE
  5
5FF
330
5F0
100
AcDbEntity
  8
φ10
 62
     0
370
    -2
100
AcDbLine
 10
204.75239064371
 20
336.4060172314348
 30
0.0
 11
204.75239064371
 21
346.4060172314348
 31
0.0
  0
SOLID
  5
600
330
5F0
100
AcDbEntity
  8
φ10
 62
     0
100
AcDbTrace
 10
203.9190573103766
 20
336.4060172314348
 30
0.0
 11
205.5857239770433
 21
336.4060172314348
 31
0.0
 12
204.75239064371
 22
331.4060172314348
 32
0.0
 13
204.75239064371
 23
331.4060172314348
 33
0.0
  0
SOLID
  5
601
330
5F0
100
AcDbEntity
  8
φ10
 62
     0
100
AcDbTrace
 10
203.9190573103766
 20
346.4060172314348
 30
0.0
 11
205.5857239770433
 21
346.4060172314348
 31
0.0
 12
204.75239064371
 22
351.4060172314348
 32
0.0
 13
204.75239064371
 23
351.4060172314348
 33
0.0
  0
MTEXT
  5
602
330
5F0
100
AcDbEntity
  8
φ10
 62
     0
100
AcDbMText
 10
197.9125202480755
 20
341.4060172314349
 30
0.0
 40
8.5
 41
0.0
 71
     5
 72
     1
  1
\A1;20
  7
Dimsmall
 11
0.0000000000000001
 21
1.0
 31
0.0
 73
     1
 44
1.0
1001
ACAD
1000
MTEXTBEGIN
1070
    73
1070
     1
1070
    44
1040
1.0
1070
    74
1070
     0
1000
MTEXTEND
  0
POINT
  5
603
330
5F0
100
AcDbEntity
  8
Defpoints
 62
     0
100
AcDbPoint
 10
245.2629332606274
 20
331.4060172314348
 30
0.0
  0
POINT
  5
604
330
5F0
100
AcDbEntity
  8
Defpoints
 62
     0
100
AcDbPoint
 10
244.4712166061208
 20
351.4060172314348
 30
0.0
  0
POINT
  5
605
330
5F0
100
AcDbEntity
  8
Defpoints
 62
     0
100
AcDbPoint
 10
204.75239064371
 20
351.4060172314348
 30
0.0
  0
ENDBLK
  5
5F2
330
5F0
100
AcDbEntity
  8
0
100
AcDbBlockEnd
  0
BLOCK
  5
669
330
668
100
AcDbEntity
  8
0
100
AcDbBlockBegin
  2
*D12
 70
     1
 10
0.0
 20
0.0
 30
0.0
  3
*D12
  1

  0
LINE
  5
675
330
668
100
AcDbEntity
  8
φ10
 62
     0
370
    -2
100
AcDbLine
 10
239.4712166061208
 20
551.4060172314348
 30
0.0
 11
178.2450791886781
 21
551.4060172314348
 31
0.0
  0
LINE
  5
676
330
668
100
AcDbEntity
  8
φ10
 62
     0
370
    -2
100
AcDbLine
 10
238.6658202976778
 20
524.6060172314347
 30
0.0
 11
178.2450791886781
 21
524.6060172314347
 31
0.0
  0
LINE
  5
677
330
668
100
AcDbEntity
  8
φ10
 62
     0
370
    -2
100
AcDbLine
 10
179.1450791886782
 20
546.4060172314348
 30
0.0
 11
179.1450791886782
 21
529.6060172314347
 31
0.0
  0
SOLID
  5
678
330
668
100
AcDbEntity
  8
φ10
 62
     0
100
AcDbTrace
 10
178.3117458553448
 20
546.4060172314348
 30
0.0
 11
179.9784125220115
 21
546.4060172314348
 31
0.0
 12
179.1450791886782
 22
551.4060172314348
 32
0.0
 13
179.1450791886782
 23
551.4060172314348
 33
0.0
  0
SOLID
  5
679
330
668
100
AcDbEntity
  8
φ10
 62
     0
100
AcDbTrace
 10
178.3117458553448
 20
529.6060172314347
 30
0.0
 11
179.9784125220115
 21
529.6060172314347
 31
0.0
 12
179.1450791886782
 22
524.6060172314347
 32
0.0
 13
179.1450791886782
 23
524.6060172314347
 33
0.0
  0
MTEXT
  5
67A
330
668
100
AcDbEntity
  8
φ10
 62
     0
100
AcDbMText
 10
172.3776849185553
 20
538.0060172314348
 30
0.0
 40
8.5
 41
0.0
 71
     5
 72
     1
  1
\A1;27
  7
Dimsmall
 11
0.0000000000000001
 21
1.0
 31
0.0
 73
     1
 44
1.0
1001
ACAD
1000
MTEXTBEGIN
1070
    73
1070
     1
1070
    44
1040
1.0
1070
    74
1070
     0
1000
MTEXTEND
  0
POINT
  5
67B
330
668
100
AcDbEntity
  8
Defpoints
 62
     0
100
AcDbPoint
 10
244.4712166061208
 20
551.4060172314348
 30
0.0
  0
POINT
  5
67C
330
668
100
AcDbEntity
  8
Defpoints
 62
     0
100
AcDbPoint
 10
243.6658202976778
 20
524.6060172314347
 30
0.0
  0
POINT
  5
67D
330
668
100
AcDbEntity
  8
Defpoints
 62
     0
100
AcDbPoint
 10
179.1450791886782
 20
524.6060172314347
 30
0.0
  0
ENDBLK
  5
66A
330
668
100
AcDbEntity
  8
0
100
AcDbBlockEnd
  0
BLOCK
  5
681
330
680
100
AcDbEntity
  8
0
100
AcDbBlockBegin
  2
*D13
 70
     1
 10
0.0
 20
0.0
 30
0.0
  3
*D13
  1

  0
LINE
  5
6D4
330
680
100
AcDbEntity
  8
φ10
 62
     0
370
    -2
100
AcDbLine
 10
249.4712166061208
 20
536.4060172314347
 30
0.0
 11
180.472534648367
 21
536.4060172314347
 31
0.0
  0
LINE
  5
6D5
330
680
100
AcDbEntity
  8
φ10
 62
     0
370
    -2
100
AcDbLine
 10
259.4712166061208
 20
346.4060172314348
 30
0.0
 11
180.472534648367
 21
346.4060172314348
 31
0.0
  0
LINE
  5
6D6
330
680
100
AcDbEntity
  8
φ10
 62
     0
370
    -2
100
AcDbLine
 10
181.372534648367
 20
531.4060172314348
 30
0.0
 11
181.372534648367
 21
351.4060172314348
 31
0.0
  0
SOLID
  5
6D7
330
680
100
AcDbEntity
  8
φ10
 62
     0
100
AcDbTrace
 10
180.5392013150337
 20
531.4060172314348
 30
0.0
 11
182.2058679817004
 21
531.4060172314348
 31
0.0
 12
181.372534648367
 22
536.4060172314347
 32
0.0
 13
181.372534648367
 23
536.4060172314347
 33
0.0
  0
SOLID
  5
6D8
330
680
100
AcDbEntity
  8
φ10
 62
     0
100
AcDbTrace
 10
180.5392013150337
 20
351.4060172314348
 30
0.0
 11
182.2058679817003
 21
351.4060172314348
 31
0.0
 12
181.372534648367
 22
346.4060172314348
 32
0.0
 13
181.372534648367
 23
346.4060172314348
 33
0.0
  0
MTEXT
  5
6D9
330
680
100
AcDbEntity
  8
φ10
 62
     0
100
AcDbMText
 10
174.5326642527326
 20
441.4060172314346
 30
0.0
 40
8.5
 41
0.0
 71
     5
 72
     1
  1
\A1;190
  7
Dimsmall
 11
0.0000000000000001
 21
1.0
 31
0.0
 73
     1
 44
1.0
1001
ACAD
1000
MTEXTBEGIN
1070
    73
1070
     1
1070
    44
1040
1.0
1070
    74
1070
     0
1000
MTEXTEND
  0
POINT
  5
6DA
330
680
100
AcDbEntity
  8
Defpoints
 62
     0
100
AcDbPoint
 10
254.4712166061208
 20
536.4060172314347
 30
0.0
  0
POINT
  5
6DB
330
680
100
AcDbEntity
  8
Defpoints
 62
     0
100
AcDbPoint
 10
264.4712166061208
 20
346.4060172314348
 30
0.0
  0
POINT
  5
6DC
330
680
100
AcDbEntity
  8
Defpoints
 62
     0
100
AcDbPoint
 10
181.372534648367
 20
346.4060172314348
 30
0.0
  0
ENDBLK
  5
682
330
680
100
AcDbEntity
  8
0
100
AcDbBlockEnd
  0
BLOCK
  5
699
330
698
100
AcDbEntity
  8
0
100
AcDbBlockBegin
  2
*D14
 70
     1
 10
0.0
 20
0.0
 30
0.0
  3
*D14
  1

  0
LINE
  5
6A5
330
698
100
AcDbEntity
  8
φ10
 62
     0
370
    -2
100
AcDbLine
 10
239.4712166061208
 20
351.4060172314348
 30
0.0
 11
134.1823103060529
 21
351.4060172314348
 31
0.0
  0
LINE
  5
6A6
330
698
100
AcDbEntity
  8
φ10
 62
     0
370
    -2
100
AcDbLine
 10
239.4712166061208
 20
551.4060172314348
 30
0.0
 11
134.1823103060529
 21
551.4060172314348
 31
0.0
  0
LINE
  5
6A7
330
698
100
AcDbEntity
  8
φ10
 62
     0
370
    -2
100
AcDbLine
 10
135.0823103060529
 20
356.4060172314348
 30
0.0
 11
135.0823103060529
 21
546.4060172314348
 31
0.0
  0
SOLID
  5
6A8
330
698
100
AcDbEntity
  8
φ10
 62
     0
100
AcDbTrace
 10
134.2489769727195
 20
356.4060172314348
 30
0.0
 11
135.9156436393862
 21
356.4060172314348
 31
0.0
 12
135.0823103060529
 22
351.4060172314348
 32
0.0
 13
135.0823103060529
 23
351.4060172314348
 33
0.0
  0
SOLID
  5
6A9
330
698
100
AcDbEntity
  8
φ10
 62
     0
100
AcDbTrace
 10
134.2489769727196
 20
546.4060172314348
 30
0.0
 11
135.9156436393863
 21
546.4060172314348
 31
0.0
 12
135.0823103060529
 22
551.4060172314348
 32
0.0
 13
135.0823103060529
 23
551.4060172314348
 33
0.0
  0
MTEXT
  5
6AA
330
698
100
AcDbEntity
  8
φ10
 62
     0
100
AcDbMText
 10
128.2424399104184
 20
451.4060172314347
 30
0.0
 40
8.5
 41
0.0
 71
     5
 72
     1
  1
\A1;200
  7
Dimsmall
 11
0.0000000000000001
 21
1.0
 31
0.0
 73
     1
 44
1.0
1001
ACAD
1000
MTEXTBEGIN
1070
    73
1070
     1
1070
    44
1040
1.0
1070
    74
1070
     0
1000
MTEXTEND
  0
POINT
  5
6AB
330
698
100
AcDbEntity
  8
Defpoints
 62
     0
100
AcDbPoint
 10
244.4712166061208
 20
351.4060172314348
 30
0.0
  0
POINT
  5
6AC
330
698
100
AcDbEntity
  8
Defpoints
 62
     0
100
AcDbPoint
 10
244.4712166061208
 20
551.4060172314348
 30
0.0
  0
POINT
  5
6AD
330
698
100
AcDbEntity
  8
Defpoints
 62
     0
100
AcDbPoint
 10
135.0823103060529
 20
551.4060172314348
 30
0.0
  0
ENDBLK
  5
69A
330
698
100
AcDbEntity
  8
0
100
AcDbBlockEnd
  0
BLOCK
  5
6DE
330
6DD
100
AcDbEntity
  8
0
100
AcDbBlockBegin
  2
a
 70
     0
 10
0.0
 20
0.0
 30
0.0
  3
a
  1

  0
CIRCLE
  5
6E0
330
6DD
100
AcDbEntity
  8
0
100
AcDbCircle
 10
-144.982991348959
 20
0.4120645777058485
 30
0.0
 40
5.0
  0
CIRCLE
  5
6E1
330
6DD
100
AcDbEntity
  8
0
100
AcDbCircle
 10
-124.982991348959
 20
0.4120645777058485
 30
0.0
 40
5.0
  0
CIRCLE
  5
6E2
330
6DD
100
AcDbEntity
  8
0
100
AcDbCircle
 10
-104.982991348959
 20
0.4120645777058485
 30
0.0
 40
5.0
  0
CIRCLE
  5
6E3
330
6DD
100
AcDbEntity
  8
0
100
AcDbCircle
 10
-84.982991348959
 20
0.4120645777058485
 30
0.0
 40
5.0
  0
CIRCLE
  5
6E4
330
6DD
100
AcDbEntity
  8
0
100
AcDbCircle
 10
-64.98299134895899
 20
0.4120645777058485
 30
0.0
 40
5.0
  0
CIRCLE
  5
6E5
330
6DD
100
AcDbEntity
  8
0
100
AcDbCircle
 10
-44.98299134895899
 20
0.4120645777058485
 30
0.0
 40
5.0
  0
CIRCLE
  5
6E6
330
6DD
100
AcDbEntity
  8
0
100
AcDbCircle
 10
-24.98299134895899
 20
0.4120645777058485
 30
0.0
 40
5.0
  0
CIRCLE
  5
6E7
330
6DD
100
AcDbEntity
  8
0
100
AcDbCircle
 10
-4.982991348958988
 20
0.4120645777058485
 30
0.0
 40
5.0
  0
CIRCLE
  5
6E8
330
6DD
100
AcDbEntity
  8
0
100
AcDbCircle
 10
15.01700865104101
 20
0.4120645777058485
 30
0.0
 40
5.0
  0
CIRCLE
  5
6E9
330
6DD
100
AcDbEntity
  8
0
100
AcDbCircle
 10
35.01700865104101
 20
0.4120645777058485
 30
0.0
 40
5.0
  0
CIRCLE
  5
6EA
330
6DD
100
AcDbEntity
  8
0
100
AcDbCircle
 10
55.01700865104101
 20
0.4120645777058485
 30
0.0
 40
5.0
  0
CIRCLE
  5
6EB
330
6DD
100
AcDbEntity
  8
0
100
AcDbCircle
 10
75.01700865104101
 20
0.4120645777058485
 30
0.0
 40
5.0
  0
CIRCLE
  5
6EC
330
6DD
100
AcDbEntity
  8
0
100
AcDbCircle
 10
95.01700865104099
 20
0.4120645777058485
 30
0.0
 40
5.0
  0
CIRCLE
  5
6ED
330
6DD
100
AcDbEntity
  8
0
100
AcDbCircle
 10
115.017008651041
 20
0.4120645777058485
 30
0.0
 40
5.0
  0
CIRCLE
  5
6EE
330
6DD
100
AcDbEntity
  8
0
100
AcDbCircle
 10
135.017008651041
 20
0.4120645777058485
 30
0.0
 40
5.0
  0
CIRCLE
  5
6EF
330
6DD
100
AcDbEntity
  8
0
100
AcDbCircle
 10
155.0170086510409
 20
0.4120645777058485
 30
0.0
 40
5.0
  0
CIRCLE
  5
6F0
330
6DD
100
AcDbEntity
  8
0
100
AcDbCircle
 10
175.017008651041
 20
0.4120645777058485
 30
0.0
 40
5.0
  0
CIRCLE
  5
6F1
330
6DD
100
AcDbEntity
  8
0
100
AcDbCircle
 10
195.0170086510411
 20
0.4120645777058485
 30
0.0
 40
5.0
  0
CIRCLE
  5
6F2
330
6DD
100
AcDbEntity
  8
0
100
AcDbCircle
 10
215.017008651041
 20
0.4120645777058485
 30
0.0
 40
5.0
  0
CIRCLE
  5
6F3
330
6DD
100
AcDbEntity
  8
0
100
AcDbCircle
 10
235.0170086510411
 20
0.4120645777058485
 30
0.0
 40
5.0
  0
ENDBLK
  5
6DF
330
6DD
100
AcDbEntity
  8
0
100
AcDbBlockEnd
  0
BLOCK
  5
6F6
330
6F5
100
AcDbEntity
  8
0
100
AcDbBlockBegin
  2
b
 70
     0
 10
0.0
 20
0.0
 30
0.0
  3
b
  1

  0
CIRCLE
  5
6F8
330
6F5
100
AcDbEntity
  8
0
100
AcDbCircle
 10
-120.0
 20
5.0
 30
0.0
 40
5.0
  0
CIRCLE
  5
6F9
330
6F5
100
AcDbEntity
  8
0
100
AcDbCircle
 10
-100.0
 20
5.0
 30
0.0
 40
5.0
  0
CIRCLE
  5
6FA
330
6F5
100
AcDbEntity
  8
0
100
AcDbCircle
 10
-80.0
 20
5.0
 30
0.0
 40
5.0
  0
CIRCLE
  5
6FB
330
6F5
100
AcDbEntity
  8
0
100
AcDbCircle
 10
-60.0
 20
5.0
 30
0.0
 40
5.0
  0
CIRCLE
  5
6FC
330
6F5
100
AcDbEntity
  8
0
100
AcDbCircle
 10
-40.0
 20
5.0
 30
0.0
 40
5.0
  0
CIRCLE
  5
6FD
330
6F5
100
AcDbEntity
  8
0
100
AcDbCircle
 10
-20.0
 20
5.0
 30
0.0
 40
5.0
  0
CIRCLE
  5
6FE
330
6F5
100
AcDbEntity
  8
0
100
AcDbCircle
 10
0.0
 20
5.0
 30
0.0
 40
5.0
  0
CIRCLE
  5
6FF
330
6F5
100
AcDbEntity
  8
0
100
AcDbCircle
 10
20.0
 20
5.0
 30
0.0
 40
5.0
  0
CIRCLE
  5
700
330
6F5
100
AcDbEntity
  8
0
100
AcDbCircle
 10
40.0
 20
5.0
 30
0.0
 40
5.0
  0
CIRCLE
  5
701
330
6F5
100
AcDbEntity
  8
0
100
AcDbCircle
 10
60.0
 20
5.0
 30
0.0
 40
5.0
  0
CIRCLE
  5
702
330
6F5
100
AcDbEntity
  8
0
100
AcDbCircle
 10
80.0
 20
5.0
 30
0.0
 40
5.0
  0
CIRCLE
  5
703
330
6F5
100
AcDbEntity
  8
0
100
AcDbCircle
 10
100.0
 20
5.0
 30
0.0
 40
5.0
  0
CIRCLE
  5
704
330
6F5
100
AcDbEntity
  8
0
100
AcDbCircle
 10
120.0
 20
5.0
 30
0.0
 40
5.0
  0
CIRCLE
  5
705
330
6F5
100
AcDbEntity
  8
0
100
AcDbCircle
 10
140.0
 20
5.0
 30
0.0
 40
5.0
  0
CIRCLE
  5
706
330
6F5
100
AcDbEntity
  8
0
100
AcDbCircle
 10
160.0
 20
5.0
 30
0.0
 40
5.0
  0
CIRCLE
  5
707
330
6F5
100
AcDbEntity
  8
0
100
AcDbCircle
 10
180.0
 20
5.0
 30
0.0
 40
5.0
  0
CIRCLE
  5
708
330
6F5
100
AcDbEntity
  8
0
100
AcDbCircle
 10
200.0
 20
5.0
 30
0.0
 40
5.0
  0
CIRCLE
  5
709
330
6F5
100
AcDbEntity
  8
0
100
AcDbCircle
 10
220.0000000000001
 20
5.0
 30
0.0
 40
5.0
  0
CIRCLE
  5
70A
330
6F5
100
AcDbEntity
  8
0
100
AcDbCircle
 10
240.0000000000001
 20
5.0
 30
0.0
 40
5.0
  0
ENDBLK
  5
6F7
330
6F5
100
AcDbEntity
  8
0
100
AcDbBlockEnd
  0
BLOCK
  5
70D
330
70C
100
AcDbEntity
  8
0
100
AcDbBlockBegin
  2
c
 70
     0
 10
0.0
 20
0.0
 30
0.0
  3
c
  1

  0
CIRCLE
  5
70F
330
70C
100
AcDbEntity
  8
0
100
AcDbCircle
 10
-120.0
 20
5.0
 30
0.0
 40
5.0
  0
CIRCLE
  5
710
330
70C
100
AcDbEntity
  8
0
100
AcDbCircle
 10
-100.0
 20
5.0
 30
0.0
 40
5.0
  0
CIRCLE
  5
711
330
70C
100
AcDbEntity
  8
0
100
AcDbCircle
 10
-80.0
 20
5.0
 30
0.0
 40
5.0
  0
CIRCLE
  5
712
330
70C
100
AcDbEntity
  8
0
100
AcDbCircle
 10
-60.0
 20
5.0
 30
0.0
 40
5.0
  0
CIRCLE
  5
713
330
70C
100
AcDbEntity
  8
0
100
AcDbCircle
 10
-40.0
 20
5.0
 30
0.0
 40
5.0
  0
CIRCLE
  5
714
330
70C
100
AcDbEntity
  8
0
100
AcDbCircle
 10
-20.0
 20
5.0
 30
0.0
 40
5.0
  0
CIRCLE
  5
715
330
70C
100
AcDbEntity
  8
0
100
AcDbCircle
 10
0.0
 20
5.0
 30
0.0
 40
5.0
  0
CIRCLE
  5
716
330
70C
100
AcDbEntity
  8
0
100
AcDbCircle
 10
20.0
 20
5.0
 30
0.0
 40
5.0
  0
CIRCLE
  5
717
330
70C
100
AcDbEntity
  8
0
100
AcDbCircle
 10
40.0
 20
5.0
 30
0.0
 40
5.0
  0
CIRCLE
  5
718
330
70C
100
AcDbEntity
  8
0
100
AcDbCircle
 10
60.0
 20
5.0
 30
0.0
 40
5.0
  0
CIRCLE
  5
719
330
70C
100
AcDbEntity
  8
0
100
AcDbCircle
 10
80.0
 20
5.0
 30
0.0
 40
5.0
  0
CIRCLE
  5
71A
330
70C
100
AcDbEntity
  8
0
100
AcDbCircle
 10
100.0
 20
5.0
 30
0.0
 40
5.0
  0
CIRCLE
  5
71B
330
70C
100
AcDbEntity
  8
0
100
AcDbCircle
 10
120.0
 20
5.0
 30
0.0
 40
5.0
  0
CIRCLE
  5
71C
330
70C
100
AcDbEntity
  8
0
100
AcDbCircle
 10
140.0
 20
5.0
 30
0.0
 40
5.0
  0
CIRCLE
  5
71D
330
70C
100
AcDbEntity
  8
0
100
AcDbCircle
 10
160.0
 20
5.0
 30
0.0
 40
5.0
  0
CIRCLE
  5
71E
330
70C
100
AcDbEntity
  8
0
100
AcDbCircle
 10
180.0
 20
5.0
 30
0.0
 40
5.0
  0
CIRCLE
  5
71F
330
70C
100
AcDbEntity
  8
0
100
AcDbCircle
 10
200.0
 20
5.0
 30
0.0
 40
5.0
  0
CIRCLE
  5
720
330
70C
100
AcDbEntity
  8
0
100
AcDbCircle
 10
220.0000000000001
 20
5.0
 30
0.0
 40
5.0
  0
CIRCLE
  5
721
330
70C
100
AcDbEntity
  8
0
100
AcDbCircle
 10
240.0000000000001
 20
5.0
 30
0.0
 40
5.0
  0
CIRCLE
  5
722
330
70C
100
AcDbEntity
  8
0
100
AcDbCircle
 10
260.0
 20
5.0
 30
0.0
 40
5.0
  0
ENDBLK
  5
70E
330
70C
100
AcDbEntity
  8
0
100
AcDbBlockEnd
  0
BLOCK
  5
725
330
724
100
AcDbEntity
  8
0
100
AcDbBlockBegin
  2
d
 70
     0
 10
0.0
 20
0.0
 30
0.0
  3
d
  1

  0
CIRCLE
  5
727
330
724
100
AcDbEntity
  8
0
100
AcDbCircle
 10
-35.0
 20
0.0
 30
0.0
 40
5.0
  0
CIRCLE
  5
728
330
724
100
AcDbEntity
  8
0
100
AcDbCircle
 10
-15.0
 20
0.0
 30
0.0
 40
5.0
  0
CIRCLE
  5
729
330
724
100
AcDbEntity
  8
0
100
AcDbCircle
 10
5.0
 20
0.0
 30
0.0
 40
5.0
  0
CIRCLE
  5
72A
330
724
100
AcDbEntity
  8
0
100
AcDbCircle
 10
25.0
 20
0.0
 30
0.0
 40
5.0
  0
CIRCLE
  5
72B
330
724
100
AcDbEntity
  8
0
100
AcDbCircle
 10
45.0
 20
0.0
 30
0.0
 40
5.0
  0
CIRCLE
  5
72C
330
724
100
AcDbEntity
  8
0
100
AcDbCircle
 10
65.0
 20
0.0
 30
0.0
 40
5.0
  0
CIRCLE
  5
72D
330
724
100
AcDbEntity
  8
0
100
AcDbCircle
 10
85.0
 20
0.0
 30
0.0
 40
5.0
  0
CIRCLE
  5
72E
330
724
100
AcDbEntity
  8
0
100
AcDbCircle
 10
105.0
 20
0.0
 30
0.0
 40
5.0
  0
CIRCLE
  5
72F
330
724
100
AcDbEntity
  8
0
100
AcDbCircle
 10
125.0
 20
0.0
 30
0.0
 40
5.0
  0
CIRCLE
  5
730
330
724
100
AcDbEntity
  8
0
100
AcDbCircle
 10
145.0
 20
0.0
 30
0.0
 40
5.0
  0
CIRCLE
  5
731
330
724
100
AcDbEntity
  8
0
100
AcDbCircle
 10
165.0
 20
0.0
 30
0.0
 40
5.0
  0
CIRCLE
  5
732
330
724
100
AcDbEntity
  8
0
100
AcDbCircle
 10
185.0
 20
0.0
 30
0.0
 40
5.0
  0
CIRCLE
  5
733
330
724
100
AcDbEntity
  8
0
100
AcDbCircle
 10
205.0
 20
0.0
 30
0.0
 40
5.0
  0
CIRCLE
  5
734
330
724
100
AcDbEntity
  8
0
100
AcDbCircle
 10
225.0
 20
0.0
 30
0.0
 40
5.0
  0
CIRCLE
  5
735
330
724
100
AcDbEntity
  8
0
100
AcDbCircle
 10
245.0000000000001
 20
0.0
 30
0.0
 40
5.0
  0
CIRCLE
  5
736
330
724
100
AcDbEntity
  8
0
100
AcDbCircle
 10
265.0000000000001
 20
0.0
 30
0.0
 40
5.0
  0
CIRCLE
  5
737
330
724
100
AcDbEntity
  8
0
100
AcDbCircle
 10
285.0000000000001
 20
0.0
 30
0.0
 40
5.0
  0
CIRCLE
  5
738
330
724
100
AcDbEntity
  8
0
100
AcDbCircle
 10
305.0000000000001
 20
0.0
 30
0.0
 40
5.0
  0
CIRCLE
  5
739
330
724
100
AcDbEntity
  8
0
100
AcDbCircle
 10
325.0
 20
0.0
 30
0.0
 40
5.0
  0
ENDBLK
  5
726
330
724
100
AcDbEntity
  8
0
100
AcDbBlockEnd
  0
BLOCK
  5
73C
330
73B
100
AcDbEntity
  8
0
100
AcDbBlockBegin
  2
e
 70
     0
 10
0.0
 20
0.0
 30
0.0
  3
e
  1

  0
CIRCLE
  5
73E
330
73B
100
AcDbEntity
  8
0
100
AcDbCircle
 10
-120.0
 20
0.0
 30
0.0
 40
5.0
  0
CIRCLE
  5
73F
330
73B
100
AcDbEntity
  8
0
100
AcDbCircle
 10
-100.0
 20
0.0
 30
0.0
 40
5.0
  0
CIRCLE
  5
740
330
73B
100
AcDbEntity
  8
0
100
AcDbCircle
 10
-80.0
 20
0.0
 30
0.0
 40
5.0
  0
CIRCLE
  5
741
330
73B
100
AcDbEntity
  8
0
100
AcDbCircle
 10
-60.0
 20
0.0
 30
0.0
 40
5.0
  0
CIRCLE
  5
742
330
73B
100
AcDbEntity
  8
0
100
AcDbCircle
 10
-40.0
 20
0.0
 30
0.0
 40
5.0
  0
CIRCLE
  5
743
330
73B
100
AcDbEntity
  8
0
100
AcDbCircle
 10
-20.0
 20
0.0
 30
0.0
 40
5.0
  0
CIRCLE
  5
744
330
73B
100
AcDbEntity
  8
0
100
AcDbCircle
 10
0.0
 20
0.0
 30
0.0
 40
5.0
  0
CIRCLE
  5
745
330
73B
100
AcDbEntity
  8
0
100
AcDbCircle
 10
20.0
 20
0.0
 30
0.0
 40
5.0
  0
CIRCLE
  5
746
330
73B
100
AcDbEntity
  8
0
100
AcDbCircle
 10
40.0
 20
0.0
 30
0.0
 40
5.0
  0
CIRCLE
  5
747
330
73B
100
AcDbEntity
  8
0
100
AcDbCircle
 10
60.0
 20
0.0
 30
0.0
 40
5.0
  0
CIRCLE
  5
748
330
73B
100
AcDbEntity
  8
0
100
AcDbCircle
 10
80.0
 20
0.0
 30
0.0
 40
5.0
  0
CIRCLE
  5
749
330
73B
100
AcDbEntity
  8
0
100
AcDbCircle
 10
100.0
 20
0.0
 30
0.0
 40
5.0
  0
CIRCLE
  5
74A
330
73B
100
AcDbEntity
  8
0
100
AcDbCircle
 10
120.0
 20
0.0
 30
0.0
 40
5.0
  0
CIRCLE
  5
74B
330
73B
100
AcDbEntity
  8
0
100
AcDbCircle
 10
140.0
 20
0.0
 30
0.0
 40
5.0
  0
CIRCLE
  5
74C
330
73B
100
AcDbEntity
  8
0
100
AcDbCircle
 10
160.0
 20
0.0
 30
0.0
 40
5.0
  0
CIRCLE
  5
74D
330
73B
100
AcDbEntity
  8
0
100
AcDbCircle
 10
180.0
 20
0.0
 30
0.0
 40
5.0
  0
CIRCLE
  5
74E
330
73B
100
AcDbEntity
  8
0
100
AcDbCircle
 10
200.0
 20
0.0
 30
0.0
 40
5.0
  0
CIRCLE
  5
74F
330
73B
100
AcDbEntity
  8
0
100
AcDbCircle
 10
220.0000000000001
 20
0.0
 30
0.0
 40
5.0
  0
CIRCLE
  5
750
330
73B
100
AcDbEntity
  8
0
100
AcDbCircle
 10
240.0000000000001
 20
0.0
 30
0.0
 40
5.0
  0
CIRCLE
  5
751
330
73B
100
AcDbEntity
  8
0
100
AcDbCircle
 10
260.0
 20
0.0
 30
0.0
 40
5.0
  0
ENDBLK
  5
73D
330
73B
100
AcDbEntity
  8
0
100
AcDbBlockEnd
  0
BLOCK
  5
754
330
753
100
AcDbEntity
  8
0
100
AcDbBlockBegin
  2
f
 70
     0
 10
0.0
 20
0.0
 30
0.0
  3
f
  1

  0
CIRCLE
  5
756
330
753
100
AcDbEntity
  8
0
100
AcDbCircle
 10
-104.9898945241131
 20
0.3177304490064898
 30
0.0
 40
5.0
  0
CIRCLE
  5
757
330
753
100
AcDbEntity
  8
0
100
AcDbCircle
 10
-84.98989452411313
 20
0.3177304490064898
 30
0.0
 40
5.0
  0
CIRCLE
  5
758
330
753
100
AcDbEntity
  8
0
100
AcDbCircle
 10
-64.98989452411314
 20
0.3177304490064898
 30
0.0
 40
5.0
  0
CIRCLE
  5
759
330
753
100
AcDbEntity
  8
0
100
AcDbCircle
 10
-44.98989452411314
 20
0.3177304490064898
 30
0.0
 40
5.0
  0
CIRCLE
  5
75A
330
753
100
AcDbEntity
  8
0
100
AcDbCircle
 10
-24.98989452411314
 20
0.3177304490064898
 30
0.0
 40
5.0
  0
CIRCLE
  5
75B
330
753
100
AcDbEntity
  8
0
100
AcDbCircle
 10
-4.989894524113139
 20
0.3177304490064898
 30
0.0
 40
5.0
  0
CIRCLE
  5
75C
330
753
100
AcDbEntity
  8
0
100
AcDbCircle
 10
15.01010547588686
 20
0.3177304490064898
 30
0.0
 40
5.0
  0
CIRCLE
  5
75D
330
753
100
AcDbEntity
  8
0
100
AcDbCircle
 10
35.01010547588686
 20
0.3177304490064898
 30
0.0
 40
5.0
  0
CIRCLE
  5
75E
330
753
100
AcDbEntity
  8
0
100
AcDbCircle
 10
55.01010547588686
 20
0.3177304490064898
 30
0.0
 40
5.0
  0
CIRCLE
  5
75F
330
753
100
AcDbEntity
  8
0
100
AcDbCircle
 10
75.01010547588686
 20
0.3177304490064898
 30
0.0
 40
5.0
  0
CIRCLE
  5
760
330
753
100
AcDbEntity
  8
0
100
AcDbCircle
 10
95.01010547588686
 20
0.3177304490064898
 30
0.0
 40
5.0
  0
CIRCLE
  5
761
330
753
100
AcDbEntity
  8
0
100
AcDbCircle
 10
115.0101054758868
 20
0.3177304490064898
 30
0.0
 40
5.0
  0
CIRCLE
  5
762
330
753
100
AcDbEntity
  8
0
100
AcDbCircle
 10
135.0101054758868
 20
0.3177304490064898
 30
0.0
 40
5.0
  0
CIRCLE
  5
763
330
753
100
AcDbEntity
  8
0
100
AcDbCircle
 10
155.0101054758869
 20
0.3177304490064898
 30
0.0
 40
5.0
  0
CIRCLE
  5
764
330
753
100
AcDbEntity
  8
0
100
AcDbCircle
 10
175.0101054758869
 20
0.3177304490064898
 30
0.0
 40
5.0
  0
CIRCLE
  5
765
330
753
100
AcDbEntity
  8
0
100
AcDbCircle
 10
195.0101054758869
 20
0.3177304490064898
 30
0.0
 40
5.0
  0
CIRCLE
  5
766
330
753
100
AcDbEntity
  8
0
100
AcDbCircle
 10
215.0101054758869
 20
0.3177304490064898
 30
0.0
 40
5.0
  0
CIRCLE
  5
767
330
753
100
AcDbEntity
  8
0
100
AcDbCircle
 10
235.0101054758869
 20
0.3177304490064898
 30
0.0
 40
5.0
  0
CIRCLE
  5
768
330
753
100
AcDbEntity
  8
0
100
AcDbCircle
 10
255.0101054758869
 20
0.3177304490064898
 30
0.0
 40
5.0
  0
ENDBLK
  5
755
330
753
100
AcDbEntity
  8
0
100
AcDbBlockEnd
  0
BLOCK
  5
76B
330
76A
100
AcDbEntity
  8
0
100
AcDbBlockBegin
  2
g
 70
     0
 10
0.0
 20
0.0
 30
0.0
  3
g
  1

  0
CIRCLE
  5
76D
330
76A
100
AcDbEntity
  8
0
100
AcDbCircle
 10
-58.97173691288725
 20
4.893125281829723
 30
0.0
 40
5.0
  0
CIRCLE
  5
76E
330
76A
100
AcDbEntity
  8
0
100
AcDbCircle
 10
-38.97173691288725
 20
4.893125281829723
 30
0.0
 40
5.0
  0
CIRCLE
  5
76F
330
76A
100
AcDbEntity
  8
0
100
AcDbCircle
 10
-18.97173691288725
 20
4.893125281829723
 30
0.0
 40
5.0
  0
CIRCLE
  5
770
330
76A
100
AcDbEntity
  8
0
100
AcDbCircle
 10
1.028263087112747
 20
4.893125281829723
 30
0.0
 40
5.0
  0
CIRCLE
  5
771
330
76A
100
AcDbEntity
  8
0
100
AcDbCircle
 10
21.02826308711275
 20
4.893125281829723
 30
0.0
 40
5.0
  0
CIRCLE
  5
772
330
76A
100
AcDbEntity
  8
0
100
AcDbCircle
 10
41.02826308711274
 20
4.893125281829723
 30
0.0
 40
5.0
  0
CIRCLE
  5
773
330
76A
100
AcDbEntity
  8
0
100
AcDbCircle
 10
61.02826308711275
 20
4.893125281829723
 30
0.0
 40
5.0
  0
CIRCLE
  5
774
330
76A
100
AcDbEntity
  8
0
100
AcDbCircle
 10
81.02826308711275
 20
4.893125281829723
 30
0.0
 40
5.0
  0
CIRCLE
  5
775
330
76A
100
AcDbEntity
  8
0
100
AcDbCircle
 10
101.0282630871127
 20
4.893125281829723
 30
0.0
 40
5.0
  0
CIRCLE
  5
776
330
76A
100
AcDbEntity
  8
0
100
AcDbCircle
 10
121.0282630871127
 20
4.893125281829723
 30
0.0
 40
5.0
  0
CIRCLE
  5
777
330
76A
100
AcDbEntity
  8
0
100
AcDbCircle
 10
141.0282630871127
 20
4.893125281829723
 30
0.0
 40
5.0
  0
CIRCLE
  5
778
330
76A
100
AcDbEntity
  8
0
100
AcDbCircle
 10
161.0282630871127
 20
4.893125281829723
 30
0.0
 40
5.0
  0
CIRCLE
  5
779
330
76A
100
AcDbEntity
  8
0
100
AcDbCircle
 10
181.0282630871127
 20
4.893125281829723
 30
0.0
 40
5.0
  0
CIRCLE
  5
77A
330
76A
100
AcDbEntity
  8
0
100
AcDbCircle
 10
201.0282630871127
 20
4.893125281829723
 30
0.0
 40
5.0
  0
CIRCLE
  5
77B
330
76A
100
AcDbEntity
  8
0
100
AcDbCircle
 10
221.0282630871128
 20
4.893125281829723
 30
0.0
 40
5.0
  0
CIRCLE
  5
77C
330
76A
100
AcDbEntity
  8
0
100
AcDbCircle
 10
241.0282630871128
 20
4.893125281829723
 30
0.0
 40
5.0
  0
CIRCLE
  5
77D
330
76A
100
AcDbEntity
  8
0
100
AcDbCircle
 10
261.0282630871128
 20
4.893125281829723
 30
0.0
 40
5.0
  0
CIRCLE
  5
77E
330
76A
100
AcDbEntity
  8
0
100
AcDbCircle
 10
281.0282630871128
 20
4.893125281829723
 30
0.0
 40
5.0
  0
CIRCLE
  5
77F
330
76A
100
AcDbEntity
  8
0
100
AcDbCircle
 10
301.0282630871128
 20
4.893125281829723
 30
0.0
 40
5.0
  0
CIRCLE
  5
780
330
76A
100
AcDbEntity
  8
0
100
AcDbCircle
 10
321.0282630871128
 20
4.893125281829723
 30
0.0
 40
5.0
  0
ENDBLK
  5
76C
330
76A
100
AcDbEntity
  8
0
100
AcDbBlockEnd
  0
BLOCK
  5
783
330
782
100
AcDbEntity
  8
0
100
AcDbBlockBegin
  2
h
 70
     0
 10
0.0
 20
0.0
 30
0.0
  3
h
  1

  0
CIRCLE
  5
785
330
782
100
AcDbEntity
  8
0
100
AcDbCircle
 10
5.0
 20
0.0
 30
0.0
 40
5.0
  0
CIRCLE
  5
786
330
782
100
AcDbEntity
  8
0
100
AcDbCircle
 10
25.0
 20
0.0
 30
0.0
 40
5.0
  0
CIRCLE
  5
787
330
782
100
AcDbEntity
  8
0
100
AcDbCircle
 10
45.0
 20
0.0
 30
0.0
 40
5.0
  0
CIRCLE
  5
788
330
782
100
AcDbEntity
  8
0
100
AcDbCircle
 10
65.0
 20
0.0
 30
0.0
 40
5.0
  0
CIRCLE
  5
789
330
782
100
AcDbEntity
  8
0
100
AcDbCircle
 10
85.0
 20
0.0
 30
0.0
 40
5.0
  0
CIRCLE
  5
78A
330
782
100
AcDbEntity
  8
0
100
AcDbCircle
 10
105.0
 20
0.0
 30
0.0
 40
5.0
  0
CIRCLE
  5
78B
330
782
100
AcDbEntity
  8
0
100
AcDbCircle
 10
125.0
 20
0.0
 30
0.0
 40
5.0
  0
CIRCLE
  5
78C
330
782
100
AcDbEntity
  8
0
100
AcDbCircle
 10
145.0
 20
0.0
 30
0.0
 40
5.0
  0
CIRCLE
  5
78D
330
782
100
AcDbEntity
  8
0
100
AcDbCircle
 10
165.0
 20
0.0
 30
0.0
 40
5.0
  0
CIRCLE
  5
78E
330
782
100
AcDbEntity
  8
0
100
AcDbCircle
 10
185.0
 20
0.0
 30
0.0
 40
5.0
  0
CIRCLE
  5
78F
330
782
100
AcDbEntity
  8
0
100
AcDbCircle
 10
205.0
 20
0.0
 30
0.0
 40
5.0
  0
CIRCLE
  5
790
330
782
100
AcDbEntity
  8
0
100
AcDbCircle
 10
225.0
 20
0.0
 30
0.0
 40
5.0
  0
CIRCLE
  5
791
330
782
100
AcDbEntity
  8
0
100
AcDbCircle
 10
245.0
 20
0.0
 30
0.0
 40
5.0
  0
CIRCLE
  5
792
330
782
100
AcDbEntity
  8
0
100
AcDbCircle
 10
265.0000000000001
 20
0.0
 30
0.0
 40
5.0
  0
CIRCLE
  5
793
330
782
100
AcDbEntity
  8
0
100
AcDbCircle
 10
285.0000000000001
 20
0.0
 30
0.0
 40
5.0
  0
CIRCLE
  5
794
330
782
100
AcDbEntity
  8
0
100
AcDbCircle
 10
305.0000000000001
 20
0.0
 30
0.0
 40
5.0
  0
CIRCLE
  5
795
330
782
100
AcDbEntity
  8
0
100
AcDbCircle
 10
325.0
 20
0.0
 30
0.0
 40
5.0
  0
CIRCLE
  5
796
330
782
100
AcDbEntity
  8
0
100
AcDbCircle
 10
345.0000000000002
 20
0.0
 30
0.0
 40
5.0
  0
CIRCLE
  5
797
330
782
100
AcDbEntity
  8
0
100
AcDbCircle
 10
365.0000000000002
 20
0.0
 30
0.0
 40
5.0
  0
ENDBLK
  5
784
330
782
100
AcDbEntity
  8
0
100
AcDbBlockEnd
  0
BLOCK
  5
79A
330
799
100
AcDbEntity
  8
0
100
AcDbBlockBegin
  2
i
 70
     0
 10
0.0
 20
0.0
 30
0.0
  3
i
  1

  0
CIRCLE
  5
79C
330
799
100
AcDbEntity
  8
0
100
AcDbCircle
 10
-45.0
 20
0.0
 30
0.0
 40
5.0
  0
CIRCLE
  5
79D
330
799
100
AcDbEntity
  8
0
100
AcDbCircle
 10
-25.0
 20
0.0
 30
0.0
 40
5.0
  0
CIRCLE
  5
79E
330
799
100
AcDbEntity
  8
0
100
AcDbCircle
 10
-5.0
 20
0.0
 30
0.0
 40
5.0
  0
CIRCLE
  5
79F
330
799
100
AcDbEntity
  8
0
100
AcDbCircle
 10
15.0
 20
0.0
 30
0.0
 40
5.0
  0
CIRCLE
  5
7A0
330
799
100
AcDbEntity
  8
0
100
AcDbCircle
 10
35.0
 20
0.0
 30
0.0
 40
5.0
  0
CIRCLE
  5
7A1
330
799
100
AcDbEntity
  8
0
100
AcDbCircle
 10
55.0
 20
0.0
 30
0.0
 40
5.0
  0
CIRCLE
  5
7A2
330
799
100
AcDbEntity
  8
0
100
AcDbCircle
 10
75.0
 20
0.0
 30
0.0
 40
5.0
  0
CIRCLE
  5
7A3
330
799
100
AcDbEntity
  8
0
100
AcDbCircle
 10
95.0
 20
0.0
 30
0.0
 40
5.0
  0
CIRCLE
  5
7A4
330
799
100
AcDbEntity
  8
0
100
AcDbCircle
 10
115.0
 20
0.0
 30
0.0
 40
5.0
  0
CIRCLE
  5
7A5
330
799
100
AcDbEntity
  8
0
100
AcDbCircle
 10
135.0
 20
0.0
 30
0.0
 40
5.0
  0
CIRCLE
  5
7A6
330
799
100
AcDbEntity
  8
0
100
AcDbCircle
 10
155.0
 20
0.0
 30
0.0
 40
5.0
  0
CIRCLE
  5
7A7
330
799
100
AcDbEntity
  8
0
100
AcDbCircle
 10
175.0
 20
0.0
 30
0.0
 40
5.0
  0
CIRCLE
  5
7A8
330
799
100
AcDbEntity
  8
0
100
AcDbCircle
 10
195.0
 20
0.0
 30
0.0
 40
5.0
  0
CIRCLE
  5
7A9
330
799
100
AcDbEntity
  8
0
100
AcDbCircle
 10
215.0
 20
0.0
 30
0.0
 40
5.0
  0
CIRCLE
  5
7AA
330
799
100
AcDbEntity
  8
0
100
AcDbCircle
 10
235.0
 20
0.0
 30
0.0
 40
5.0
  0
CIRCLE
  5
7AB
330
799
100
AcDbEntity
  8
0
100
AcDbCircle
 10
255.0000000000001
 20
0.0
 30
0.0
 40
5.0
  0
CIRCLE
  5
7AC
330
799
100
AcDbEntity
  8
0
100
AcDbCircle
 10
275.0
 20
0.0
 30
0.0
 40
5.0
  0
CIRCLE
  5
7AD
330
799
100
AcDbEntity
  8
0
100
AcDbCircle
 10
295.0000000000001
 20
0.0
 30
0.0
 40
5.0
  0
CIRCLE
  5
7AE
330
799
100
AcDbEntity
  8
0
100
AcDbCircle
 10
315.0000000000001
 20
0.0
 30
0.0
 40
5.0
  0
CIRCLE
  5
7AF
330
799
100
AcDbEntity
  8
0
100
AcDbCircle
 10
335.0
 20
0.0
 30
0.0
 40
5.0
  0
ENDBLK
  5
79B
330
799
100
AcDbEntity
  8
0
100
AcDbBlockEnd
  0
BLOCK
  5
7B2
330
7B1
100
AcDbEntity
  8
0
100
AcDbBlockBegin
  2
j
 70
     0
 10
0.0
 20
0.0
 30
0.0
  3
j
  1

  0
CIRCLE
  5
7B4
330
7B1
100
AcDbEntity
  8
0
100
AcDbCircle
 10
-64.95878843149597
 20
0.6406381909170023
 30
0.0
 40
5.0
  0
CIRCLE
  5
7B5
330
7B1
100
AcDbEntity
  8
0
100
AcDbCircle
 10
-44.95878843149597
 20
0.6406381909170023
 30
0.0
 40
5.0
  0
CIRCLE
  5
7B6
330
7B1
100
AcDbEntity
  8
0
100
AcDbCircle
 10
-24.95878843149597
 20
0.6406381909170023
 30
0.0
 40
5.0
  0
CIRCLE
  5
7B7
330
7B1
100
AcDbEntity
  8
0
100
AcDbCircle
 10
-4.958788431495973
 20
0.6406381909170023
 30
0.0
 40
5.0
  0
CIRCLE
  5
7B8
330
7B1
100
AcDbEntity
  8
0
100
AcDbCircle
 10
15.04121156850402
 20
0.6406381909170023
 30
0.0
 40
5.0
  0
CIRCLE
  5
7B9
330
7B1
100
AcDbEntity
  8
0
100
AcDbCircle
 10
35.04121156850402
 20
0.6406381909170023
 30
0.0
 40
5.0
  0
CIRCLE
  5
7BA
330
7B1
100
AcDbEntity
  8
0
100
AcDbCircle
 10
55.04121156850402
 20
0.6406381909170023
 30
0.0
 40
5.0
  0
CIRCLE
  5
7BB
330
7B1
100
AcDbEntity
  8
0
100
AcDbCircle
 10
75.04121156850402
 20
0.6406381909170023
 30
0.0
 40
5.0
  0
CIRCLE
  5
7BC
330
7B1
100
AcDbEntity
  8
0
100
AcDbCircle
 10
95.041211568504
 20
0.6406381909170023
 30
0.0
 40
5.0
  0
CIRCLE
  5
7BD
330
7B1
100
AcDbEntity
  8
0
100
AcDbCircle
 10
115.041211568504
 20
0.6406381909170023
 30
0.0
 40
5.0
  0
CIRCLE
  5
7BE
330
7B1
100
AcDbEntity
  8
0
100
AcDbCircle
 10
135.041211568504
 20
0.6406381909170023
 30
0.0
 40
5.0
  0
CIRCLE
  5
7BF
330
7B1
100
AcDbEntity
  8
0
100
AcDbCircle
 10
155.041211568504
 20
0.6406381909170023
 30
0.0
 40
5.0
  0
CIRCLE
  5
7C0
330
7B1
100
AcDbEntity
  8
0
100
AcDbCircle
 10
175.041211568504
 20
0.6406381909170023
 30
0.0
 40
5.0
  0
CIRCLE
  5
7C1
330
7B1
100
AcDbEntity
  8
0
100
AcDbCircle
 10
195.0412115685041
 20
0.6406381909170023
 30
0.0
 40
5.0
  0
CIRCLE
  5
7C2
330
7B1
100
AcDbEntity
  8
0
100
AcDbCircle
 10
215.0412115685041
 20
0.6406381909170023
 30
0.0
 40
5.0
  0
CIRCLE
  5
7C3
330
7B1
100
AcDbEntity
  8
0
100
AcDbCircle
 10
235.0412115685041
 20
0.6406381909170023
 30
0.0
 40
5.0
  0
CIRCLE
  5
7C4
330
7B1
100
AcDbEntity
  8
0
100
AcDbCircle
 10
255.0412115685041
 20
0.6406381909170023
 30
0.0
 40
5.0
  0
CIRCLE
  5
7C5
330
7B1
100
AcDbEntity
  8
0
100
AcDbCircle
 10
275.0412115685041
 20
0.6406381909170023
 30
0.0
 40
5.0
  0
CIRCLE
  5
7C6
330
7B1
100
AcDbEntity
  8
0
100
AcDbCircle
 10
295.0412115685042
 20
0.6406381909170023
 30
0.0
 40
5.0
  0
ENDBLK
  5
7B3
330
7B1
100
AcDbEntity
  8
0
100
AcDbBlockEnd
  0
BLOCK
  5
7C9
330
7C8
100
AcDbEntity
  8
0
100
AcDbBlockBegin
  2
k
 70
     0
 10
0.0
 20
0.0
 30
0.0
  3
k
  1

  0
CIRCLE
  5
7CB
330
7C8
100
AcDbEntity
  8
0
100
AcDbCircle
 10
-15.0
 20
0.0
 30
0.0
 40
5.0
  0
CIRCLE
  5
7CC
330
7C8
100
AcDbEntity
  8
0
100
AcDbCircle
 10
5.0
 20
0.0
 30
0.0
 40
5.0
  0
CIRCLE
  5
7CD
330
7C8
100
AcDbEntity
  8
0
100
AcDbCircle
 10
25.0
 20
0.0
 30
0.0
 40
5.0
  0
CIRCLE
  5
7CE
330
7C8
100
AcDbEntity
  8
0
100
AcDbCircle
 10
45.0
 20
0.0
 30
0.0
 40
5.0
  0
CIRCLE
  5
7CF
330
7C8
100
AcDbEntity
  8
0
100
AcDbCircle
 10
65.0
 20
0.0
 30
0.0
 40
5.0
  0
CIRCLE
  5
7D0
330
7C8
100
AcDbEntity
  8
0
100
AcDbCircle
 10
85.0
 20
0.0
 30
0.0
 40
5.0
  0
CIRCLE
  5
7D1
330
7C8
100
AcDbEntity
  8
0
100
AcDbCircle
 10
105.0
 20
0.0
 30
0.0
 40
5.0
  0
CIRCLE
  5
7D2
330
7C8
100
AcDbEntity
  8
0
100
AcDbCircle
 10
125.0
 20
0.0
 30
0.0
 40
5.0
  0
CIRCLE
  5
7D3
330
7C8
100
AcDbEntity
  8
0
100
AcDbCircle
 10
145.0
 20
0.0
 30
0.0
 40
5.0
  0
CIRCLE
  5
7D4
330
7C8
100
AcDbEntity
  8
0
100
AcDbCircle
 10
165.0
 20
0.0
 30
0.0
 40
5.0
  0
CIRCLE
  5
7D5
330
7C8
100
AcDbEntity
  8
0
100
AcDbCircle
 10
185.0
 20
0.0
 30
0.0
 40
5.0
  0
CIRCLE
  5
7D6
330
7C8
100
AcDbEntity
  8
0
100
AcDbCircle
 10
205.0
 20
0.0
 30
0.0
 40
5.0
  0
CIRCLE
  5
7D7
330
7C8
100
AcDbEntity
  8
0
100
AcDbCircle
 10
225.0
 20
0.0
 30
0.0
 40
5.0
  0
CIRCLE
  5
7D8
330
7C8
100
AcDbEntity
  8
0
100
AcDbCircle
 10
245.0
 20
0.0
 30
0.0
 40
5.0
  0
CIRCLE
  5
7D9
330
7C8
100
AcDbEntity
  8
0
100
AcDbCircle
 10
265.0000000000001
 20
0.0
 30
0.0
 40
5.0
  0
CIRCLE
  5
7DA
330
7C8
100
AcDbEntity
  8
0
100
AcDbCircle
 10
285.0000000000001
 20
0.0
 30
0.0
 40
5.0
  0
CIRCLE
  5
7DB
330
7C8
100
AcDbEntity
  8
0
100
AcDbCircle
 10
305.0000000000001
 20
0.0
 30
0.0
 40
5.0
  0
CIRCLE
  5
7DC
330
7C8
100
AcDbEntity
  8
0
100
AcDbCircle
 10
325.0
 20
0.0
 30
0.0
 40
5.0
  0
CIRCLE
  5
7DD
330
7C8
100
AcDbEntity
  8
0
100
AcDbCircle
 10
345.0000000000002
 20
0.0
 30
0.0
 40
5.0
  0
CIRCLE
  5
7DE
330
7C8
100
AcDbEntity
  8
0
100
AcDbCircle
 10
365.0000000000002
 20
0.0
 30
0.0
 40
5.0
  0
ENDBLK
  5
7CA
330
7C8
100
AcDbEntity
  8
0
100
AcDbBlockEnd
  0
BLOCK
  5
7E3
330
7E2
100
AcDbEntity
  8
0
100
AcDbBlockBegin
  2
*D26
 70
     1
 10
0.0
 20
0.0
 30
0.0
  3
*D26
  1

  0
LINE
  5
7EF
330
7E2
100
AcDbEntity
  8
φ10
 62
     0
370
    -2
100
AcDbLine
 10
239.4712166061208
 20
501.4060172314347
 30
0.0
 11
234.5880882307953
 21
501.4060172314347
 31
0.0
  0
LINE
  5
7F0
330
7E2
100
AcDbEntity
  8
φ10
 62
     0
370
    -2
100
AcDbLine
 10
239.4712166061208
 20
524.6060172314347
 30
0.0
 11
234.5880882307953
 21
524.6060172314347
 31
0.0
  0
LINE
  5
7F1
330
7E2
100
AcDbEntity
  8
φ10
 62
     0
370
    -2
100
AcDbLine
 10
235.4880882307953
 20
506.4060172314348
 30
0.0
 11
235.4880882307953
 21
519.6060172314347
 31
0.0
  0
SOLID
  5
7F2
330
7E2
100
AcDbEntity
  8
φ10
 62
     0
100
AcDbTrace
 10
234.6547548974619
 20
506.4060172314348
 30
0.0
 11
236.3214215641286
 21
506.4060172314348
 31
0.0
 12
235.4880882307953
 22
501.4060172314347
 32
0.0
 13
235.4880882307953
 23
501.4060172314347
 33
0.0
  0
SOLID
  5
7F3
330
7E2
100
AcDbEntity
  8
φ10
 62
     0
100
AcDbTrace
 10
234.6547548974619
 20
519.6060172314347
 30
0.0
 11
236.3214215641286
 21
519.6060172314347
 31
0.0
 12
235.4880882307953
 22
524.6060172314347
 32
0.0
 13
235.4880882307953
 23
524.6060172314347
 33
0.0
  0
MTEXT
  5
7F4
330
7E2
100
AcDbEntity
  8
φ10
 62
     0
100
AcDbMText
 10
228.6453187901403
 20
513.0060172314348
 30
0.0
 40
8.5
 41
0.0
 71
     5
 72
     1
  1
\A1;23
  7
Dimsmall
 11
0.0000000000000001
 21
1.0
 31
0.0
 73
     1
 44
1.0
1001
ACAD
1000
MTEXTBEGIN
1070
    73
1070
     1
1070
    44
1040
1.0
1070
    74
1070
     0
1000
MTEXTEND
  0
POINT
  5
7F5
330
7E2
100
AcDbEntity
  8
Defpoints
 62
     0
100
AcDbPoint
 10
244.4712166061208
 20
501.4060172314347
 30
0.0
  0
POINT
  5
7F6
330
7E2
100
AcDbEntity
  8
Defpoints
 62
     0
100
AcDbPoint
 10
244.4712166061207
 20
524.6060172314347
 30
0.0
  0
POINT
  5
7F7
330
7E2
100
AcDbEntity
  8
Defpoints
 62
     0
100
AcDbPoint
 10
235.4880882307953
 20
524.6060172314347
 30
0.0
  0
ENDBLK
  5
7E4
330
7E2
100
AcDbEntity
  8
0
100
AcDbBlockEnd
  0
BLOCK
  5
7FB
330
7FA
100
AcDbEntity
  8
0
100
AcDbBlockBegin
  2
*D27
 70
     1
 10
0.0
 20
0.0
 30
0.0
  3
*D27
  1

  0
LINE
  5
808
330
7FA
100
AcDbEntity
  8
φ10
 62
     0
370
    -2
100
AcDbLine
 10
239.4712166061208
 20
501.4060172314347
 30
0.0
 11
235.832407563165
 21
501.4060172314347
 31
0.0
  0
LINE
  5
809
330
7FA
100
AcDbEntity
  8
φ10
 62
     0
370
    -2
100
AcDbLine
 10
249.4712166061208
 20
486.4060172314347
 30
0.0
 11
235.832407563165
 21
486.4060172314347
 31
0.0
  0
LINE
  5
80A
330
7FA
100
AcDbEntity
  8
φ10
 62
     0
370
    -2
100
AcDbLine
 10
236.732407563165
 20
496.4060172314346
 30
0.0
 11
236.732407563165
 21
491.4060172314346
 31
0.0
  0
LINE
  5
80B
330
7FA
100
AcDbEntity
  8
φ10
 62
     0
370
    -2
100
AcDbLine
 10
236.732407563165
 20
486.4060172314347
 30
0.0
 11
236.732407563165
 21
464.9663855806842
 31
0.0
  0
SOLID
  5
80C
330
7FA
100
AcDbEntity
  8
φ10
 62
     0
100
AcDbTrace
 10
235.8990742298316
 20
496.4060172314346
 30
0.0
 11
237.5657408964984
 21
496.4060172314346
 31
0.0
 12
236.732407563165
 22
501.4060172314347
 32
0.0
 13
236.732407563165
 23
501.4060172314347
 33
0.0
  0
SOLID
  5
80D
330
7FA
100
AcDbEntity
  8
φ10
 62
     0
100
AcDbTrace
 10
235.8990742298316
 20
491.4060172314346
 30
0.0
 11
237.5657408964984
 21
491.4060172314346
 31
0.0
 12
236.732407563165
 22
486.4060172314347
 32
0.0
 13
236.732407563165
 23
486.4060172314347
 33
0.0
  0
MTEXT
  5
80E
330
7FA
100
AcDbEntity
  8
φ10
 62
     0
100
AcDbMText
 10
229.8925371675305
 20
473.1862014060596
 30
0.0
 40
8.5
 41
0.0
 71
     5
 72
     1
  1
\A1;15
  7
Dimsmall
 11
0.0000000000000001
 21
1.0
 31
0.0
 73
     1
 44
1.0
1001
ACAD
1000
MTEXTBEGIN
1070
    73
1070
     1
1070
    44
1040
1.0
1070
    74
1070
     0
1000
MTEXTEND
  0
POINT
  5
80F
330
7FA
100
AcDbEntity
  8
Defpoints
 62
     0
100
AcDbPoint
 10
244.4712166061208
 20
501.4060172314347
 30
0.0
  0
POINT
  5
810
330
7FA
100
AcDbEntity
  8
Defpoints
 62
     0
100
AcDbPoint
 10
254.4712166061208
 20
486.4060172314347
 30
0.0
  0
POINT
  5
811
330
7FA
100
AcDbEntity
  8
Defpoints
 62
     0
100
AcDbPoint
 10
236.732407563165
 20
486.4060172314347
 30
0.0
  0
ENDBLK
  5
7FC
330
7FA
100
AcDbEntity
  8
0
100
AcDbBlockEnd
  0
BLOCK
  5
815
330
814
100
AcDbEntity
  8
0
100
AcDbBlockBegin
  2
*D28
 70
     1
 10
0.0
 20
0.0
 30
0.0
  3
*D28
  1

  0
LINE
  5
821
330
814
100
AcDbEntity
  8
φ10
 62
     0
370
    -2
100
AcDbLine
 10
239.4712166061207
 20
524.6060172314347
 30
0.0
 11
164.4187109325818
 21
524.6060172314347
 31
0.0
  0
LINE
  5
822
330
814
100
AcDbEntity
  8
φ10
 62
     0
370
    -2
100
AcDbLine
 10
239.4712166061208
 20
351.4060172314348
 30
0.0
 11
164.4187109325818
 21
351.4060172314348
 31
0.0
  0
LINE
  5
823
330
814
100
AcDbEntity
  8
φ10
 62
     0
370
    -2
100
AcDbLine
 10
165.3187109325818
 20
519.6060172314347
 30
0.0
 11
165.3187109325818
 21
356.4060172314348
 31
0.0
  0
SOLID
  5
824
330
814
100
AcDbEntity
  8
φ10
 62
     0
100
AcDbTrace
 10
164.4853775992484
 20
519.6060172314347
 30
0.0
 11
166.1520442659151
 21
519.6060172314347
 31
0.0
 12
165.3187109325818
 22
524.6060172314347
 32
0.0
 13
165.3187109325818
 23
524.6060172314347
 33
0.0
  0
SOLID
  5
825
330
814
100
AcDbEntity
  8
φ10
 62
     0
100
AcDbTrace
 10
164.4853775992484
 20
356.4060172314348
 30
0.0
 11
166.1520442659151
 21
356.4060172314348
 31
0.0
 12
165.3187109325818
 22
351.4060172314348
 32
0.0
 13
165.3187109325818
 23
351.4060172314348
 33
0.0
  0
MTEXT
  5
826
330
814
100
AcDbEntity
  8
φ10
 62
     0
100
AcDbMText
 10
158.4759414919268
 20
438.0060172314347
 30
0.0
 40
8.5
 41
0.0
 71
     5
 72
     1
  1
\A1;173
  7
Dimsmall
 11
0.0000000000000001
 21
1.0
 31
0.0
 73
     1
 44
1.0
1001
ACAD
1000
MTEXTBEGIN
1070
    73
1070
     1
1070
    44
1040
1.0
1070
    74
1070
     0
1000
MTEXTEND
  0
POINT
  5
827
330
814
100
AcDbEntity
  8
Defpoints
 62
     0
100
AcDbPoint
 10
244.4712166061207
 20
524.6060172314347
 30
0.0
  0
POINT
  5
828
330
814
100
AcDbEntity
  8
Defpoints
 62
     0
100
AcDbPoint
 10
244.4712166061208
 20
351.4060172314348
 30
0.0
  0
POINT
  5
829
330
814
100
AcDbEntity
  8
Defpoints
 62
     0
100
AcDbPoint
 10
165.3187109325818
 20
351.4060172314348
 30
0.0
  0
ENDBLK
  5
816
330
814
100
AcDbEntity
  8
0
100
AcDbBlockEnd
  0
BLOCK
  5
82D
330
82C
100
AcDbEntity
  8
0
100
AcDbBlockBegin
  2
*D29
 70
     1
 10
0.0
 20
0.0
 30
0.0
  3
*D29
  1

  0
LINE
  5
839
330
82C
100
AcDbEntity
  8
φ10
 62
     0
370
    -2
100
AcDbLine
 10
249.4712166061208
 20
506.4060172314348
 30
0.0
 11
224.3844953467366
 21
506.4060172314348
 31
0.0
  0
LINE
  5
83A
330
82C
100
AcDbEntity
  8
φ10
 62
     0
370
    -2
100
AcDbLine
 10
238.6658202976778
 20
524.6060172314347
 30
0.0
 11
224.3844953467366
 21
524.6060172314347
 31
0.0
  0
LINE
  5
83B
330
82C
100
AcDbEntity
  8
φ10
 62
     0
370
    -2
100
AcDbLine
 10
225.2844953467366
 20
511.4060172314347
 30
0.0
 11
225.2844953467366
 21
519.6060172314347
 31
0.0
  0
SOLID
  5
83C
330
82C
100
AcDbEntity
  8
φ10
 62
     0
100
AcDbTrace
 10
224.4511620134032
 20
511.4060172314347
 30
0.0
 11
226.1178286800699
 21
511.4060172314347
 31
0.0
 12
225.2844953467366
 22
506.4060172314348
 32
0.0
 13
225.2844953467366
 23
506.4060172314348
 33
0.0
  0
SOLID
  5
83D
330
82C
100
AcDbEntity
  8
φ10
 62
     0
100
AcDbTrace
 10
224.4511620134032
 20
519.6060172314347
 30
0.0
 11
226.1178286800699
 21
519.6060172314347
 31
0.0
 12
225.2844953467366
 22
524.6060172314347
 32
0.0
 13
225.2844953467366
 23
524.6060172314347
 33
0.0
  0
MTEXT
  5
83E
330
82C
100
AcDbEntity
  8
φ10
 62
     0
100
AcDbMText
 10
218.4446249511021
 20
515.5060172314348
 30
0.0
 40
8.5
 41
0.0
 71
     5
 72
     1
  1
\A1;18
  7
Dimsmall
 11
0.0000000000000001
 21
1.0
 31
0.0
 73
     1
 44
1.0
1001
ACAD
1000
MTEXTBEGIN
1070
    73
1070
     1
1070
    44
1040
1.0
1070
    74
1070
     0
1000
MTEXTEND
  0
POINT
  5
83F
330
82C
100
AcDbEntity
  8
Defpoints
 62
     0
100
AcDbPoint
 10
254.4712166061208
 20
506.4060172314348
 30
0.0
  0
POINT
  5
840
330
82C
100
AcDbEntity
  8
Defpoints
 62
     0
100
AcDbPoint
 10
243.6658202976778
 20
524.6060172314347
 30
0.0
  0
POINT
  5
841
330
82C
100
AcDbEntity
  8
Defpoints
 62
     0
100
AcDbPoint
 10
225.2844953467366
 20
524.6060172314347
 30
0.0
  0
ENDBLK
  5
82E
330
82C
100
AcDbEntity
  8
0
100
AcDbBlockEnd
  0
BLOCK
  5
845
330
844
100
AcDbEntity
  8
0
100
AcDbBlockBegin
  2
*D30
 70
     1
 10
0.0
 20
0.0
 30
0.0
  3
*D30
  1

  0
LINE
  5
851
330
844
100
AcDbEntity
  8
φ10
 62
     0
370
    -2
100
AcDbLine
 10
249.4712166061208
 20
506.4060172314348
 30
0.0
 11
222.1453338098341
 21
506.4060172314348
 31
0.0
  0
LINE
  5
852
330
844
100
AcDbEntity
  8
φ10
 62
     0
370
    -2
100
AcDbLine
 10
239.4712166061208
 20
471.4060172314346
 30
0.0
 11
222.1453338098341
 21
471.4060172314346
 31
0.0
  0
LINE
  5
853
330
844
100
AcDbEntity
  8
φ10
 62
     0
370
    -2
100
AcDbLine
 10
223.0453338098341
 20
501.4060172314347
 30
0.0
 11
223.0453338098341
 21
476.4060172314347
 31
0.0
  0
SOLID
  5
854
330
844
100
AcDbEntity
  8
φ10
 62
     0
100
AcDbTrace
 10
222.2120004765008
 20
501.4060172314347
 30
0.0
 11
223.8786671431675
 21
501.4060172314347
 31
0.0
 12
223.0453338098341
 22
506.4060172314348
 32
0.0
 13
223.0453338098341
 23
506.4060172314348
 33
0.0
  0
SOLID
  5
855
330
844
100
AcDbEntity
  8
φ10
 62
     0
100
AcDbTrace
 10
222.2120004765008
 20
476.4060172314347
 30
0.0
 11
223.8786671431675
 21
476.4060172314347
 31
0.0
 12
223.0453338098341
 22
471.4060172314346
 32
0.0
 13
223.0453338098341
 23
471.4060172314346
 33
0.0
  0
MTEXT
  5
856
330
844
100
AcDbEntity
  8
φ10
 62
     0
100
AcDbMText
 10
216.2025643691792
 20
488.9060172314349
 30
0.0
 40
8.5
 41
0.0
 71
     5
 72
     1
  1
\A1;35
  7
Dimsmall
 11
0.0000000000000001
 21
1.0
 31
0.0
 73
     1
 44
1.0
1001
ACAD
1000
MTEXTBEGIN
1070
    73
1070
     1
1070
    44
1040
1.0
1070
    74
1070
     0
1000
MTEXTEND
  0
POINT
  5
857
330
844
100
AcDbEntity
  8
Defpoints
 62
     0
100
AcDbPoint
 10
254.4712166061208
 20
506.4060172314348
 30
0.0
  0
POINT
  5
858
330
844
100
AcDbEntity
  8
Defpoints
 62
     0
100
AcDbPoint
 10
244.4712166061208
 20
471.4060172314346
 30
0.0
  0
POINT
  5
859
330
844
100
AcDbEntity
  8
Defpoints
 62
     0
100
AcDbPoint
 10
223.0453338098341
 20
471.4060172314346
 30
0.0
  0
ENDBLK
  5
846
330
844
100
AcDbEntity
  8
0
100
AcDbBlockEnd
  0
BLOCK
  5
85D
330
85C
100
AcDbEntity
  8
0
100
AcDbBlockBegin
  2
*D31
 70
     1
 10
0.0
 20
0.0
 30
0.0
  3
*D31
  1

  0
LINE
  5
869
330
85C
100
AcDbEntity
  8
φ10
 62
     0
370
    -2
100
AcDbLine
 10
249.4712166061208
 20
456.4060172314348
 30
0.0
 11
195.6026905520472
 21
456.4060172314348
 31
0.0
  0
LINE
  5
86A
330
85C
100
AcDbEntity
  8
φ10
 62
     0
370
    -2
100
AcDbLine
 10
239.4712166061208
 20
488.2060172314346
 30
0.0
 11
195.6026905520472
 21
488.2060172314346
 31
0.0
  0
LINE
  5
86B
330
85C
100
AcDbEntity
  8
φ10
 62
     0
370
    -2
100
AcDbLine
 10
196.5026905520471
 20
461.4060172314347
 30
0.0
 11
196.5026905520471
 21
483.2060172314347
 31
0.0
  0
SOLID
  5
86C
330
85C
100
AcDbEntity
  8
φ10
 62
     0
100
AcDbTrace
 10
195.6693572187138
 20
461.4060172314347
 30
0.0
 11
197.3360238853805
 21
461.4060172314347
 31
0.0
 12
196.5026905520471
 22
456.4060172314348
 32
0.0
 13
196.5026905520471
 23
456.4060172314348
 33
0.0
  0
SOLID
  5
86D
330
85C
100
AcDbEntity
  8
φ10
 62
     0
100
AcDbTrace
 10
195.6693572187138
 20
483.2060172314347
 30
0.0
 11
197.3360238853805
 21
483.2060172314347
 31
0.0
 12
196.5026905520471
 22
488.2060172314346
 32
0.0
 13
196.5026905520471
 23
488.2060172314346
 33
0.0
  0
MTEXT
  5
86E
330
85C
100
AcDbEntity
  8
φ10
 62
     0
100
AcDbMText
 10
189.6599211113922
 20
472.3060172314347
 30
0.0
 40
8.5
 41
0.0
 71
     5
 72
     1
  1
\A1;32
  7
Dimsmall
 11
0.0000000000000001
 21
1.0
 31
0.0
 73
     1
 44
1.0
1001
ACAD
1000
MTEXTBEGIN
1070
    73
1070
     1
1070
    44
1040
1.0
1070
    74
1070
     0
1000
MTEXTEND
  0
POINT
  5
86F
330
85C
100
AcDbEntity
  8
Defpoints
 62
     0
100
AcDbPoint
 10
254.4712166061208
 20
456.4060172314348
 30
0.0
  0
POINT
  5
870
330
85C
100
AcDbEntity
  8
Defpoints
 62
     0
100
AcDbPoint
 10
244.4712166061208
 20
488.2060172314346
 30
0.0
  0
POINT
  5
871
330
85C
100
AcDbEntity
  8
Defpoints
 62
     0
100
AcDbPoint
 10
196.5026905520471
 20
488.2060172314346
 30
0.0
  0
ENDBLK
  5
85E
330
85C
100
AcDbEntity
  8
0
100
AcDbBlockEnd
  0
BLOCK
  5
875
330
874
100
AcDbEntity
  8
0
100
AcDbBlockBegin
  2
*D32
 70
     1
 10
0.0
 20
0.0
 30
0.0
  3
*D32
  1

  0
LINE
  5
881
330
874
100
AcDbEntity
  8
φ10
 62
     0
370
    -2
100
AcDbLine
 10
239.4712166061208
 20
488.2060172314346
 30
0.0
 11
233.6429141843833
 21
488.2060172314346
 31
0.0
  0
LINE
  5
882
330
874
100
AcDbEntity
  8
φ10
 62
     0
370
    -2
100
AcDbLine
 10
249.4712166061208
 20
506.4060172314348
 30
0.0
 11
233.6429141843833
 21
506.4060172314348
 31
0.0
  0
LINE
  5
883
330
874
100
AcDbEntity
  8
φ10
 62
     0
370
    -2
100
AcDbLine
 10
234.5429141843833
 20
493.2060172314347
 30
0.0
 11
234.5429141843833
 21
501.4060172314347
 31
0.0
  0
SOLID
  5
884
330
874
100
AcDbEntity
  8
φ10
 62
     0
100
AcDbTrace
 10
233.70958085105
 20
493.2060172314347
 30
0.0
 11
235.3762475177167
 21
493.2060172314347
 31
0.0
 12
234.5429141843833
 22
488.2060172314346
 32
0.0
 13
234.5429141843833
 23
488.2060172314346
 33
0.0
  0
SOLID
  5
885
330
874
100
AcDbEntity
  8
φ10
 62
     0
100
AcDbTrace
 10
233.70958085105
 20
501.4060172314347
 30
0.0
 11
235.3762475177167
 21
501.4060172314347
 31
0.0
 12
234.5429141843833
 22
506.4060172314348
 32
0.0
 13
234.5429141843833
 23
506.4060172314348
 33
0.0
  0
MTEXT
  5
886
330
874
100
AcDbEntity
  8
φ10
 62
     0
100
AcDbMText
 10
227.7030437887489
 20
497.3060172314347
 30
0.0
 40
8.5
 41
0.0
 71
     5
 72
     1
  1
\A1;18
  7
Dimsmall
 11
0.0000000000000001
 21
1.0
 31
0.0
 73
     1
 44
1.0
1001
ACAD
1000
MTEXTBEGIN
1070
    73
1070
     1
1070
    44
1040
1.0
1070
    74
1070
     0
1000
MTEXTEND
  0
POINT
  5
887
330
874
100
AcDbEntity
  8
Defpoints
 62
     0
100
AcDbPoint
 10
244.4712166061208
 20
488.2060172314346
 30
0.0
  0
POINT
  5
888
330
874
100
AcDbEntity
  8
Defpoints
 62
     0
100
AcDbPoint
 10
254.4712166061208
 20
506.4060172314348
 30
0.0
  0
POINT
  5
889
330
874
100
AcDbEntity
  8
Defpoints
 62
     0
100
AcDbPoint
 10
234.5429141843833
 20
506.4060172314348
 30
0.0
  0
ENDBLK
  5
876
330
874
100
AcDbEntity
  8
0
100
AcDbBlockEnd
  0
BLOCK
  5
88D
330
88C
100
AcDbEntity
  8
0
100
AcDbBlockBegin
  2
*D33
 70
     1
 10
0.0
 20
0.0
 30
0.0
  3
*D33
  1

  0
LINE
  5
89A
330
88C
100
AcDbEntity
  8
φ10
 62
     0
370
    -2
100
AcDbLine
 10
239.4712166061208
 20
488.2060172314346
 30
0.0
 11
232.4697211455092
 21
488.2060172314346
 31
0.0
  0
LINE
  5
89B
330
88C
100
AcDbEntity
  8
φ10
 62
     0
370
    -2
100
AcDbLine
 10
249.4712166061208
 20
473.2060172314347
 30
0.0
 11
232.4697211455092
 21
473.2060172314347
 31
0.0
  0
LINE
  5
89C
330
88C
100
AcDbEntity
  8
φ10
 62
     0
370
    -2
100
AcDbLine
 10
233.3697211455092
 20
493.2060172314347
 30
0.0
 11
233.3697211455092
 21
498.2060172314347
 31
0.0
  0
LINE
  5
89D
330
88C
100
AcDbEntity
  8
φ10
 62
     0
370
    -2
100
AcDbLine
 10
233.3697211455092
 20
468.2060172314347
 30
0.0
 11
233.3697211455092
 21
446.7663855806843
 31
0.0
  0
SOLID
  5
89E
330
88C
100
AcDbEntity
  8
φ10
 62
     0
100
AcDbTrace
 10
232.5363878121758
 20
493.2060172314347
 30
0.0
 11
234.2030544788425
 21
493.2060172314347
 31
0.0
 12
233.3697211455092
 22
488.2060172314346
 32
0.0
 13
233.3697211455092
 23
488.2060172314346
 33
0.0
  0
SOLID
  5
89F
330
88C
100
AcDbEntity
  8
φ10
 62
     0
100
AcDbTrace
 10
232.5363878121758
 20
468.2060172314347
 30
0.0
 11
234.2030544788425
 21
468.2060172314347
 31
0.0
 12
233.3697211455092
 22
473.2060172314347
 32
0.0
 13
233.3697211455092
 23
473.2060172314347
 33
0.0
  0
MTEXT
  5
8A0
330
88C
100
AcDbEntity
  8
φ10
 62
     0
100
AcDbMText
 10
226.5298507498747
 20
454.9862014060597
 30
0.0
 40
8.5
 41
0.0
 71
     5
 72
     1
  1
\A1;15
  7
Dimsmall
 11
0.0000000000000001
 21
1.0
 31
0.0
 73
     1
 44
1.0
1001
ACAD
1000
MTEXTBEGIN
1070
    73
1070
     1
1070
    44
1040
1.0
1070
    74
1070
     0
1000
MTEXTEND
  0
POINT
  5
8A1
330
88C
100
AcDbEntity
  8
Defpoints
 62
     0
100
AcDbPoint
 10
244.4712166061208
 20
488.2060172314346
 30
0.0
  0
POINT
  5
8A2
330
88C
100
AcDbEntity
  8
Defpoints
 62
     0
100
AcDbPoint
 10
254.4712166061208
 20
473.2060172314347
 30
0.0
  0
POINT
  5
8A3
330
88C
100
AcDbEntity
  8
Defpoints
 62
     0
100
AcDbPoint
 10
233.3697211455092
 20
473.2060172314347
 30
0.0
  0
ENDBLK
  5
88E
330
88C
100
AcDbEntity
  8
0
100
AcDbBlockEnd
  0
BLOCK
  5
8C0
330
8BF
100
AcDbEntity
  8
0
100
AcDbBlockBegin
  2
*D34
 70
     1
 10
0.0
 20
0.0
 30
0.0
  3
*D34
  1

  0
LINE
  5
8CC
330
8BF
100
AcDbEntity
  8
用紙枠
 62
     0
370
    -2
100
AcDbLine
 10
239.4712166061207
 20
524.6060172314347
 30
0.0
 11
172.7338556315731
 21
524.6060172314347
 31
0.0
  0
LINE
  5
8CD
330
8BF
100
AcDbEntity
  8
用紙枠
 62
     0
370
    -2
100
AcDbLine
 10
239.4712166061208
 20
351.4060172314348
 30
0.0
 11
172.7338556315731
 21
351.4060172314348
 31
0.0
  0
LINE
  5
8CE
330
8BF
100
AcDbEntity
  8
用紙枠
 62
     0
370
    -2
100
AcDbLine
 10
173.6338556315731
 20
519.6060172314347
 30
0.0
 11
173.6338556315731
 21
356.4060172314348
 31
0.0
  0
SOLID
  5
8CF
330
8BF
100
AcDbEntity
  8
用紙枠
 62
     0
100
AcDbTrace
 10
172.8005222982398
 20
519.6060172314347
 30
0.0
 11
174.4671889649065
 21
519.6060172314347
 31
0.0
 12
173.6338556315731
 22
524.6060172314347
 32
0.0
 13
173.6338556315731
 23
524.6060172314347
 33
0.0
  0
SOLID
  5
8D0
330
8BF
100
AcDbEntity
  8
用紙枠
 62
     0
100
AcDbTrace
 10
172.8005222982398
 20
356.4060172314348
 30
0.0
 11
174.4671889649065
 21
356.4060172314348
 31
0.0
 12
173.6338556315731
 22
351.4060172314348
 32
0.0
 13
173.6338556315731
 23
351.4060172314348
 33
0.0
  0
MTEXT
  5
8D1
330
8BF
100
AcDbEntity
  8
用紙枠
 62
     0
100
AcDbMText
 10
166.7910861909182
 20
438.0060172314347
 30
0.0
 40
8.5
 41
0.0
 71
     5
 72
     1
  1
\A1;173
  7
Dimsmall
 11
0.0000000000000001
 21
1.0
 31
0.0
 73
     1
 44
1.0
1001
ACAD
1000
MTEXTBEGIN
1070
    73
1070
     1
1070
    44
1040
1.0
1070
    74
1070
     0
1000
MTEXTEND
  0
POINT
  5
8D2
330
8BF
100
AcDbEntity
  8
Defpoints
 62
     0
100
AcDbPoint
 10
244.4712166061207
 20
524.6060172314347
 30
0.0
  0
POINT
  5
8D3
330
8BF
100
AcDbEntity
  8
Defpoints
 62
     0
100
AcDbPoint
 10
244.4712166061208
 20
351.4060172314348
 30
0.0
  0
POINT
  5
8D4
330
8BF
100
AcDbEntity
  8
Defpoints
 62
     0
100
AcDbPoint
 10
173.6338556315731
 20
351.4060172314348
 30
0.0
  0
ENDBLK
  5
8C1
330
8BF
100
AcDbEntity
  8
0
100
AcDbBlockEnd
  0
BLOCK
  5
8D8
330
8D7
100
AcDbEntity
  8
0
100
AcDbBlockBegin
  2
*D35
 70
     1
 10
0.0
 20
0.0
 30
0.0
  3
*D35
  1

  0
LINE
  5
8E5
330
8D7
100
AcDbEntity
  8
用紙枠
 62
     0
370
    -2
100
AcDbLine
 10
239.4712166061208
 20
351.4060172314348
 30
0.0
 11
235.2833642837264
 21
351.4060172314348
 31
0.0
  0
LINE
  5
8E6
330
8D7
100
AcDbEntity
  8
用紙枠
 62
     0
370
    -2
100
AcDbLine
 10
249.4712166061208
 20
366.4060172314348
 30
0.0
 11
235.2833642837264
 21
366.4060172314348
 31
0.0
  0
LINE
  5
8E7
330
8D7
100
AcDbEntity
  8
用紙枠
 62
     0
370
    -2
100
AcDbLine
 10
236.1833642837265
 20
356.4060172314348
 30
0.0
 11
236.1833642837265
 21
361.4060172314347
 31
0.0
  0
LINE
  5
8E8
330
8D7
100
AcDbEntity
  8
用紙枠
 62
     0
370
    -2
100
AcDbLine
 10
236.1833642837265
 20
366.4060172314348
 30
0.0
 11
236.1833642837265
 21
387.8456488821852
 31
0.0
  0
SOLID
  5
8E9
330
8D7
100
AcDbEntity
  8
用紙枠
 62
     0
100
AcDbTrace
 10
235.3500309503931
 20
356.4060172314348
 30
0.0
 11
237.0166976170597
 21
356.4060172314348
 31
0.0
 12
236.1833642837265
 22
351.4060172314348
 32
0.0
 13
236.1833642837265
 23
351.4060172314348
 33
0.0
  0
SOLID
  5
8EA
330
8D7
100
AcDbEntity
  8
用紙枠
 62
     0
100
AcDbTrace
 10
235.3500309503931
 20
361.4060172314347
 30
0.0
 11
237.0166976170597
 21
361.4060172314347
 31
0.0
 12
236.1833642837265
 22
366.4060172314348
 32
0.0
 13
236.1833642837265
 23
366.4060172314348
 33
0.0
  0
MTEXT
  5
8EB
330
8D7
100
AcDbEntity
  8
用紙枠
 62
     0
100
AcDbMText
 10
229.343493888092
 20
379.6258330568102
 30
0.0
 40
8.5
 41
0.0
 71
     5
 72
     1
  1
\A1;15
  7
Dimsmall
 11
0.0000000000000001
 21
1.0
 31
0.0
 73
     1
 44
1.0
1001
ACAD
1000
MTEXTBEGIN
1070
    73
1070
     1
1070
    44
1040
1.0
1070
    74
1070
     0
1000
MTEXTEND
  0
POINT
  5
8EC
330
8D7
100
AcDbEntity
  8
Defpoints
 62
     0
100
AcDbPoint
 10
244.4712166061208
 20
351.4060172314348
 30
0.0
  0
POINT
  5
8ED
330
8D7
100
AcDbEntity
  8
Defpoints
 62
     0
100
AcDbPoint
 10
254.4712166061208
 20
366.4060172314348
 30
0.0
  0
POINT
  5
8EE
330
8D7
100
AcDbEntity
  8
Defpoints
 62
     0
100
AcDbPoint
 10
236.1833642837265
 20
366.4060172314348
 30
0.0
  0
ENDBLK
  5
8D9
330
8D7
100
AcDbEntity
  8
0
100
AcDbBlockEnd
  0
BLOCK
  5
8F2
330
8F1
100
AcDbEntity
  8
0
100
AcDbBlockBegin
  2
*D36
 70
     1
 10
0.0
 20
0.0
 30
0.0
  3
*D36
  1

  0
LINE
  5
8FE
330
8F1
100
AcDbEntity
  8
用紙枠
 62
     0
370
    -2
100
AcDbLine
 10
239.4712166061207
 20
524.6060172314347
 30
0.0
 11
195.0118553143589
 21
524.6060172314347
 31
0.0
  0
LINE
  5
8FF
330
8F1
100
AcDbEntity
  8
用紙枠
 62
     0
370
    -2
100
AcDbLine
 10
239.4712166061208
 20
351.4060172314348
 30
0.0
 11
195.0118553143589
 21
351.4060172314348
 31
0.0
  0
LINE
  5
900
330
8F1
100
AcDbEntity
  8
用紙枠
 62
     0
370
    -2
100
AcDbLine
 10
195.9118553143589
 20
519.6060172314347
 30
0.0
 11
195.9118553143589
 21
356.4060172314348
 31
0.0
  0
SOLID
  5
901
330
8F1
100
AcDbEntity
  8
用紙枠
 62
     0
100
AcDbTrace
 10
195.0785219810255
 20
519.6060172314347
 30
0.0
 11
196.7451886476921
 21
519.6060172314347
 31
0.0
 12
195.9118553143589
 22
524.6060172314347
 32
0.0
 13
195.9118553143589
 23
524.6060172314347
 33
0.0
  0
SOLID
  5
902
330
8F1
100
AcDbEntity
  8
用紙枠
 62
     0
100
AcDbTrace
 10
195.0785219810255
 20
356.4060172314348
 30
0.0
 11
196.7451886476921
 21
356.4060172314348
 31
0.0
 12
195.9118553143589
 22
351.4060172314348
 32
0.0
 13
195.9118553143589
 23
351.4060172314348
 33
0.0
  0
MTEXT
  5
903
330
8F1
100
AcDbEntity
  8
用紙枠
 62
     0
100
AcDbMText
 10
189.069085873704
 20
438.0060172314347
 30
0.0
 40
8.5
 41
0.0
 71
     5
 72
     1
  1
\A1;173
  7
Dimsmall
 11
0.0000000000000001
 21
1.0
 31
0.0
 73
     1
 44
1.0
1001
ACAD
1000
MTEXTBEGIN
1070
    73
1070
     1
1070
    44
1040
1.0
1070
    74
1070
     0
1000
MTEXTEND
  0
POINT
  5
904
330
8F1
100
AcDbEntity
  8
Defpoints
 62
     0
100
AcDbPoint
 10
244.4712166061207
 20
524.6060172314347
 30
0.0
  0
POINT
  5
905
330
8F1
100
AcDbEntity
  8
Defpoints
 62
     0
100
AcDbPoint
 10
244.4712166061208
 20
351.4060172314348
 30
0.0
  0
POINT
  5
906
330
8F1
100
AcDbEntity
  8
Defpoints
 62
     0
100
AcDbPoint
 10
195.9118553143589
 20
351.4060172314348
 30
0.0
  0
ENDBLK
  5
8F3
330
8F1
100
AcDbEntity
  8
0
100
AcDbBlockEnd
  0
BLOCK
  5
90A
330
909
100
AcDbEntity
  8
0
100
AcDbBlockBegin
  2
*D37
 70
     1
 10
0.0
 20
0.0
 30
0.0
  3
*D37
  1

  0
LINE
  5
917
330
909
100
AcDbEntity
  8
用紙枠
 62
     0
370
    -2
100
AcDbLine
 10
239.4712166061208
 20
356.4060172314348
 30
0.0
 11
207.9966365832703
 21
356.4060172314348
 31
0.0
  0
LINE
  5
918
330
909
100
AcDbEntity
  8
用紙枠
 62
     0
370
    -2
100
AcDbLine
 10
249.4712166061208
 20
361.4060172314347
 30
0.0
 11
207.9966365832703
 21
361.4060172314347
 31
0.0
  0
LINE
  5
919
330
909
100
AcDbEntity
  8
用紙枠
 62
     0
370
    -2
100
AcDbLine
 10
208.8966365832703
 20
351.4060172314348
 30
0.0
 11
208.8966365832703
 21
346.4060172314348
 31
0.0
  0
LINE
  5
91A
330
909
100
AcDbEntity
  8
用紙枠
 62
     0
370
    -2
100
AcDbLine
 10
208.8966365832703
 20
366.4060172314348
 30
0.0
 11
208.8966365832703
 21
382.0417607512165
 31
0.0
  0
SOLID
  5
91B
330
909
100
AcDbEntity
  8
用紙枠
 62
     0
100
AcDbTrace
 10
208.0633032499369
 20
351.4060172314348
 30
0.0
 11
209.7299699166036
 21
351.4060172314348
 31
0.0
 12
208.8966365832703
 22
356.4060172314348
 32
0.0
 13
208.8966365832703
 23
356.4060172314348
 33
0.0
  0
SOLID
  5
91C
330
909
100
AcDbEntity
  8
用紙枠
 62
     0
100
AcDbTrace
 10
208.0633032499369
 20
366.4060172314348
 30
0.0
 11
209.7299699166036
 21
366.4060172314348
 31
0.0
 12
208.8966365832703
 22
361.4060172314347
 32
0.0
 13
208.8966365832703
 23
361.4060172314347
 33
0.0
  0
MTEXT
  5
91D
330
909
100
AcDbEntity
  8
用紙枠
 62
     0
100
AcDbMText
 10
202.0741604577586
 20
376.7238889913258
 30
0.0
 40
8.5
 41
0.0
 71
     5
 72
     1
  1
\A1;5
  7
Dimsmall
 11
0.0000000000000001
 21
1.0
 31
0.0
 73
     1
 44
1.0
1001
ACAD
1000
MTEXTBEGIN
1070
    73
1070
     1
1070
    44
1040
1.0
1070
    74
1070
     0
1000
MTEXTEND
  0
POINT
  5
91E
330
909
100
AcDbEntity
  8
Defpoints
 62
     0
100
AcDbPoint
 10
244.4712166061208
 20
356.4060172314348
 30
0.0
  0
POINT
  5
91F
330
909
100
AcDbEntity
  8
Defpoints
 62
     0
100
AcDbPoint
 10
254.4712166061208
 20
361.4060172314347
 30
0.0
  0
POINT
  5
920
330
909
100
AcDbEntity
  8
Defpoints
 62
     0
100
AcDbPoint
 10
208.8966365832703
 20
361.4060172314347
 30
0.0
  0
ENDBLK
  5
90B
330
909
100
AcDbEntity
  8
0
100
AcDbBlockEnd
  0
BLOCK
  5
924
330
923
100
AcDbEntity
  8
0
100
AcDbBlockBegin
  2
*D38
 70
     1
 10
0.0
 20
0.0
 30
0.0
  3
*D38
  1

  0
LINE
  5
931
330
923
100
AcDbEntity
  8
用紙枠
 62
     0
370
    -2
100
AcDbLine
 10
239.4712166061208
 20
356.4060172314348
 30
0.0
 11
215.0291090651741
 21
356.4060172314348
 31
0.0
  0
LINE
  5
932
330
923
100
AcDbEntity
  8
用紙枠
 62
     0
370
    -2
100
AcDbLine
 10
249.4712166061208
 20
363.7260172314348
 30
0.0
 11
215.0291090651741
 21
363.7260172314348
 31
0.0
  0
LINE
  5
933
330
923
100
AcDbEntity
  8
用紙枠
 62
     0
370
    -2
100
AcDbLine
 10
215.9291090651741
 20
351.4060172314348
 30
0.0
 11
215.9291090651741
 21
346.4060172314348
 31
0.0
  0
LINE
  5
934
330
923
100
AcDbEntity
  8
用紙枠
 62
     0
370
    -2
100
AcDbLine
 10
215.9291090651741
 20
368.7260172314348
 30
0.0
 11
215.9291090651741
 21
384.2284046802752
 31
0.0
  0
SOLID
  5
935
330
923
100
AcDbEntity
  8
用紙枠
 62
     0
100
AcDbTrace
 10
215.0957757318407
 20
351.4060172314348
 30
0.0
 11
216.7624423985074
 21
351.4060172314348
 31
0.0
 12
215.9291090651741
 22
356.4060172314348
 32
0.0
 13
215.9291090651741
 23
356.4060172314348
 33
0.0
  0
SOLID
  5
936
330
923
100
AcDbEntity
  8
用紙枠
 62
     0
100
AcDbTrace
 10
215.0957757318407
 20
368.7260172314348
 30
0.0
 11
216.7624423985074
 21
368.7260172314348
 31
0.0
 12
215.9291090651741
 22
363.7260172314348
 32
0.0
 13
215.9291090651741
 23
363.7260172314348
 33
0.0
  0
MTEXT
  5
937
330
923
100
AcDbEntity
  8
用紙枠
 62
     0
100
AcDbMText
 10
209.179109065174
 20
378.9772109558551
 30
0.0
 40
8.5
 41
0.0
 71
     5
 72
     1
  1
\A1;7
  7
Dimsmall
 11
0.0000000000000001
 21
1.0
 31
0.0
 73
     1
 44
1.0
1001
ACAD
1000
MTEXTBEGIN
1070
    73
1070
     1
1070
    44
1040
1.0
1070
    74
1070
     0
1000
MTEXTEND
  0
POINT
  5
938
330
923
100
AcDbEntity
  8
Defpoints
 62
     0
100
AcDbPoint
 10
244.4712166061208
 20
356.4060172314348
 30
0.0
  0
POINT
  5
939
330
923
100
AcDbEntity
  8
Defpoints
 62
     0
100
AcDbPoint
 10
254.4712166061208
 20
363.7260172314348
 30
0.0
  0
POINT
  5
93A
330
923
100
AcDbEntity
  8
Defpoints
 62
     0
100
AcDbPoint
 10
215.9291090651741
 20
363.7260172314348
 30
0.0
  0
ENDBLK
  5
925
330
923
100
AcDbEntity
  8
0
100
AcDbBlockEnd
  0
BLOCK
  5
93E
330
93D
100
AcDbEntity
  8
0
100
AcDbBlockBegin
  2
*D39
 70
     1
 10
0.0
 20
0.0
 30
0.0
  3
*D39
  1

  0
LINE
  5
94A
330
93D
100
AcDbEntity
  8
用紙枠
 62
     0
370
    -2
100
AcDbLine
 10
249.4712166061208
 20
368.7260172314348
 30
0.0
 11
218.3968699199991
 21
368.7260172314348
 31
0.0
  0
LINE
  5
94B
330
93D
100
AcDbEntity
  8
用紙枠
 62
     0
370
    -2
100
AcDbLine
 10
239.4712166061208
 20
351.4060172314348
 30
0.0
 11
218.3968699199991
 21
351.4060172314348
 31
0.0
  0
LINE
  5
94C
330
93D
100
AcDbEntity
  8
用紙枠
 62
     0
370
    -2
100
AcDbLine
 10
219.2968699199992
 20
363.7260172314348
 30
0.0
 11
219.2968699199992
 21
356.4060172314348
 31
0.0
  0
SOLID
  5
94D
330
93D
100
AcDbEntity
  8
用紙枠
 62
     0
100
AcDbTrace
 10
218.4635365866658
 20
363.7260172314348
 30
0.0
 11
220.1302032533325
 21
363.7260172314348
 31
0.0
 12
219.2968699199992
 22
368.7260172314348
 32
0.0
 13
219.2968699199992
 23
368.7260172314348
 33
0.0
  0
SOLID
  5
94E
330
93D
100
AcDbEntity
  8
用紙枠
 62
     0
100
AcDbTrace
 10
218.4635365866658
 20
356.4060172314348
 30
0.0
 11
220.1302032533325
 21
356.4060172314348
 31
0.0
 12
219.2968699199992
 22
351.4060172314348
 32
0.0
 13
219.2968699199992
 23
351.4060172314348
 33
0.0
  0
MTEXT
  5
94F
330
93D
100
AcDbEntity
  8
用紙枠
 62
     0
100
AcDbMText
 10
212.5294756498763
 20
360.0660172314348
 30
0.0
 40
8.5
 41
0.0
 71
     5
 72
     1
  1
\A1;17
  7
Dimsmall
 11
0.0000000000000001
 21
1.0
 31
0.0
 73
     1
 44
1.0
1001
ACAD
1000
MTEXTBEGIN
1070
    73
1070
     1
1070
    44
1040
1.0
1070
    74
1070
     0
1000
MTEXTEND
  0
POINT
  5
950
330
93D
100
AcDbEntity
  8
Defpoints
 62
     0
100
AcDbPoint
 10
254.4712166061208
 20
368.7260172314348
 30
0.0
  0
POINT
  5
951
330
93D
100
AcDbEntity
  8
Defpoints
 62
     0
100
AcDbPoint
 10
244.4712166061208
 20
351.4060172314348
 30
0.0
  0
POINT
  5
952
330
93D
100
AcDbEntity
  8
Defpoints
 62
     0
100
AcDbPoint
 10
219.2968699199992
 20
351.4060172314348
 30
0.0
  0
ENDBLK
  5
93F
330
93D
100
AcDbEntity
  8
0
100
AcDbBlockEnd
  0
BLOCK
  5
956
330
955
100
AcDbEntity
  8
0
100
AcDbBlockBegin
  2
*D40
 70
     1
 10
0.0
 20
0.0
 30
0.0
  3
*D40
  1

  0
LINE
  5
963
330
955
100
AcDbEntity
  8
用紙枠
 62
     0
370
    -2
100
AcDbLine
 10
249.4712166061208
 20
368.7260172314348
 30
0.0
 11
230.5557264159739
 21
368.7260172314348
 31
0.0
  0
LINE
  5
964
330
955
100
AcDbEntity
  8
用紙枠
 62
     0
370
    -2
100
AcDbLine
 10
239.4712166061208
 20
381.4060172314348
 30
0.0
 11
230.5557264159739
 21
381.4060172314348
 31
0.0
  0
LINE
  5
965
330
955
100
AcDbEntity
  8
用紙枠
 62
     0
370
    -2
100
AcDbLine
 10
231.4557264159739
 20
363.7260172314348
 30
0.0
 11
231.4557264159739
 21
358.7260172314348
 31
0.0
  0
LINE
  5
966
330
955
100
AcDbEntity
  8
用紙枠
 62
     0
370
    -2
100
AcDbLine
 10
231.4557264159739
 20
386.4060172314347
 30
0.0
 11
231.4557264159739
 21
407.7818698917348
 31
0.0
  0
SOLID
  5
967
330
955
100
AcDbEntity
  8
用紙枠
 62
     0
100
AcDbTrace
 10
230.6223930826406
 20
363.7260172314348
 30
0.0
 11
232.2890597493072
 21
363.7260172314348
 31
0.0
 12
231.4557264159739
 22
368.7260172314348
 32
0.0
 13
231.4557264159739
 23
368.7260172314348
 33
0.0
  0
SOLID
  5
968
330
955
100
AcDbEntity
  8
用紙枠
 62
     0
100
AcDbTrace
 10
230.6223930826406
 20
386.4060172314347
 30
0.0
 11
232.2890597493072
 21
386.4060172314347
 31
0.0
 12
231.4557264159739
 22
381.4060172314348
 32
0.0
 13
231.4557264159739
 23
381.4060172314348
 33
0.0
  0
MTEXT
  5
969
330
955
100
AcDbEntity
  8
用紙枠
 62
     0
100
AcDbMText
 10
224.612956975319
 20
399.5939435615849
 30
0.0
 40
8.5
 41
0.0
 71
     5
 72
     1
  1
\A1;13
  7
Dimsmall
 11
0.0000000000000001
 21
1.0
 31
0.0
 73
     1
 44
1.0
1001
ACAD
1000
MTEXTBEGIN
1070
    73
1070
     1
1070
    44
1040
1.0
1070
    74
1070
     0
1000
MTEXTEND
  0
POINT
  5
96A
330
955
100
AcDbEntity
  8
Defpoints
 62
     0
100
AcDbPoint
 10
254.4712166061208
 20
368.7260172314348
 30
0.0
  0
POINT
  5
96B
330
955
100
AcDbEntity
  8
Defpoints
 62
     0
100
AcDbPoint
 10
244.4712166061208
 20
381.4060172314348
 30
0.0
  0
POINT
  5
96C
330
955
100
AcDbEntity
  8
Defpoints
 62
     0
100
AcDbPoint
 10
231.4557264159739
 20
381.4060172314348
 30
0.0
  0
ENDBLK
  5
957
330
955
100
AcDbEntity
  8
0
100
AcDbBlockEnd
  0
BLOCK
  5
979
330
978
100
AcDbEntity
  8
0
100
AcDbBlockBegin
  2
*D41
 70
     1
 10
0.0
 20
0.0
 30
0.0
  3
*D41
  1

  0
LINE
  5
985
330
978
100
AcDbEntity
  8
用紙枠
 62
     0
370
    -2
100
AcDbLine
 10
249.4712166061208
 20
507.2860172314348
 30
0.0
 11
227.4264220215333
 21
507.2860172314348
 31
0.0
  0
LINE
  5
986
330
978
100
AcDbEntity
  8
用紙枠
 62
     0
370
    -2
100
AcDbLine
 10
239.4712166061207
 20
524.6060172314347
 30
0.0
 11
227.4264220215333
 21
524.6060172314347
 31
0.0
  0
LINE
  5
987
330
978
100
AcDbEntity
  8
用紙枠
 62
     0
370
    -2
100
AcDbLine
 10
228.3264220215333
 20
512.2860172314346
 30
0.0
 11
228.3264220215333
 21
519.6060172314347
 31
0.0
  0
SOLID
  5
988
330
978
100
AcDbEntity
  8
用紙枠
 62
     0
100
AcDbTrace
 10
227.4930886882
 20
512.2860172314346
 30
0.0
 11
229.1597553548666
 21
512.2860172314346
 31
0.0
 12
228.3264220215333
 22
507.2860172314348
 32
0.0
 13
228.3264220215333
 23
507.2860172314348
 33
0.0
  0
SOLID
  5
989
330
978
100
AcDbEntity
  8
用紙枠
 62
     0
100
AcDbTrace
 10
227.4930886882
 20
519.6060172314347
 30
0.0
 11
229.1597553548666
 21
519.6060172314347
 31
0.0
 12
228.3264220215333
 22
524.6060172314347
 32
0.0
 13
228.3264220215333
 23
524.6060172314347
 33
0.0
  0
MTEXT
  5
98A
330
978
100
AcDbEntity
  8
用紙枠
 62
     0
100
AcDbMText
 10
221.5590277514104
 20
515.9460172314346
 30
0.0
 40
8.5
 41
0.0
 71
     5
 72
     1
  1
\A1;17
  7
Dimsmall
 11
0.0000000000000001
 21
1.0
 31
0.0
 73
     1
 44
1.0
1001
ACAD
1000
MTEXTBEGIN
1070
    73
1070
     1
1070
    44
1040
1.0
1070
    74
1070
     0
1000
MTEXTEND
  0
POINT
  5
98B
330
978
100
AcDbEntity
  8
Defpoints
 62
     0
100
AcDbPoint
 10
254.4712166061208
 20
507.2860172314348
 30
0.0
  0
POINT
  5
98C
330
978
100
AcDbEntity
  8
Defpoints
 62
     0
100
AcDbPoint
 10
244.4712166061207
 20
524.6060172314347
 30
0.0
  0
POINT
  5
98D
330
978
100
AcDbEntity
  8
Defpoints
 62
     0
100
AcDbPoint
 10
228.3264220215333
 20
524.6060172314347
 30
0.0
  0
ENDBLK
  5
97A
330
978
100
AcDbEntity
  8
0
100
AcDbBlockEnd
  0
BLOCK
  5
9E2
330
9E1
100
AcDbEntity
  8
0
100
AcDbBlockBegin
  2
_DotSmall
 70
     0
 10
0.0
 20
0.0
 30
0.0
  3
_DotSmall
  1

  0
LWPOLYLINE
  5
9E3
330
9E1
100
AcDbEntity
  8
0
  6
ByBlock
 62
     0
100
AcDbPolyline
 90
        2
 70
     1
 43
0.5
 10
-0.0625
 20
0.0
 42
1.0
 10
0.0625
 20
0.0
 42
1.0
  0
ENDBLK
  5
9E4
330
9E1
100
AcDbEntity
  8
0
100
AcDbBlockEnd
  0
BLOCK
  5
A26
330
A25
100
AcDbEntity
  8
0
100
AcDbBlockBegin
  2
*D43
 70
     1
 10
0.0
 20
0.0
 30
0.0
  3
*D43
  1

  0
LINE
  5
C5F
330
A25
100
AcDbEntity
  8
0
 62
     0
370
    -2
100
AcDbLine
 10
286.9623972666968
 20
764.4711826389847
 30
0.0
 11
286.9623972666968
 21
794.9284294646962
 31
0.0
  0
LINE
  5
C60
330
A25
100
AcDbEntity
  8
0
 62
     0
370
    -2
100
AcDbLine
 10
736.9623972666968
 20
764.4711826389847
 30
0.0
 11
736.9623972666968
 21
794.9284294646962
 31
0.0
  0
LINE
  5
C61
330
A25
100
AcDbEntity
  8
0
 62
     0
370
    -2
100
AcDbLine
 10
291.9623972666968
 20
794.0284294646962
 30
0.0
 11
731.9623972666968
 21
794.0284294646962
 31
0.0
  0
SOLID
  5
C62
330
A25
100
AcDbEntity
  8
0
 62
     0
100
AcDbTrace
 10
291.9623972666968
 20
794.8617627980296
 30
0.0
 11
291.9623972666968
 21
793.1950961313629
 31
0.0
 12
286.9623972666968
 22
794.0284294646962
 32
0.0
 13
286.9623972666968
 23
794.0284294646962
 33
0.0
  0
SOLID
  5
C63
330
A25
100
AcDbEntity
  8
0
 62
     0
100
AcDbTrace
 10
731.9623972666968
 20
794.8617627980296
 30
0.0
 11
731.9623972666968
 21
793.1950961313629
 31
0.0
 12
736.9623972666968
 22
794.0284294646962
 32
0.0
 13
736.9623972666968
 23
794.0284294646962
 33
0.0
  0
MTEXT
  5
C64
330
A25
100
AcDbEntity
  8
0
 62
     0
100
AcDbMText
 10
511.9623972666968
 20
800.8682998603308
 30
0.0
 40
8.5
 41
0.0
 71
     5
 72
     1
  1
\A1;450
  7
Dimsmall
 73
     1
 44
1.0
1001
ACAD
1000
MTEXTBEGIN
1070
    73
1070
     1
1070
    44
1040
1.0
1070
    74
1070
     0
1000
MTEXTEND
  0
POINT
  5
C65
330
A25
100
AcDbEntity
  8
Defpoints
 62
     0
100
AcDbPoint
 10
286.9623972666968
 20
759.4711826389847
 30
0.0
  0
POINT
  5
C66
330
A25
100
AcDbEntity
  8
Defpoints
 62
     0
100
AcDbPoint
 10
736.9623972666968
 20
759.4711826389847
 30
0.0
  0
POINT
  5
C67
330
A25
100
AcDbEntity
  8
Defpoints
 62
     0
100
AcDbPoint
 10
736.9623972666968
 20
794.0284294646962
 30
0.0
  0
ENDBLK
  5
A27
330
A25
100
AcDbEntity
  8
0
100
AcDbBlockEnd
  0
BLOCK
  5
A3E
330
A3D
100
AcDbEntity
  8
0
100
AcDbBlockBegin
  2
*D44
 70
     1
 10
0.0
 20
0.0
 30
0.0
  3
*D44
  1

  0
LINE
  5
E42
330
A3D
100
AcDbEntity
  8
0
 62
     0
370
    -2
100
AcDbLine
 10
286.9623972666968
 20
499.6083244330792
 30
0.0
 11
286.9623972666968
 21
565.7376375909705
 31
0.0
  0
LINE
  5
E43
330
A3D
100
AcDbEntity
  8
0
 62
     0
370
    -2
100
AcDbLine
 10
736.9623972666968
 20
499.6083244330792
 30
0.0
 11
736.9623972666968
 21
565.7376375909705
 31
0.0
  0
LINE
  5
E44
330
A3D
100
AcDbEntity
  8
0
 62
     0
370
    -2
100
AcDbLine
 10
291.9623972666968
 20
564.8376375909704
 30
0.0
 11
731.9623972666968
 21
564.8376375909704
 31
0.0
  0
SOLID
  5
E45
330
A3D
100
AcDbEntity
  8
0
 62
     0
100
AcDbTrace
 10
291.9623972666968
 20
565.6709709243038
 30
0.0
 11
291.9623972666968
 21
564.0043042576372
 31
0.0
 12
286.9623972666968
 22
564.8376375909704
 32
0.0
 13
286.9623972666968
 23
564.8376375909704
 33
0.0
  0
SOLID
  5
E46
330
A3D
100
AcDbEntity
  8
0
 62
     0
100
AcDbTrace
 10
731.9623972666968
 20
565.6709709243038
 30
0.0
 11
731.9623972666968
 21
564.0043042576372
 31
0.0
 12
736.9623972666968
 22
564.8376375909704
 32
0.0
 13
736.9623972666968
 23
564.8376375909704
 33
0.0
  0
MTEXT
  5
E47
330
A3D
100
AcDbEntity
  8
0
 62
     0
100
AcDbMText
 10
511.9623972666968
 20
571.6775079866049
 30
0.0
 40
8.5
 41
0.0
 71
     5
 72
     1
  1
\A1;450
  7
Dimsmall
 73
     1
 44
1.0
1001
ACAD
1000
MTEXTBEGIN
1070
    73
1070
     1
1070
    44
1040
1.0
1070
    74
1070
     0
1000
MTEXTEND
  0
POINT
  5
E48
330
A3D
100
AcDbEntity
  8
Defpoints
 62
     0
100
AcDbPoint
 10
286.9623972666968
 20
494.6083244330792
 30
0.0
  0
POINT
  5
E49
330
A3D
100
AcDbEntity
  8
Defpoints
 62
     0
100
AcDbPoint
 10
736.9623972666968
 20
494.6083244330792
 30
0.0
  0
POINT
  5
E4A
330
A3D
100
AcDbEntity
  8
Defpoints
 62
     0
100
AcDbPoint
 10
736.9623972666968
 20
564.8376375909704
 30
0.0
  0
ENDBLK
  5
A3F
330
A3D
100
AcDbEntity
  8
0
100
AcDbBlockEnd
  0
BLOCK
  5
A73
330
A72
100
AcDbEntity
  8
0
100
AcDbBlockBegin
  2
*D45
 70
     1
 10
0.0
 20
0.0
 30
0.0
  3
*D45
  1

  0
LINE
  5
C71
330
A72
100
AcDbEntity
  8
0
 62
     0
370
    -2
100
AcDbLine
 10
304.4623972666968
 20
254.6083244330794
 30
0.0
 11
304.4623972666968
 21
223.6199434289425
 31
0.0
  0
LINE
  5
C72
330
A72
100
AcDbEntity
  8
0
 62
     0
370
    -2
100
AcDbLine
 10
719.4623972666968
 20
254.6083244330794
 30
0.0
 11
719.4623972666968
 21
223.6199434289425
 31
0.0
  0
LINE
  5
C73
330
A72
100
AcDbEntity
  8
0
 62
     0
370
    -2
100
AcDbLine
 10
309.4623972666968
 20
224.5199434289425
 30
0.0
 11
714.4623972666968
 21
224.5199434289425
 31
0.0
  0
SOLID
  5
C74
330
A72
100
AcDbEntity
  8
0
 62
     0
100
AcDbTrace
 10
309.4623972666968
 20
225.3532767622759
 30
0.0
 11
309.4623972666968
 21
223.6866100956091
 31
0.0
 12
304.4623972666968
 22
224.5199434289425
 32
0.0
 13
304.4623972666968
 23
224.5199434289425
 33
0.0
  0
SOLID
  5
C75
330
A72
100
AcDbEntity
  8
0
 62
     0
100
AcDbTrace
 10
714.4623972666968
 20
225.3532767622759
 30
0.0
 11
714.4623972666968
 21
223.6866100956091
 31
0.0
 12
719.4623972666968
 22
224.5199434289425
 32
0.0
 13
719.4623972666968
 23
224.5199434289425
 33
0.0
  0
MTEXT
  5
C76
330
A72
100
AcDbEntity
  8
0
 62
     0
100
AcDbMText
 10
511.9623972666968
 20
231.3598138245769
 30
0.0
 40
8.5
 41
0.0
 71
     5
 72
     1
  1
\A1;415
  7
Dimsmall
 73
     1
 44
1.0
1001
ACAD
1000
MTEXTBEGIN
1070
    73
1070
     1
1070
    44
1040
1.0
1070
    74
1070
     0
1000
MTEXTEND
  0
POINT
  5
C77
330
A72
100
AcDbEntity
  8
Defpoints
 62
     0
100
AcDbPoint
 10
304.4623972666968
 20
259.6083244330793
 30
0.0
  0
POINT
  5
C78
330
A72
100
AcDbEntity
  8
Defpoints
 62
     0
100
AcDbPoint
 10
719.4623972666968
 20
259.6083244330793
 30
0.0
  0
POINT
  5
C79
330
A72
100
AcDbEntity
  8
Defpoints
 62
     0
100
AcDbPoint
 10
719.4623972666968
 20
224.5199434289425
 30
0.0
  0
ENDBLK
  5
A74
330
A72
100
AcDbEntity
  8
0
100
AcDbBlockEnd
  0
BLOCK
  5
A94
330
A93
100
AcDbEntity
  8
0
100
AcDbBlockBegin
  2
*D46
 70
     1
 10
0.0
 20
0.0
 30
0.0
  3
*D46
  1

  0
LINE
  5
C7A
330
A93
100
AcDbEntity
  8
0
 62
     0
370
    -2
100
AcDbLine
 10
281.9623972666968
 20
494.6083244330792
 30
0.0
 11
251.0468456326658
 21
494.6083244330792
 31
0.0
  0
LINE
  5
C7B
330
A93
100
AcDbEntity
  8
0
 62
     0
370
    -2
100
AcDbLine
 10
321.9624355645692
 20
452.8083244330793
 30
0.0
 11
251.0468456326658
 21
452.8083244330793
 31
0.0
  0
LINE
  5
C7C
330
A93
100
AcDbEntity
  8
0
 62
     0
370
    -2
100
AcDbLine
 10
251.9468456326658
 20
489.6083244330792
 30
0.0
 11
251.9468456326658
 21
457.8083244330793
 31
0.0
  0
SOLID
  5
C7D
330
A93
100
AcDbEntity
  8
0
 62
     0
100
AcDbTrace
 10
251.1135122993325
 20
489.6083244330792
 30
0.0
 11
252.7801789659992
 21
489.6083244330792
 31
0.0
 12
251.9468456326658
 22
494.6083244330792
 32
0.0
 13
251.9468456326658
 23
494.6083244330792
 33
0.0
  0
SOLID
  5
C7E
330
A93
100
AcDbEntity
  8
0
 62
     0
100
AcDbTrace
 10
251.1135122993325
 20
457.8083244330793
 30
0.0
 11
252.7801789659992
 21
457.8083244330793
 31
0.0
 12
251.9468456326658
 22
452.8083244330793
 32
0.0
 13
251.9468456326658
 23
452.8083244330793
 33
0.0
  0
MTEXT
  5
C7F
330
A93
100
AcDbEntity
  8
0
 62
     0
100
AcDbMText
 10
245.1069752370313
 20
473.7083244330793
 30
0.0
 40
8.5
 41
0.0
 71
     5
 72
     1
  1
\A1;41.8
  7
Dimsmall
 11
0.0000000000000001
 21
1.0
 31
0.0
 73
     1
 44
1.0
1001
ACAD
1000
MTEXTBEGIN
1070
    73
1070
     1
1070
    44
1040
1.0
1070
    74
1070
     0
1000
MTEXTEND
  0
POINT
  5
C80
330
A93
100
AcDbEntity
  8
Defpoints
 62
     0
100
AcDbPoint
 10
286.9623972666968
 20
494.6083244330792
 30
0.0
  0
POINT
  5
C81
330
A93
100
AcDbEntity
  8
Defpoints
 62
     0
100
AcDbPoint
 10
326.9624355645691
 20
452.8083244330793
 30
0.0
  0
POINT
  5
C82
330
A93
100
AcDbEntity
  8
Defpoints
 62
     0
100
AcDbPoint
 10
251.9468456326658
 20
452.8083244330793
 30
0.0
  0
ENDBLK
  5
A95
330
A93
100
AcDbEntity
  8
0
100
AcDbBlockEnd
  0
BLOCK
  5
AAC
330
AAB
100
AcDbEntity
  8
0
100
AcDbBlockBegin
  2
*D47
 70
     1
 10
0.0
 20
0.0
 30
0.0
  3
*D47
  1

  0
LINE
  5
AAE
330
AAB
100
AcDbEntity
  8
0
 62
     0
370
    -2
100
AcDbLine
 10
231.9426499266557
 20
528.2343196808218
 30
0.0
 11
231.9426499266557
 21
533.9012831122162
 31
0.0
  0
LINE
  5
AAF
330
AAB
100
AcDbEntity
  8
0
 62
     0
370
    -2
100
AcDbLine
 10
260.9582015606866
 20
528.2343196808218
 30
0.0
 11
260.9582015606866
 21
533.9012831122162
 31
0.0
  0
LINE
  5
AB0
330
AAB
100
AcDbEntity
  8
0
 62
     0
370
    -2
100
AcDbLine
 10
236.9426499266557
 20
533.0012831122162
 30
0.0
 11
255.9582015606866
 21
533.0012831122162
 31
0.0
  0
SOLID
  5
AB1
330
AAB
100
AcDbEntity
  8
0
 62
     0
100
AcDbTrace
 10
236.9426499266557
 20
533.8346164455495
 30
0.0
 11
236.9426499266557
 21
532.1679497788828
 31
0.0
 12
231.9426499266557
 22
533.0012831122162
 32
0.0
 13
231.9426499266557
 23
533.0012831122162
 33
0.0
  0
SOLID
  5
AB2
330
AAB
100
AcDbEntity
  8
0
 62
     0
100
AcDbTrace
 10
255.9582015606866
 20
533.8346164455495
 30
0.0
 11
255.9582015606866
 21
532.1679497788828
 31
0.0
 12
260.9582015606866
 22
533.0012831122162
 32
0.0
 13
260.9582015606866
 23
533.0012831122162
 33
0.0
  0
MTEXT
  5
AB3
330
AAB
100
AcDbEntity
  8
0
 62
     0
100
AcDbMText
 10
246.4504257436711
 20
539.8411535078508
 30
0.0
 40
8.5
 41
0.0
 71
     5
 72
     1
  1
\A1;29
  7
Dimsmall
 73
     1
 44
1.0
1001
ACAD
1000
MTEXTBEGIN
1070
    73
1070
     1
1070
    44
1040
1.0
1070
    74
1070
     0
1000
MTEXTEND
  0
POINT
  5
AB4
330
AAB
100
AcDbEntity
  8
Defpoints
 62
     0
100
AcDbPoint
 10
231.9426499266557
 20
523.2343196808218
 30
0.0
  0
POINT
  5
AB5
330
AAB
100
AcDbEntity
  8
Defpoints
 62
     0
100
AcDbPoint
 10
260.9582015606866
 20
523.2343196808218
 30
0.0
  0
POINT
  5
AB6
330
AAB
100
AcDbEntity
  8
Defpoints
 62
     0
100
AcDbPoint
 10
260.9582015606866
 20
533.0012831122162
 30
0.0
  0
ENDBLK
  5
AAD
330
AAB
100
AcDbEntity
  8
0
100
AcDbBlockEnd
  0
BLOCK
  5
AD4
330
AD3
100
AcDbEntity
  8
0
100
AcDbBlockBegin
  2
*D48
 70
     1
 10
0.0
 20
0.0
 30
0.0
  3
*D48
  1

  0
LINE
  5
C83
330
AD3
100
AcDbEntity
  8
0
 62
     0
370
    -2
100
AcDbLine
 10
321.9624355645692
 20
279.6083244330794
 30
0.0
 11
251.0468456326658
 21
279.6083244330794
 31
0.0
  0
LINE
  5
C84
330
AD3
100
AcDbEntity
  8
0
 62
     0
370
    -2
100
AcDbLine
 10
299.4623972666968
 20
259.6083244330793
 30
0.0
 11
251.0468456326658
 21
259.6083244330793
 31
0.0
  0
LINE
  5
C85
330
AD3
100
AcDbEntity
  8
0
 62
     0
370
    -2
100
AcDbLine
 10
251.9468456326658
 20
274.6083244330794
 30
0.0
 11
251.9468456326658
 21
264.6083244330794
 31
0.0
  0
SOLID
  5
C86
330
AD3
100
AcDbEntity
  8
0
 62
     0
100
AcDbTrace
 10
251.1135122993324
 20
274.6083244330794
 30
0.0
 11
252.7801789659991
 21
274.6083244330794
 31
0.0
 12
251.9468456326658
 22
279.6083244330794
 32
0.0
 13
251.9468456326658
 23
279.6083244330794
 33
0.0
  0
SOLID
  5
C87
330
AD3
100
AcDbEntity
  8
0
 62
     0
100
AcDbTrace
 10
251.1135122993324
 20
264.6083244330794
 30
0.0
 11
252.7801789659991
 21
264.6083244330794
 31
0.0
 12
251.9468456326658
 22
259.6083244330793
 32
0.0
 13
251.9468456326658
 23
259.6083244330793
 33
0.0
  0
MTEXT
  5
C88
330
AD3
100
AcDbEntity
  8
0
 62
     0
100
AcDbMText
 10
245.1069752370313
 20
269.6083244330794
 30
0.0
 40
8.5
 41
0.0
 71
     5
 72
     1
  1
\A1;20
  7
Dimsmall
 11
0.0000000000000001
 21
1.0
 31
0.0
 73
     1
 44
1.0
1001
ACAD
1000
MTEXTBEGIN
1070
    73
1070
     1
1070
    44
1040
1.0
1070
    74
1070
     0
1000
MTEXTEND
  0
POINT
  5
C89
330
AD3
100
AcDbEntity
  8
Defpoints
 62
     0
100
AcDbPoint
 10
326.9624355645691
 20
279.6083244330794
 30
0.0
  0
POINT
  5
C8A
330
AD3
100
AcDbEntity
  8
Defpoints
 62
     0
100
AcDbPoint
 10
304.4623972666968
 20
259.6083244330793
 30
0.0
  0
POINT
  5
C8B
330
AD3
100
AcDbEntity
  8
Defpoints
 62
     0
100
AcDbPoint
 10
251.9468456326658
 20
259.6083244330793
 30
0.0
  0
ENDBLK
  5
AD5
330
AD3
100
AcDbEntity
  8
0
100
AcDbBlockEnd
  0
BLOCK
  5
AEC
330
AEB
100
AcDbEntity
  8
0
100
AcDbBlockBegin
  2
*D49
 70
     1
 10
0.0
 20
0.0
 30
0.0
  3
*D49
  1

  0
LINE
  5
C8C
330
AEB
100
AcDbEntity
  8
0
 62
     0
370
    -2
100
AcDbLine
 10
321.9624355645692
 20
279.6083244330794
 30
0.0
 11
251.0468456326658
 21
279.6083244330794
 31
0.0
  0
LINE
  5
C8D
330
AEB
100
AcDbEntity
  8
0
 62
     0
370
    -2
100
AcDbLine
 10
321.9624355645692
 20
452.8083244330793
 30
0.0
 11
251.0468456326658
 21
452.8083244330793
 31
0.0
  0
LINE
  5
C8E
330
AEB
100
AcDbEntity
  8
0
 62
     0
370
    -2
100
AcDbLine
 10
251.9468456326658
 20
284.6083244330793
 30
0.0
 11
251.9468456326658
 21
447.8083244330792
 31
0.0
  0
SOLID
  5
C8F
330
AEB
100
AcDbEntity
  8
0
 62
     0
100
AcDbTrace
 10
251.1135122993324
 20
284.6083244330793
 30
0.0
 11
252.7801789659991
 21
284.6083244330793
 31
0.0
 12
251.9468456326658
 22
279.6083244330794
 32
0.0
 13
251.9468456326658
 23
279.6083244330794
 33
0.0
  0
SOLID
  5
C90
330
AEB
100
AcDbEntity
  8
0
 62
     0
100
AcDbTrace
 10
251.1135122993325
 20
447.8083244330792
 30
0.0
 11
252.7801789659991
 21
447.8083244330792
 31
0.0
 12
251.9468456326658
 22
452.8083244330793
 32
0.0
 13
251.9468456326658
 23
452.8083244330793
 33
0.0
  0
MTEXT
  5
C91
330
AEB
100
AcDbEntity
  8
0
 62
     0
100
AcDbMText
 10
245.1040761920109
 20
366.2083244330796
 30
0.0
 40
8.5
 41
0.0
 71
     5
 72
     1
  1
\A1;173.2
  7
Dimsmall
 11
0.0000000000000001
 21
1.0
 31
0.0
 73
     1
 44
1.0
1001
ACAD
1000
MTEXTBEGIN
1070
    73
1070
     1
1070
    44
1040
1.0
1070
    74
1070
     0
1000
MTEXTEND
  0
POINT
  5
C92
330
AEB
100
AcDbEntity
  8
Defpoints
 62
     0
100
AcDbPoint
 10
326.9624355645691
 20
279.6083244330794
 30
0.0
  0
POINT
  5
C93
330
AEB
100
AcDbEntity
  8
Defpoints
 62
     0
100
AcDbPoint
 10
326.9624355645691
 20
452.8083244330793
 30
0.0
  0
POINT
  5
C94
330
AEB
100
AcDbEntity
  8
Defpoints
 62
     0
100
AcDbPoint
 10
251.9468456326658
 20
452.8083244330793
 30
0.0
  0
ENDBLK
  5
AED
330
AEB
100
AcDbEntity
  8
0
100
AcDbBlockEnd
  0
BLOCK
  5
B02
330
B01
100
AcDbEntity
  8
0
100
AcDbBlockBegin
  2
*D50
 70
     1
 10
0.0
 20
0.0
 30
0.0
  3
*D50
  1

  0
LINE
  5
E1E
330
B01
100
AcDbEntity
  8
0
 62
     0
370
    -2
100
AcDbLine
 10
286.9623972666968
 20
499.6083244330792
 30
0.0
 11
286.9623972666968
 21
530.1530458142076
 31
0.0
  0
LINE
  5
E1F
330
B01
100
AcDbEntity
  8
0
 62
     0
370
    -2
100
AcDbLine
 10
386.9623972666969
 20
489.6083244330792
 30
0.0
 11
386.9623972666969
 21
530.1530458142076
 31
0.0
  0
LINE
  5
E20
330
B01
100
AcDbEntity
  8
0
 62
     0
370
    -2
100
AcDbLine
 10
291.9623972666968
 20
529.2530458142076
 30
0.0
 11
381.9623972666968
 21
529.2530458142076
 31
0.0
  0
SOLID
  5
E21
330
B01
100
AcDbEntity
  8
0
 62
     0
100
AcDbTrace
 10
291.9623972666968
 20
530.086379147541
 30
0.0
 11
291.9623972666968
 21
528.4197124808742
 31
0.0
 12
286.9623972666968
 22
529.2530458142076
 32
0.0
 13
286.9623972666968
 23
529.2530458142076
 33
0.0
  0
SOLID
  5
E22
330
B01
100
AcDbEntity
  8
0
 62
     0
100
AcDbTrace
 10
381.9623972666968
 20
530.086379147541
 30
0.0
 11
381.9623972666968
 21
528.4197124808742
 31
0.0
 12
386.9623972666969
 22
529.2530458142076
 32
0.0
 13
386.9623972666969
 23
529.2530458142076
 33
0.0
  0
MTEXT
  5
E23
330
B01
100
AcDbEntity
  8
0
 62
     0
100
AcDbMText
 10
336.9623972666968
 20
536.0929162098421
 30
0.0
 40
8.5
 41
0.0
 71
     5
 72
     1
  1
\A1;100
  7
Dimsmall
 73
     1
 44
1.0
1001
ACAD
1000
MTEXTBEGIN
1070
    73
1070
     1
1070
    44
1040
1.0
1070
    74
1070
     0
1000
MTEXTEND
  0
POINT
  5
E24
330
B01
100
AcDbEntity
  8
Defpoints
 62
     0
100
AcDbPoint
 10
286.9623972666968
 20
494.6083244330792
 30
0.0
  0
POINT
  5
E25
330
B01
100
AcDbEntity
  8
Defpoints
 62
     0
100
AcDbPoint
 10
386.9623972666969
 20
484.6083244330793
 30
0.0
  0
POINT
  5
E26
330
B01
100
AcDbEntity
  8
Defpoints
 62
     0
100
AcDbPoint
 10
386.9623972666969
 20
529.2530458142076
 30
0.0
  0
ENDBLK
  5
B03
330
B01
100
AcDbEntity
  8
0
100
AcDbBlockEnd
  0
BLOCK
  5
B1A
330
B19
100
AcDbEntity
  8
0
100
AcDbBlockBegin
  2
*D51
 70
     1
 10
0.0
 20
0.0
 30
0.0
  3
*D51
  1

  0
LINE
  5
E4B
330
B19
100
AcDbEntity
  8
0
 62
     0
370
    -2
100
AcDbLine
 10
386.9623972666969
 20
489.6083244330792
 30
0.0
 11
386.9623972666969
 21
530.1530458142076
 31
0.0
  0
LINE
  5
E4C
330
B19
100
AcDbEntity
  8
0
 62
     0
370
    -2
100
AcDbLine
 10
636.9623972666968
 20
489.6083244330792
 30
0.0
 11
636.9623972666968
 21
530.1530458142076
 31
0.0
  0
LINE
  5
E4D
330
B19
100
AcDbEntity
  8
0
 62
     0
370
    -2
100
AcDbLine
 10
391.9623972666968
 20
529.2530458142076
 30
0.0
 11
631.9623972666968
 21
529.2530458142076
 31
0.0
  0
SOLID
  5
E4E
330
B19
100
AcDbEntity
  8
0
 62
     0
100
AcDbTrace
 10
391.9623972666968
 20
530.086379147541
 30
0.0
 11
391.9623972666968
 21
528.4197124808742
 31
0.0
 12
386.9623972666969
 22
529.2530458142076
 32
0.0
 13
386.9623972666969
 23
529.2530458142076
 33
0.0
  0
SOLID
  5
E4F
330
B19
100
AcDbEntity
  8
0
 62
     0
100
AcDbTrace
 10
631.9623972666968
 20
530.086379147541
 30
0.0
 11
631.9623972666968
 21
528.4197124808742
 31
0.0
 12
636.9623972666968
 22
529.2530458142076
 32
0.0
 13
636.9623972666968
 23
529.2530458142076
 33
0.0
  0
MTEXT
  5
E50
330
B19
100
AcDbEntity
  8
0
 62
     0
100
AcDbMText
 10
511.9623972666968
 20
536.0929162098421
 30
0.0
 40
8.5
 41
0.0
 71
     5
 72
     1
  1
\A1;250
  7
Dimsmall
 73
     1
 44
1.0
1001
ACAD
1000
MTEXTBEGIN
1070
    73
1070
     1
1070
    44
1040
1.0
1070
    74
1070
     0
1000
MTEXTEND
  0
POINT
  5
E51
330
B19
100
AcDbEntity
  8
Defpoints
 62
     0
100
AcDbPoint
 10
386.9623972666969
 20
484.6083244330793
 30
0.0
  0
POINT
  5
E52
330
B19
100
AcDbEntity
  8
Defpoints
 62
     0
100
AcDbPoint
 10
636.9623972666968
 20
484.6083244330793
 30
0.0
  0
POINT
  5
E53
330
B19
100
AcDbEntity
  8
Defpoints
 62
     0
100
AcDbPoint
 10
636.9623972666968
 20
529.2530458142076
 30
0.0
  0
ENDBLK
  5
B1B
330
B19
100
AcDbEntity
  8
0
100
AcDbBlockEnd
  0
BLOCK
  5
B32
330
B31
100
AcDbEntity
  8
0
100
AcDbBlockBegin
  2
*D52
 70
     1
 10
0.0
 20
0.0
 30
0.0
  3
*D52
  1

  0
LINE
  5
E54
330
B31
100
AcDbEntity
  8
0
 62
     0
370
    -2
100
AcDbLine
 10
636.9623972666968
 20
489.6083244330792
 30
0.0
 11
636.9623972666968
 21
530.1530458142076
 31
0.0
  0
LINE
  5
E55
330
B31
100
AcDbEntity
  8
0
 62
     0
370
    -2
100
AcDbLine
 10
736.9623972666968
 20
499.6083244330792
 30
0.0
 11
736.9623972666968
 21
530.1530458142076
 31
0.0
  0
LINE
  5
E56
330
B31
100
AcDbEntity
  8
0
 62
     0
370
    -2
100
AcDbLine
 10
641.9623972666968
 20
529.2530458142076
 30
0.0
 11
731.9623972666968
 21
529.2530458142076
 31
0.0
  0
SOLID
  5
E57
330
B31
100
AcDbEntity
  8
0
 62
     0
100
AcDbTrace
 10
641.9623972666968
 20
530.086379147541
 30
0.0
 11
641.9623972666968
 21
528.4197124808742
 31
0.0
 12
636.9623972666968
 22
529.2530458142076
 32
0.0
 13
636.9623972666968
 23
529.2530458142076
 33
0.0
  0
SOLID
  5
E58
330
B31
100
AcDbEntity
  8
0
 62
     0
100
AcDbTrace
 10
731.9623972666968
 20
530.086379147541
 30
0.0
 11
731.9623972666968
 21
528.4197124808742
 31
0.0
 12
736.9623972666968
 22
529.2530458142076
 32
0.0
 13
736.9623972666968
 23
529.2530458142076
 33
0.0
  0
MTEXT
  5
E59
330
B31
100
AcDbEntity
  8
0
 62
     0
100
AcDbMText
 10
686.9623972666968
 20
536.0929162098421
 30
0.0
 40
8.5
 41
0.0
 71
     5
 72
     1
  1
\A1;100
  7
Dimsmall
 73
     1
 44
1.0
1001
ACAD
1000
MTEXTBEGIN
1070
    73
1070
     1
1070
    44
1040
1.0
1070
    74
1070
     0
1000
MTEXTEND
  0
POINT
  5
E5A
330
B31
100
AcDbEntity
  8
Defpoints
 62
     0
100
AcDbPoint
 10
636.9623972666968
 20
484.6083244330793
 30
0.0
  0
POINT
  5
E5B
330
B31
100
AcDbEntity
  8
Defpoints
 62
     0
100
AcDbPoint
 10
736.9623972666968
 20
494.6083244330792
 30
0.0
  0
POINT
  5
E5C
330
B31
100
AcDbEntity
  8
Defpoints
 62
     0
100
AcDbPoint
 10
736.9623972666968
 20
529.2530458142076
 30
0.0
  0
ENDBLK
  5
B33
330
B31
100
AcDbEntity
  8
0
100
AcDbBlockEnd
  0
BLOCK
  5
B51
330
B50
100
AcDbEntity
  8
0
100
AcDbBlockBegin
  2
*D53
 70
     1
 10
0.0
 20
0.0
 30
0.0
  3
*D53
  1

  0
LINE
  5
B5E
330
B50
100
AcDbEntity
  8
0
 62
     0
370
    -2
100
AcDbLine
 10
635.9582398585587
 20
486.434319680822
 30
0.0
 11
635.9582398585587
 21
500.1803506152984
 31
0.0
  0
LINE
  5
B5F
330
B50
100
AcDbEntity
  8
0
 62
     0
370
    -2
100
AcDbLine
 10
645.9582398585587
 20
486.434319680822
 30
0.0
 11
645.9582398585587
 21
500.1803506152984
 31
0.0
  0
LINE
  5
B60
330
B50
100
AcDbEntity
  8
0
 62
     0
370
    -2
100
AcDbLine
 10
630.9582398585591
 20
499.2803506152986
 30
0.0
 11
625.9582398585587
 21
499.2803506152986
 31
0.0
  0
LINE
  5
B61
330
B50
100
AcDbEntity
  8
0
 62
     0
370
    -2
100
AcDbLine
 10
650.9582398585587
 20
499.2803506152986
 30
0.0
 11
672.3051020686543
 21
499.2803506152986
 31
0.0
  0
SOLID
  5
B62
330
B50
100
AcDbEntity
  8
0
 62
     0
100
AcDbTrace
 10
630.9582398585591
 20
500.1136839486319
 30
0.0
 11
630.9582398585591
 21
498.4470172819653
 31
0.0
 12
635.9582398585587
 22
499.2803506152986
 32
0.0
 13
635.9582398585587
 23
499.2803506152986
 33
0.0
  0
SOLID
  5
B63
330
B50
100
AcDbEntity
  8
0
 62
     0
100
AcDbTrace
 10
650.9582398585587
 20
500.1136839486319
 30
0.0
 11
650.9582398585587
 21
498.4470172819653
 31
0.0
 12
645.9582398585587
 22
499.2803506152986
 32
0.0
 13
645.9582398585587
 23
499.2803506152986
 33
0.0
  0
MTEXT
  5
B64
330
B50
100
AcDbEntity
  8
0
 62
     0
100
AcDbMText
 10
664.1316709636067
 20
506.1202210109327
 30
0.0
 40
8.5
 41
0.0
 71
     5
 72
     1
  1
\A1;10
  7
Dimsmall
 73
     1
 44
1.0
1001
ACAD
1000
MTEXTBEGIN
1070
    73
1070
     1
1070
    44
1040
1.0
1070
    74
1070
     0
1000
MTEXTEND
  0
POINT
  5
B65
330
B50
100
AcDbEntity
  8
Defpoints
 62
     0
100
AcDbPoint
 10
635.9582398585587
 20
481.434319680822
 30
0.0
  0
POINT
  5
B66
330
B50
100
AcDbEntity
  8
Defpoints
 62
     0
100
AcDbPoint
 10
645.9582398585587
 20
481.434319680822
 30
0.0
  0
POINT
  5
B67
330
B50
100
AcDbEntity
  8
Defpoints
 62
     0
100
AcDbPoint
 10
645.9582398585587
 20
499.2803506152986
 30
0.0
  0
ENDBLK
  5
B52
330
B50
100
AcDbEntity
  8
0
100
AcDbBlockEnd
  0
BLOCK
  5
B6C
330
B6B
100
AcDbEntity
  8
0
100
AcDbBlockBegin
  2
*D54
 70
     1
 10
0.0
 20
0.0
 30
0.0
  3
*D54
  1

  0
LINE
  5
CB0
330
B6B
100
AcDbEntity
  8
0
 62
     0
370
    -2
100
AcDbLine
 10
733.3573878155922
 20
452.8083244330793
 30
0.0
 11
701.962435564569
 21
452.8083244330793
 31
0.0
  0
MTEXT
  5
CB1
102
{ACAD_XDICTIONARY
360
F4E
102
}
330
B6B
100
AcDbEntity
  8
0
 62
     0
100
AcDbMText
 10
720.1599116900808
 20
459.8859165203918
 30
0.0
 40
8.5
 41
0.0
 71
     5
 72
     1
  1
\A1;\U+220510
  7
Dimsmall
 73
     1
 44
1.0
1001
ACAD
1000
MTEXTBEGIN
1070
    73
1070
     1
1070
    44
1040
1.0
1070
    74
1070
     0
1000
MTEXTEND
  0
SOLID
  5
CB2
330
B6B
100
AcDbEntity
  8
0
 62
     0
100
AcDbTrace
 10
701.962435564569
 20
453.6416577664126
 30
0.0
 11
701.962435564569
 21
451.974991099746
 31
0.0
 12
696.9624355645692
 22
452.8083244330793
 32
0.0
 13
696.9624355645692
 23
452.8083244330793
 33
0.0
  0
POINT
  5
CB3
330
B6B
100
AcDbEntity
  8
Defpoints
 62
     0
100
AcDbPoint
 10
696.9624355645692
 20
452.8083244330793
 30
0.0
  0
POINT
  5
CB4
330
B6B
100
AcDbEntity
  8
Defpoints
 62
     0
100
AcDbPoint
 10
706.9624355645692
 20
452.8083244330793
 30
0.0
  0
ENDBLK
  5
B6D
330
B6B
100
AcDbEntity
  8
0
100
AcDbBlockEnd
  0
BLOCK
  5
B7D
330
B7C
100
AcDbEntity
  8
0
100
AcDbBlockBegin
  2
*D55
 70
     1
 10
0.0
 20
0.0
 30
0.0
  3
*D55
  1

  0
LINE
  5
B90
330
B7C
100
AcDbEntity
  8
0
 62
     0
370
    -2
100
AcDbLine
 10
-487.451520646134
 20
662.780714305612
 30
0.0
 11
-430.0688820344094
 21
662.780714305612
 31
0.0
  0
MTEXT
  5
B91
102
{ACAD_XDICTIONARY
360
F4C
102
}
330
B7C
100
AcDbEntity
  8
0
 62
     0
100
AcDbMText
 10
-471.757966758003
 20
669.8583063929243
 30
0.0
 40
8.5
 41
0.0
 71
     5
 72
     1
  1
\A1;\U+2205531
  7
Dimsmall
 73
     1
 44
1.0
1001
ACAD
1000
MTEXTBEGIN
1070
    73
1070
     1
1070
    44
1040
1.0
1070
    74
1070
     0
1000
MTEXTEND
  0
SOLID
  5
B92
330
B7C
100
AcDbEntity
  8
0
 62
     0
100
AcDbTrace
 10
-430.0688820344094
 20
663.6140476389454
 30
0.0
 11
-430.0688820344094
 21
661.9473809722785
 31
0.0
 12
-425.0688820344094
 22
662.780714305612
 32
0.0
 13
-425.0688820344094
 23
662.780714305612
 33
0.0
  0
POINT
  5
B93
330
B7C
100
AcDbEntity
  8
Defpoints
 62
     0
100
AcDbPoint
 10
-425.0688820344094
 20
662.780714305612
 30
0.0
  0
POINT
  5
B94
330
B7C
100
AcDbEntity
  8
Defpoints
 62
     0
100
AcDbPoint
 10
-956.4438129819246
 20
662.780714305612
 30
0.0
  0
ENDBLK
  5
B7E
330
B7C
100
AcDbEntity
  8
0
100
AcDbBlockEnd
  0
BLOCK
  5
B97
330
B96
100
AcDbEntity
  8
0
100
AcDbBlockBegin
  2
*D56
 70
     1
 10
0.0
 20
0.0
 30
0.0
  3
*D56
  1

  0
LINE
  5
CB5
330
B96
100
AcDbEntity
  8
0
 62
     0
370
    -2
100
AcDbLine
 10
661.9624355645692
 20
452.8083244330793
 30
0.0
 11
661.9624355645692
 21
476.5574079519203
 31
0.0
  0
LINE
  5
CB6
330
B96
100
AcDbEntity
  8
0
 62
     0
370
    -2
100
AcDbLine
 10
681.9624355645692
 20
452.8083244330793
 30
0.0
 11
681.9624355645692
 21
476.5574079519203
 31
0.0
  0
LINE
  5
CB7
330
B96
100
AcDbEntity
  8
0
 62
     0
370
    -2
100
AcDbLine
 10
666.9624355645692
 20
475.6574079519204
 30
0.0
 11
676.962435564569
 21
475.6574079519204
 31
0.0
  0
SOLID
  5
CB8
330
B96
100
AcDbEntity
  8
0
 62
     0
100
AcDbTrace
 10
666.9624355645692
 20
476.4907412852537
 30
0.0
 11
666.9624355645692
 21
474.8240746185872
 31
0.0
 12
661.9624355645692
 22
475.6574079519204
 32
0.0
 13
661.9624355645692
 23
475.6574079519204
 33
0.0
  0
SOLID
  5
CB9
330
B96
100
AcDbEntity
  8
0
 62
     0
100
AcDbTrace
 10
676.962435564569
 20
476.4907412852537
 30
0.0
 11
676.962435564569
 21
474.8240746185872
 31
0.0
 12
681.9624355645692
 22
475.6574079519204
 32
0.0
 13
681.9624355645692
 23
475.6574079519204
 33
0.0
  0
MTEXT
  5
CBA
330
B96
100
AcDbEntity
  8
0
 62
     0
100
AcDbMText
 10
671.9624355645692
 20
482.4972783475549
 30
0.0
 40
8.5
 41
0.0
 71
     5
 72
     1
  1
\A1;20
  7
Dimsmall
 73
     1
 44
1.0
1001
ACAD
1000
MTEXTBEGIN
1070
    73
1070
     1
1070
    44
1040
1.0
1070
    74
1070
     0
1000
MTEXTEND
  0
POINT
  5
CBB
330
B96
100
AcDbEntity
  8
Defpoints
 62
     0
100
AcDbPoint
 10
661.9624355645692
 20
447.8083244330792
 30
0.0
  0
POINT
  5
CBC
330
B96
100
AcDbEntity
  8
Defpoints
 62
     0
100
AcDbPoint
 10
681.9624355645692
 20
447.8083244330792
 30
0.0
  0
POINT
  5
CBD
330
B96
100
AcDbEntity
  8
Defpoints
 62
     0
100
AcDbPoint
 10
681.9624355645692
 20
475.6574079519204
 30
0.0
  0
ENDBLK
  5
B98
330
B96
100
AcDbEntity
  8
0
100
AcDbBlockEnd
  0
BLOCK
  5
BEE
330
BED
100
AcDbEntity
  8
0
100
AcDbBlockBegin
  2
*D57
 70
     1
 10
0.0
 20
0.0
 30
0.0
  3
*D57
  1

  0
LINE
  5
CBE
330
BED
100
AcDbEntity
  8
0
 62
     0
370
    -2
100
AcDbLine
 10
419.3460944017582
 20
484.6083244330793
 30
0.0
 11
394.4623972666968
 21
484.6083244330793
 31
0.0
  0
MTEXT
  5
CBF
102
{ACAD_XDICTIONARY
360
F50
102
}
330
BED
100
AcDbEntity
  8
0
 62
     0
100
AcDbMText
 10
409.4042458342275
 20
491.6859165203915
 30
0.0
 40
8.5
 41
0.0
 71
     5
 72
     1
  1
\A1;\U+22055
  7
Dimsmall
 73
     1
 44
1.0
1001
ACAD
1000
MTEXTBEGIN
1070
    73
1070
     1
1070
    44
1040
1.0
1070
    74
1070
     0
1000
MTEXTEND
  0
SOLID
  5
CC0
330
BED
100
AcDbEntity
  8
0
 62
     0
100
AcDbTrace
 10
394.4623972666968
 20
485.4416577664126
 30
0.0
 11
394.4623972666968
 21
483.774991099746
 31
0.0
 12
389.4623972666968
 22
484.6083244330793
 32
0.0
 13
389.4623972666968
 23
484.6083244330793
 33
0.0
  0
LINE
  5
CC1
330
BED
100
AcDbEntity
  8
0
 62
     0
370
    -2
100
AcDbLine
 10
386.5123972666968
 20
484.6083244330793
 30
0.0
 11
387.4123972666968
 21
484.6083244330793
 31
0.0
  0
LINE
  5
CC2
330
BED
100
AcDbEntity
  8
0
 62
     0
370
    -2
100
AcDbLine
 10
386.9623972666969
 20
484.1583244330792
 30
0.0
 11
386.9623972666969
 21
485.0583244330793
 31
0.0
  0
POINT
  5
CC3
330
BED
100
AcDbEntity
  8
Defpoints
 62
     0
100
AcDbPoint
 10
389.4623972666968
 20
484.6083244330793
 30
0.0
  0
POINT
  5
CC4
330
BED
100
AcDbEntity
  8
Defpoints
 62
     0
100
AcDbPoint
 10
384.4623972666968
 20
484.6083244330793
 30
0.0
  0
ENDBLK
  5
BEF
330
BED
100
AcDbEntity
  8
0
100
AcDbBlockEnd
  0
BLOCK
  5
C04
330
C03
100
AcDbEntity
  8
0
100
AcDbBlockBegin
  2
*D58
 70
     1
 10
0.0
 20
0.0
 30
0.0
  3
*D58
  1

  0
LINE
  5
CCF
330
C03
100
AcDbEntity
  8
0
 62
     0
370
    -2
100
AcDbLine
 10
631.9623972666968
 20
484.6083244330793
 30
0.0
 11
592.6538125224038
 21
484.6083244330793
 31
0.0
  0
LINE
  5
CD0
330
C03
100
AcDbEntity
  8
0
 62
     0
370
    -2
100
AcDbLine
 10
610.9582015606863
 20
494.6083244330792
 30
0.0
 11
592.6538125224038
 21
494.6083244330792
 31
0.0
  0
LINE
  5
CD1
330
C03
100
AcDbEntity
  8
0
 62
     0
370
    -2
100
AcDbLine
 10
593.553812522404
 20
499.6083244330793
 30
0.0
 11
593.553812522404
 21
504.6083244330794
 31
0.0
  0
LINE
  5
CD2
330
C03
100
AcDbEntity
  8
0
 62
     0
370
    -2
100
AcDbLine
 10
593.553812522404
 20
479.6083244330794
 30
0.0
 11
593.553812522404
 21
458.2614622229836
 31
0.0
  0
SOLID
  5
CD3
330
C03
100
AcDbEntity
  8
0
 62
     0
100
AcDbTrace
 10
592.7204791890706
 20
499.6083244330793
 30
0.0
 11
594.3871458557372
 21
499.6083244330793
 31
0.0
 12
593.553812522404
 22
494.6083244330792
 32
0.0
 13
593.553812522404
 23
494.6083244330792
 33
0.0
  0
SOLID
  5
CD4
330
C03
100
AcDbEntity
  8
0
 62
     0
100
AcDbTrace
 10
592.7204791890706
 20
479.6083244330794
 30
0.0
 11
594.3871458557372
 21
479.6083244330794
 31
0.0
 12
593.553812522404
 22
484.6083244330793
 32
0.0
 13
593.553812522404
 23
484.6083244330793
 33
0.0
  0
MTEXT
  5
CD5
330
C03
100
AcDbEntity
  8
0
 62
     0
100
AcDbMText
 10
586.7139421267694
 20
466.4348933280314
 30
0.0
 40
8.5
 41
0.0
 71
     5
 72
     1
  1
\A1;10
  7
Dimsmall
 11
0.0000000000000001
 21
1.0
 31
0.0
 73
     1
 44
1.0
1001
ACAD
1000
MTEXTBEGIN
1070
    73
1070
     1
1070
    44
1040
1.0
1070
    74
1070
     0
1000
MTEXTEND
  0
POINT
  5
CD6
330
C03
100
AcDbEntity
  8
Defpoints
 62
     0
100
AcDbPoint
 10
636.9623972666968
 20
484.6083244330793
 30
0.0
  0
POINT
  5
CD7
330
C03
100
AcDbEntity
  8
Defpoints
 62
     0
100
AcDbPoint
 10
615.9582015606863
 20
494.6083244330792
 30
0.0
  0
POINT
  5
CD8
330
C03
100
AcDbEntity
  8
Defpoints
 62
     0
100
AcDbPoint
 10
593.553812522404
 20
494.6083244330792
 30
0.0
  0
ENDBLK
  5
C05
330
C03
100
AcDbEntity
  8
0
100
AcDbBlockEnd
  0
BLOCK
  5
CDB
330
CDA
100
AcDbEntity
  8
0
100
AcDbBlockBegin
  2
*D59
 70
     1
 10
0.0
 20
0.0
 30
0.0
  3
*D59
  1

  0
LINE
  5
E75
330
CDA
100
AcDbEntity
  8
0
 62
     0
370
    -2
100
AcDbLine
 10
281.9623972666968
 20
759.4711826389847
 30
0.0
 11
250.8018695337229
 21
759.4711826389848
 31
0.0
  0
LINE
  5
E76
330
CDA
100
AcDbEntity
  8
0
 62
     0
370
    -2
100
AcDbLine
 10
281.9623972666968
 20
674.4711826389846
 30
0.0
 11
250.8018695337229
 21
674.4711826389846
 31
0.0
  0
LINE
  5
E77
330
CDA
100
AcDbEntity
  8
0
 62
     0
370
    -2
100
AcDbLine
 10
251.7018695337229
 20
754.4711826389848
 30
0.0
 11
251.7018695337229
 21
679.4711826389847
 31
0.0
  0
SOLID
  5
E78
330
CDA
100
AcDbEntity
  8
0
 62
     0
100
AcDbTrace
 10
250.8685362003896
 20
754.4711826389848
 30
0.0
 11
252.5352028670563
 21
754.4711826389848
 31
0.0
 12
251.7018695337229
 22
759.4711826389848
 32
0.0
 13
251.7018695337229
 23
759.4711826389848
 33
0.0
  0
SOLID
  5
E79
330
CDA
100
AcDbEntity
  8
0
 62
     0
100
AcDbTrace
 10
250.8685362003896
 20
679.4711826389847
 30
0.0
 11
252.5352028670563
 21
679.4711826389847
 31
0.0
 12
251.7018695337229
 22
674.4711826389846
 32
0.0
 13
251.7018695337229
 23
674.4711826389846
 33
0.0
  0
MTEXT
  5
E7A
330
CDA
100
AcDbEntity
  8
0
 62
     0
100
AcDbMText
 10
244.8619991380884
 20
716.9711826389848
 30
0.0
 40
8.5
 41
0.0
 71
     5
 72
     1
  1
\A1;85
  7
Dimsmall
 11
0.0000000000000001
 21
1.0
 31
0.0
 73
     1
 44
1.0
1001
ACAD
1000
MTEXTBEGIN
1070
    73
1070
     1
1070
    44
1040
1.0
1070
    74
1070
     0
1000
MTEXTEND
  0
POINT
  5
E7B
330
CDA
100
AcDbEntity
  8
Defpoints
 62
     0
100
AcDbPoint
 10
286.9623972666968
 20
759.4711826389847
 30
0.0
  0
POINT
  5
E7C
330
CDA
100
AcDbEntity
  8
Defpoints
 62
     0
100
AcDbPoint
 10
286.9623972666968
 20
674.4711826389846
 30
0.0
  0
POINT
  5
E7D
330
CDA
100
AcDbEntity
  8
Defpoints
 62
     0
100
AcDbPoint
 10
251.7018695337229
 20
674.4711826389846
 30
0.0
  0
ENDBLK
  5
CDC
330
CDA
100
AcDbEntity
  8
0
100
AcDbBlockEnd
  0
BLOCK
  5
CF3
330
CF2
100
AcDbEntity
  8
0
100
AcDbBlockBegin
  2
*D60
 70
     1
 10
0.0
 20
0.0
 30
0.0
  3
*D60
  1

  0
LINE
  5
EED
330
CF2
100
AcDbEntity
  8
0
 62
     0
370
    -2
100
AcDbLine
 10
305.4623980959967
 20
669.4711826389846
 30
0.0
 11
305.4623980959967
 21
638.7523861036657
 31
0.0
  0
LINE
  5
EEE
330
CF2
100
AcDbEntity
  8
0
 62
     0
370
    -2
100
AcDbLine
 10
718.4623964373969
 20
669.4711826389846
 30
0.0
 11
718.4623964373969
 21
638.7523861036657
 31
0.0
  0
LINE
  5
EEF
330
CF2
100
AcDbEntity
  8
0
 62
     0
370
    -2
100
AcDbLine
 10
310.4623980959967
 20
639.6523861036658
 30
0.0
 11
713.4623964373969
 21
639.6523861036658
 31
0.0
  0
SOLID
  5
EF0
330
CF2
100
AcDbEntity
  8
0
 62
     0
100
AcDbTrace
 10
310.4623980959967
 20
640.4857194369991
 30
0.0
 11
310.4623980959967
 21
638.8190527703324
 31
0.0
 12
305.4623980959967
 22
639.6523861036658
 32
0.0
 13
305.4623980959967
 23
639.6523861036658
 33
0.0
  0
SOLID
  5
EF1
330
CF2
100
AcDbEntity
  8
0
 62
     0
100
AcDbTrace
 10
713.4623964373969
 20
640.4857194369991
 30
0.0
 11
713.4623964373969
 21
638.8190527703324
 31
0.0
 12
718.4623964373969
 22
639.6523861036658
 32
0.0
 13
718.4623964373969
 23
639.6523861036658
 33
0.0
  0
MTEXT
  5
EF2
330
CF2
100
AcDbEntity
  8
0
 62
     0
100
AcDbMText
 10
511.9265534894542
 20
646.4951555443206
 30
0.0
 40
8.5
 41
0.0
 71
     5
 72
     1
  1
\A1;413
  7
Dimsmall
 73
     1
 44
1.0
1001
ACAD
1000
MTEXTBEGIN
1070
    73
1070
     1
1070
    44
1040
1.0
1070
    74
1070
     0
1000
MTEXTEND
  0
POINT
  5
EF3
330
CF2
100
AcDbEntity
  8
Defpoints
 62
     0
100
AcDbPoint
 10
305.4623980959967
 20
674.4711826389846
 30
0.0
  0
POINT
  5
EF4
330
CF2
100
AcDbEntity
  8
Defpoints
 62
     0
100
AcDbPoint
 10
718.4623964373969
 20
674.4711826389846
 30
0.0
  0
POINT
  5
EF5
330
CF2
100
AcDbEntity
  8
Defpoints
 62
     0
100
AcDbPoint
 10
718.4623964373969
 20
639.6523861036658
 30
0.0
  0
ENDBLK
  5
CF4
330
CF2
100
AcDbEntity
  8
0
100
AcDbBlockEnd
  0
BLOCK
  5
D14
330
D13
100
AcDbEntity
  8
0
100
AcDbBlockBegin
  2
*D61
 70
     1
 10
0.0
 20
0.0
 30
0.0
  3
*D61
  1

  0
LINE
  5
D20
330
D13
100
AcDbEntity
  8
0
 62
     0
370
    -2
100
AcDbLine
 10
516.9623972666967
 20
743.4691475888302
 30
0.0
 11
512.8623972666968
 21
743.4691475888302
 31
0.0
  0
LINE
  5
D21
330
D13
100
AcDbEntity
  8
0
 62
     0
370
    -2
100
AcDbLine
 10
516.9623972666967
 20
690.4732176891394
 30
0.0
 11
512.8623972666968
 21
690.4732176891394
 31
0.0
  0
LINE
  5
D22
330
D13
100
AcDbEntity
  8
0
 62
     0
370
    -2
100
AcDbLine
 10
511.9623972666968
 20
738.4691475888303
 30
0.0
 11
511.9623972666968
 21
695.4732176891394
 31
0.0
  0
SOLID
  5
D23
330
D13
100
AcDbEntity
  8
0
 62
     0
100
AcDbTrace
 10
511.1290639333635
 20
738.4691475888303
 30
0.0
 11
512.79573060003
 21
738.4691475888303
 31
0.0
 12
511.9623972666968
 22
743.4691475888302
 32
0.0
 13
511.9623972666968
 23
743.4691475888302
 33
0.0
  0
SOLID
  5
D24
330
D13
100
AcDbEntity
  8
0
 62
     0
100
AcDbTrace
 10
511.1290639333635
 20
695.4732176891394
 30
0.0
 11
512.79573060003
 21
695.4732176891394
 31
0.0
 12
511.9623972666968
 22
690.4732176891394
 32
0.0
 13
511.9623972666968
 23
690.4732176891394
 33
0.0
  0
MTEXT
  5
D25
330
D13
100
AcDbEntity
  8
0
 62
     0
100
AcDbMText
 10
505.1196278260419
 20
716.9711826389847
 30
0.0
 40
8.5
 41
0.0
 71
     5
 72
     1
  1
\A1;53
  7
Dimsmall
 11
0.0000000000000001
 21
1.0
 31
0.0
 73
     1
 44
1.0
1001
ACAD
1000
MTEXTBEGIN
1070
    73
1070
     1
1070
    44
1040
1.0
1070
    74
1070
     0
1000
MTEXTEND
  0
POINT
  5
D26
330
D13
100
AcDbEntity
  8
Defpoints
 62
     0
100
AcDbPoint
 10
511.9623972666967
 20
743.4691475888302
 30
0.0
  0
POINT
  5
D27
330
D13
100
AcDbEntity
  8
Defpoints
 62
     0
100
AcDbPoint
 10
511.9623972666967
 20
690.4732176891394
 30
0.0
  0
POINT
  5
D28
330
D13
100
AcDbEntity
  8
Defpoints
 62
     0
100
AcDbPoint
 10
511.9623972666968
 20
690.4732176891394
 30
0.0
  0
ENDBLK
  5
D15
330
D13
100
AcDbEntity
  8
0
100
AcDbBlockEnd
  0
BLOCK
  5
DDE
330
DDD
100
AcDbEntity
  8
0
100
AcDbBlockBegin
  2
*D62
 70
     1
 10
0.0
 20
0.0
 30
0.0
  3
*D62
  1

  0
LINE
  5
DEB
330
DDD
100
AcDbEntity
  8
0
 62
     0
370
    -2
100
AcDbLine
 10
506.9623972666967
 20
758.4711826389845
 30
0.0
 11
511.0623972666967
 21
758.4711826389845
 31
0.0
  0
LINE
  5
DEC
330
DDD
100
AcDbEntity
  8
0
 62
     0
370
    -2
100
AcDbLine
 10
506.9623972666967
 20
743.4691475888302
 30
0.0
 11
511.0623972666967
 21
743.4691475888302
 31
0.0
  0
LINE
  5
DED
330
DDD
100
AcDbEntity
  8
0
 62
     0
370
    -2
100
AcDbLine
 10
511.9623972666967
 20
753.4711826389846
 30
0.0
 11
511.9623972666967
 21
748.4691475888303
 31
0.0
  0
LINE
  5
DEE
330
DDD
100
AcDbEntity
  8
0
 62
     0
370
    -2
100
AcDbLine
 10
511.9623972666967
 20
743.4691475888302
 30
0.0
 11
511.9623972666967
 21
722.0295159380799
 31
0.0
  0
SOLID
  5
DEF
330
DDD
100
AcDbEntity
  8
0
 62
     0
100
AcDbTrace
 10
511.1290639333634
 20
753.4711826389846
 30
0.0
 11
512.79573060003
 21
753.4711826389846
 31
0.0
 12
511.9623972666967
 22
758.4711826389845
 32
0.0
 13
511.9623972666967
 23
758.4711826389845
 33
0.0
  0
SOLID
  5
DF0
330
DDD
100
AcDbEntity
  8
0
 62
     0
100
AcDbTrace
 10
511.1290639333634
 20
748.4691475888303
 30
0.0
 11
512.79573060003
 21
748.4691475888303
 31
0.0
 12
511.9623972666967
 22
743.4691475888302
 32
0.0
 13
511.9623972666967
 23
743.4691475888302
 33
0.0
  0
MTEXT
  5
DF1
330
DDD
100
AcDbEntity
  8
0
 62
     0
100
AcDbMText
 10
505.1225268710622
 20
730.2493317634553
 30
0.0
 40
8.5
 41
0.0
 71
     5
 72
     1
  1
\A1;15
  7
Dimsmall
 11
0.0000000000000001
 21
1.0
 31
0.0
 73
     1
 44
1.0
1001
ACAD
1000
MTEXTBEGIN
1070
    73
1070
     1
1070
    44
1040
1.0
1070
    74
1070
     0
1000
MTEXTEND
  0
POINT
  5
DF2
330
DDD
100
AcDbEntity
  8
Defpoints
 62
     0
100
AcDbPoint
 10
511.9623972666967
 20
758.4711826389845
 30
0.0
  0
POINT
  5
DF3
330
DDD
100
AcDbEntity
  8
Defpoints
 62
     0
100
AcDbPoint
 10
511.9623972666968
 20
743.4691475888302
 30
0.0
  0
POINT
  5
DF4
330
DDD
100
AcDbEntity
  8
Defpoints
 62
     0
100
AcDbPoint
 10
511.9623972666967
 20
743.4691475888302
 30
0.0
  0
ENDBLK
  5
DDF
330
DDD
100
AcDbEntity
  8
0
100
AcDbBlockEnd
  0
BLOCK
  5
DFD
330
DFC
100
AcDbEntity
  8
0
100
AcDbBlockBegin
  2
*D63
 70
     1
 10
0.0
 20
0.0
 30
0.0
  3
*D63
  1

  0
LINE
  5
DFF
330
DFC
100
AcDbEntity
  8
0
 62
     0
370
    -2
100
AcDbLine
 10
286.9623972666968
 20
499.6083244330792
 30
0.0
 11
286.9623972666968
 21
528.0540082659516
 31
0.0
  0
LINE
  5
E00
330
DFC
100
AcDbEntity
  8
0
 62
     0
370
    -2
100
AcDbLine
 10
251.9468456326658
 20
499.6083244330792
 30
0.0
 11
251.9468456326658
 21
528.0540082659516
 31
0.0
  0
LINE
  5
E01
330
DFC
100
AcDbEntity
  8
0
 62
     0
370
    -2
100
AcDbLine
 10
281.9623972666968
 20
527.1540082659517
 30
0.0
 11
256.9468456326658
 21
527.1540082659517
 31
0.0
  0
SOLID
  5
E02
330
DFC
100
AcDbEntity
  8
0
 62
     0
100
AcDbTrace
 10
281.9623972666968
 20
527.9873415992851
 30
0.0
 11
281.9623972666968
 21
526.3206749326183
 31
0.0
 12
286.9623972666968
 22
527.1540082659517
 32
0.0
 13
286.9623972666968
 23
527.1540082659517
 33
0.0
  0
SOLID
  5
E03
330
DFC
100
AcDbEntity
  8
0
 62
     0
100
AcDbTrace
 10
256.9468456326658
 20
527.9873415992851
 30
0.0
 11
256.9468456326658
 21
526.3206749326183
 31
0.0
 12
251.9468456326658
 22
527.1540082659517
 32
0.0
 13
251.9468456326658
 23
527.1540082659517
 33
0.0
  0
MTEXT
  5
E04
330
DFC
100
AcDbEntity
  8
0
 62
     0
100
AcDbMText
 10
269.4546214496813
 20
533.9967777066065
 30
0.0
 40
8.5
 41
0.0
 71
     5
 72
     1
  1
\A1;35
  7
Dimsmall
 73
     1
 44
1.0
1001
ACAD
1000
MTEXTBEGIN
1070
    73
1070
     1
1070
    44
1040
1.0
1070
    74
1070
     0
1000
MTEXTEND
  0
POINT
  5
E05
330
DFC
100
AcDbEntity
  8
Defpoints
 62
     0
100
AcDbPoint
 10
286.9623972666968
 20
494.6083244330792
 30
0.0
  0
POINT
  5
E06
330
DFC
100
AcDbEntity
  8
Defpoints
 62
     0
100
AcDbPoint
 10
251.9468456326658
 20
494.6083244330792
 30
0.0
  0
POINT
  5
E07
330
DFC
100
AcDbEntity
  8
Defpoints
 62
     0
100
AcDbPoint
 10
251.9468456326658
 20
527.1540082659517
 30
0.0
  0
ENDBLK
  5
DFE
330
DFC
100
AcDbEntity
  8
0
100
AcDbBlockEnd
  0
BLOCK
  5
E0A
330
E09
100
AcDbEntity
  8
0
100
AcDbBlockBegin
  2
*D64
 70
     1
 10
0.0
 20
0.0
 30
0.0
  3
*D64
  1

  0
LINE
  5
E39
330
E09
100
AcDbEntity
  8
0
 62
     0
370
    -2
100
AcDbLine
 10
281.9623972666968
 20
494.6083244330792
 30
0.0
 11
279.7063874628189
 21
494.6083244330792
 31
0.0
  0
LINE
  5
E3A
330
E09
100
AcDbEntity
  8
0
 62
     0
370
    -2
100
AcDbLine
 10
281.9623972666968
 20
550.8376375909705
 30
0.0
 11
279.7063874628189
 21
550.8376375909705
 31
0.0
  0
LINE
  5
E3B
330
E09
100
AcDbEntity
  8
0
 62
     0
370
    -2
100
AcDbLine
 10
280.6063874628189
 20
499.6083244330792
 30
0.0
 11
280.6063874628189
 21
545.8376375909705
 31
0.0
  0
SOLID
  5
E3C
330
E09
100
AcDbEntity
  8
0
 62
     0
100
AcDbTrace
 10
279.7730541294856
 20
499.6083244330792
 30
0.0
 11
281.4397207961523
 21
499.6083244330792
 31
0.0
 12
280.6063874628189
 22
494.6083244330792
 32
0.0
 13
280.6063874628189
 23
494.6083244330792
 33
0.0
  0
SOLID
  5
E3D
330
E09
100
AcDbEntity
  8
0
 62
     0
100
AcDbTrace
 10
279.7730541294856
 20
545.8376375909705
 30
0.0
 11
281.4397207961523
 21
545.8376375909705
 31
0.0
 12
280.6063874628189
 22
550.8376375909705
 32
0.0
 13
280.6063874628189
 23
550.8376375909705
 33
0.0
  0
MTEXT
  5
E3E
330
E09
100
AcDbEntity
  8
0
 62
     0
100
AcDbMText
 10
273.7665170671845
 20
522.722981012025
 30
0.0
 40
8.5
 41
0.0
 71
     5
 72
     1
  1
\A1;56
  7
Dimsmall
 11
0.0000000000000001
 21
1.0
 31
0.0
 73
     1
 44
1.0
1001
ACAD
1000
MTEXTBEGIN
1070
    73
1070
     1
1070
    44
1040
1.0
1070
    74
1070
     0
1000
MTEXTEND
  0
POINT
  5
E3F
330
E09
100
AcDbEntity
  8
Defpoints
 62
     0
100
AcDbPoint
 10
286.9623972666968
 20
494.6083244330792
 30
0.0
  0
POINT
  5
E40
330
E09
100
AcDbEntity
  8
Defpoints
 62
     0
100
AcDbPoint
 10
286.9623972666968
 20
550.8376375909705
 30
0.0
  0
POINT
  5
E41
330
E09
100
AcDbEntity
  8
Defpoints
 62
     0
100
AcDbPoint
 10
280.6063874628189
 20
550.8376375909705
 30
0.0
  0
ENDBLK
  5
E0B
330
E09
100
AcDbEntity
  8
0
100
AcDbBlockEnd
  0
BLOCK
  5
E6A
330
E69
100
AcDbEntity
  8
0
100
AcDbBlockBegin
  2
*D65
 70
     1
 10
0.0
 20
0.0
 30
0.0
  3
*D65
  1

  0
LINE
  5
E6C
330
E69
100
AcDbEntity
  8
0
 62
     0
370
    -2
100
AcDbLine
 10
281.9623972666968
 20
759.4711826389847
 30
0.0
 11
278.8641933552959
 21
759.4711826389847
 31
0.0
  0
LINE
  5
E6D
330
E69
100
AcDbEntity
  8
0
 62
     0
370
    -2
100
AcDbLine
 10
281.9623972666968
 20
794.0284294646962
 30
0.0
 11
278.8641933552959
 21
794.0284294646962
 31
0.0
  0
LINE
  5
E6E
330
E69
100
AcDbEntity
  8
0
 62
     0
370
    -2
100
AcDbLine
 10
279.7641933552959
 20
764.4711826389847
 30
0.0
 11
279.7641933552959
 21
789.0284294646961
 31
0.0
  0
SOLID
  5
E6F
330
E69
100
AcDbEntity
  8
0
 62
     0
100
AcDbTrace
 10
278.9308600219626
 20
764.4711826389847
 30
0.0
 11
280.5975266886292
 21
764.4711826389847
 31
0.0
 12
279.7641933552959
 22
759.4711826389847
 32
0.0
 13
279.7641933552959
 23
759.4711826389847
 33
0.0
  0
SOLID
  5
E70
330
E69
100
AcDbEntity
  8
0
 62
     0
100
AcDbTrace
 10
278.9308600219626
 20
789.0284294646961
 30
0.0
 11
280.5975266886292
 21
789.0284294646961
 31
0.0
 12
279.7641933552959
 22
794.0284294646962
 32
0.0
 13
279.7641933552959
 23
794.0284294646962
 33
0.0
  0
MTEXT
  5
E71
330
E69
100
AcDbEntity
  8
0
 62
     0
100
AcDbMText
 10
272.921423914641
 20
776.7498060518406
 30
0.0
 40
8.5
 41
0.0
 71
     5
 72
     1
  1
\A1;35
  7
Dimsmall
 11
0.0000000000000001
 21
1.0
 31
0.0
 73
     1
 44
1.0
1001
ACAD
1000
MTEXTBEGIN
1070
    73
1070
     1
1070
    44
1040
1.0
1070
    74
1070
     0
1000
MTEXTEND
  0
POINT
  5
E72
330
E69
100
AcDbEntity
  8
Defpoints
 62
     0
100
AcDbPoint
 10
286.9623972666968
 20
759.4711826389847
 30
0.0
  0
POINT
  5
E73
330
E69
100
AcDbEntity
  8
Defpoints
 62
     0
100
AcDbPoint
 10
286.9623972666968
 20
794.0284294646962
 30
0.0
  0
POINT
  5
E74
330
E69
100
AcDbEntity
  8
Defpoints
 62
     0
100
AcDbPoint
 10
279.7641933552959
 20
794.0284294646962
 30
0.0
  0
ENDBLK
  5
E6B
330
E69
100
AcDbEntity
  8
0
100
AcDbBlockEnd
  0
BLOCK
  5
E80
330
E7F
100
AcDbEntity
  8
0
100
AcDbBlockBegin
  2
*D66
 70
     1
 10
0.0
 20
0.0
 30
0.0
  3
*D66
  1

  0
LINE
  5
EB7
330
E7F
100
AcDbEntity
  8
0
 62
     0
370
    -2
100
AcDbLine
 10
305.4623980959966
 20
255.6083244330793
 30
0.0
 11
305.4623980959966
 21
157.2870818038345
 31
0.0
  0
LINE
  5
EB8
330
E7F
100
AcDbEntity
  8
0
 62
     0
370
    -2
100
AcDbLine
 10
718.462396437397
 20
255.6083244330794
 30
0.0
 11
718.462396437397
 21
157.2870818038345
 31
0.0
  0
LINE
  5
EB9
330
E7F
100
AcDbEntity
  8
0
 62
     0
370
    -2
100
AcDbLine
 10
310.4623980959965
 20
158.1870818038345
 30
0.0
 11
713.462396437397
 21
158.1870818038345
 31
0.0
  0
SOLID
  5
EBA
330
E7F
100
AcDbEntity
  8
0
 62
     0
100
AcDbTrace
 10
310.4623980959965
 20
159.0204151371678
 30
0.0
 11
310.4623980959965
 21
157.3537484705012
 31
0.0
 12
305.4623980959966
 22
158.1870818038345
 32
0.0
 13
305.4623980959966
 23
158.1870818038345
 33
0.0
  0
SOLID
  5
EBB
330
E7F
100
AcDbEntity
  8
0
 62
     0
100
AcDbTrace
 10
713.462396437397
 20
159.0204151371678
 30
0.0
 11
713.462396437397
 21
157.3537484705012
 31
0.0
 12
718.462396437397
 22
158.1870818038345
 32
0.0
 13
718.462396437397
 23
158.1870818038345
 33
0.0
  0
MTEXT
  5
EBC
330
E7F
100
AcDbEntity
  8
0
 62
     0
100
AcDbMText
 10
511.9623972666968
 20
165.0298512444894
 30
0.0
 40
8.5
 41
0.0
 71
     5
 72
     1
  1
\A1;413
  7
Dimsmall
 73
     1
 44
1.0
1001
ACAD
1000
MTEXTBEGIN
1070
    73
1070
     1
1070
    44
1040
1.0
1070
    74
1070
     0
1000
MTEXTEND
  0
POINT
  5
EBD
330
E7F
100
AcDbEntity
  8
Defpoints
 62
     0
100
AcDbPoint
 10
305.4623980959966
 20
260.6083244330793
 30
0.0
  0
POINT
  5
EBE
330
E7F
100
AcDbEntity
  8
Defpoints
 62
     0
100
AcDbPoint
 10
718.462396437397
 20
260.6083244330794
 30
0.0
  0
POINT
  5
EBF
330
E7F
100
AcDbEntity
  8
Defpoints
 62
     0
100
AcDbPoint
 10
718.462396437397
 20
158.1870818038345
 30
0.0
  0
ENDBLK
  5
E81
330
E7F
100
AcDbEntity
  8
0
100
AcDbBlockEnd
  0
ENDSEC
  0
SECTION
  2
ENTITIES
  0
LINE
  5
88
330
65
100
AcDbEntity
  8
用紙枠
100
AcDbLine
 10
0.0
 20
0.0
 30
0.0
 11
1485.0
 21
0.0
 31
0.0
  0
LINE
  5
89
330
65
100
AcDbEntity
  8
用紙枠
100
AcDbLine
 10
1485.0
 20
0.0
 30
0.0
 11
1485.0
 21
1050.0
 31
0.0
  0
LINE
  5
8A
330
65
100
AcDbEntity
  8
用紙枠
100
AcDbLine
 10
1485.0
 20
1050.0
 30
0.0
 11
0.0
 21
1050.0
 31
0.0
  0
LINE
  5
8B
330
65
100
AcDbEntity
  8
用紙枠
100
AcDbLine
 10
0.0
 20
1050.0
 30
0.0
 11
0.0
 21
0.0
 31
0.0
  0
LINE
  5
8C
330
65
100
AcDbEntity
  8
図面枠
370
    30
100
AcDbLine
 10
75.0
 20
75.0
 30
0.0
 11
1410.0
 21
75.0
 31
0.0
  0
LINE
  5
8D
330
65
100
AcDbEntity
  8
図面枠
370
    30
100
AcDbLine
 10
1410.0
 20
75.0
 30
0.0
 11
1410.0
 21
975.0
 31
0.0
  0
LINE
  5
8E
330
65
100
AcDbEntity
  8
図面枠
370
    30
100
AcDbLine
 10
1410.0
 20
975.0
 30
0.0
 11
75.0
 21
975.0
 31
0.0
  0
LINE
  5
8F
330
65
100
AcDbEntity
  8
図面枠
370
    30
100
AcDbLine
 10
75.0
 20
975.0
 30
0.0
 11
75.0
 21
75.0
 31
0.0
  0
LINE
  5
90
330
65
100
AcDbEntity
  8
図面枠
370
    30
100
AcDbLine
 10
985.0
 20
115.0
 30
0.0
 11
1410.0
 21
115.0
 31
0.0
  0
LINE
  5
91
330
65
100
AcDbEntity
  8
図面枠
100
AcDbLine
 10
985.0
 20
135.0
 30
0.0
 11
1160.0
 21
135.0
 31
0.0
  0
LINE
  5
92
330
65
100
AcDbEntity
  8
図面枠
370
    30
100
AcDbLine
 10
1160.0
 20
160.0
 30
0.0
 11
1410.0
 21
160.0
 31
0.0
  0
LINE
  5
93
330
65
100
AcDbEntity
  8
図面枠
100
AcDbLine
 10
1160.0
 20
180.0
 30
0.0
 11
1410.0
 21
180.0
 31
0.0
  0
LINE
  5
94
330
65
100
AcDbEntity
  8
図面枠
100
AcDbLine
 10
985.0
 20
200.0
 30
0.0
 11
1410.0
 21
200.0
 31
0.0
  0
LINE
  5
95
330
65
100
AcDbEntity
  8
図面枠
100
AcDbLine
 10
1160.0
 20
220.0
 30
0.0
 11
1410.0
 21
220.0
 31
0.0
  0
LINE
  5
96
330
65
100
AcDbEntity
  8
図面枠
100
AcDbLine
 10
985.0
 20
240.0
 30
0.0
 11
1410.0
 21
240.0
 31
0.0
  0
LINE
  5
97
330
65
100
AcDbEntity
  8
図面枠
370
    30
100
AcDbLine
 10
985.0
 20
75.0
 30
0.0
 11
985.0
 21
240.0
 31
0.0
  0
LINE
  5
98
330
65
100
AcDbEntity
  8
図面枠
100
AcDbLine
 10
1023.5
 20
115.0
 30
0.0
 11
1023.5
 21
135.0
 31
0.0
  0
LINE
  5
99
330
65
100
AcDbEntity
  8
図面枠
100
AcDbLine
 10
1062.0
 20
115.0
 30
0.0
 11
1062.0
 21
135.0
 31
0.0
  0
LINE
  5
9A
330
65
100
AcDbEntity
  8
図面枠
100
AcDbLine
 10
1121.5
 20
115.0
 30
0.0
 11
1121.5
 21
135.0
 31
0.0
  0
LINE
  5
9B
330
65
100
AcDbEntity
  8
図面枠
100
AcDbLine
 10
1160.0
 20
115.0
 30
0.0
 11
1160.0
 21
240.0
 31
0.0
  0
LINE
  5
9C
330
65
100
AcDbEntity
  8
図面枠
100
AcDbLine
 10
1229.999999999999
 20
115.0
 30
0.0
 11
1229.999999999999
 21
160.0
 31
0.0
  0
LINE
  5
9D
330
65
100
AcDbEntity
  8
図面枠
100
AcDbLine
 10
1285.0
 20
160.0
 30
0.0
 11
1285.0
 21
240.0
 31
0.0
  0
LINE
  5
9E
330
65
100
AcDbEntity
  8
図面枠
100
AcDbLine
 10
1375.0
 20
115.0
 30
0.0
 11
1375.0
 21
160.0
 31
0.0
  0
MTEXT
  5
9F
330
65
100
AcDbEntity
  8
0
100
AcDbMText
 10
1253.532
 20
92.5
 30
0.0
 40
17.5
 41
312.9355
 71
     5
 72
     5
  1
Kawagure Co., Ltd.
  7
A4Logos
 73
     1
 44
1.0
1001
ACAD
1000
MTEXTBEGIN
1070
    73
1070
     1
1070
    44
1040
1.0
1070
    74
1070
     0
1000
MTEXTEND
1000
ACAD_MTEXT_DEFINED_HEIGHT_BEGIN
1070
    46
1040
35.0
1000
ACAD_MTEXT_DEFINED_HEIGHT_END
  0
MTEXT
  5
A1
330
65
100
AcDbEntity
  8
0
100
AcDbMText
 10
1004.25
 20
124.0
 30
0.0
 40
5.0
 41
38.5
 71
     5
 72
     5
  1
決定図
  7
A4MspGothic
 73
     1
 44
1.0
1001
ACAD
1000
MTEXTBEGIN
1070
    73
1070
     1
1070
    44
1040
1.0
1070
    74
1070
     0
1000
MTEXTEND
1000
ACAD_MTEXT_DEFINED_HEIGHT_BEGIN
1070
    46
1040
9.503
1000
ACAD_MTEXT_DEFINED_HEIGHT_END
  0
MTEXT
  5
A3
330
65
100
AcDbEntity
  8
0
100
AcDbMText
 10
1042.75
 20
124.0
 30
0.0
 40
5.0
 41
38.5
 71
     5
 72
     5
  1
承認図
  7
A4MspGothic
 73
     1
 44
1.0
1001
ACAD
1000
MTEXTBEGIN
1070
    73
1070
     1
1070
    44
1040
1.0
1070
    74
1070
     0
1000
MTEXTEND
1000
ACAD_MTEXT_DEFINED_HEIGHT_BEGIN
1070
    46
1040
9.503
1000
ACAD_MTEXT_DEFINED_HEIGHT_END
  0
MTEXT
  5
A4
330
65
100
AcDbEntity
  8
0
100
AcDbMText
 10
1091.75
 20
124.0
 30
0.0
 40
5.0
 41
59.5
 71
     5
 72
     5
  1
訂正図（        ）
  7
A4MspGothic
 73
     1
 44
1.0
1001
ACAD
1000
MTEXTBEGIN
1070
    73
1070
     1
1070
    44
1040
1.0
1070
    74
1070
     0
1000
MTEXTEND
1000
ACAD_MTEXT_DEFINED_HEIGHT_BEGIN
1070
    46
1040
9.503
1000
ACAD_MTEXT_DEFINED_HEIGHT_END
  0
MTEXT
  5
A5
330
65
100
AcDbEntity
  8
0
100
AcDbMText
 10
1140.75
 20
124.0
 30
0.0
 40
5.0
 41
38.5
 71
     5
 72
     5
  1
参考図
  7
A4MspGothic
 73
     1
 44
1.0
1001
ACAD
1000
MTEXTBEGIN
1070
    73
1070
     1
1070
    44
1040
1.0
1070
    74
1070
     0
1000
MTEXTEND
1000
ACAD_MTEXT_DEFINED_HEIGHT_BEGIN
1070
    46
1040
9.503
1000
ACAD_MTEXT_DEFINED_HEIGHT_END
  0
MTEXT
  5
A6
330
65
100
AcDbEntity
  8
0
100
AcDbMText
 10
1145.5145
 20
216.0
 30
0.0
 40
8.5
 41
9.2415
 71
     1
 72
     5
  1
殿
  7
A4MspGothic2
 73
     1
 44
1.0
1001
ACAD
1000
MTEXTBEGIN
1070
    73
1070
     1
1070
    44
1040
1.0
1070
    74
1070
     0
1000
MTEXTEND
1000
ACAD_MTEXT_DEFINED_HEIGHT_BEGIN
1070
    46
1040
10.915
1000
ACAD_MTEXT_DEFINED_HEIGHT_END
  0
MTEXT
  5
A7
330
65
100
AcDbEntity
  8
0
100
AcDbMText
 10
1162.0
 20
232.5
 30
0.0
 40
5.0
 41
104.6625
 71
     7
 72
     5
  1
ORDER No.
  7
A4small
 73
     1
 44
1.0
1001
ACAD
1000
MTEXTBEGIN
1070
    73
1070
     1
1070
    44
1040
1.0
1070
    74
1070
     0
1000
MTEXTEND
1000
ACAD_MTEXT_DEFINED_HEIGHT_BEGIN
1070
    46
1040
6.75
1000
ACAD_MTEXT_DEFINED_HEIGHT_END
  0
MTEXT
  5
A9
330
65
100
AcDbEntity
  8
0
100
AcDbMText
 10
1162.0
 20
212.5
 30
0.0
 40
5.0
 41
104.6625
 71
     7
 72
     5
  1
WORK No.
  7
A4small
 73
     1
 44
1.0
1001
ACAD
1000
MTEXTBEGIN
1070
    73
1070
     1
1070
    44
1040
1.0
1070
    74
1070
     0
1000
MTEXTEND
1000
ACAD_MTEXT_DEFINED_HEIGHT_BEGIN
1070
    46
1040
6.75
1000
ACAD_MTEXT_DEFINED_HEIGHT_END
  0
MTEXT
  5
AA
330
65
100
AcDbEntity
  8
0
100
AcDbMText
 10
1162.0
 20
192.5
 30
0.0
 40
5.0
 41
104.6625
 71
     7
 72
     5
  1
QUANTITY
  7
A4small
 73
     1
 44
1.0
1001
ACAD
1000
MTEXTBEGIN
1070
    73
1070
     1
1070
    44
1040
1.0
1070
    74
1070
     0
1000
MTEXTEND
1000
ACAD_MTEXT_DEFINED_HEIGHT_BEGIN
1070
    46
1040
6.75
1000
ACAD_MTEXT_DEFINED_HEIGHT_END
  0
MTEXT
  5
AB
330
65
100
AcDbEntity
  8
0
100
AcDbMText
 10
1162.0
 20
172.5
 30
0.0
 40
5.0
 41
104.6625
 71
     7
 72
     5
  1
WEIGTH
  7
A4small
 73
     1
 44
1.0
1001
ACAD
1000
MTEXTBEGIN
1070
    73
1070
     1
1070
    44
1040
1.0
1070
    74
1070
     0
1000
MTEXTEND
1000
ACAD_MTEXT_DEFINED_HEIGHT_BEGIN
1070
    46
1040
6.75
1000
ACAD_MTEXT_DEFINED_HEIGHT_END
  0
MTEXT
  5
AC
330
65
100
AcDbEntity
  8
0
100
AcDbMText
 10
1162.0
 20
152.5
 30
0.0
 40
5.0
 41
104.6625
 71
     7
 72
     5
  1
LEAF No.
  7
A4small
 73
     1
 44
1.0
1001
ACAD
1000
MTEXTBEGIN
1070
    73
1070
     1
1070
    44
1040
1.0
1070
    74
1070
     0
1000
MTEXTEND
1000
ACAD_MTEXT_DEFINED_HEIGHT_BEGIN
1070
    46
1040
6.75
1000
ACAD_MTEXT_DEFINED_HEIGHT_END
  0
MTEXT
  5
AD
330
65
100
AcDbEntity
  8
0
100
AcDbMText
 10
1232.0
 20
152.5
 30
0.0
 40
5.0
 41
104.6625
 71
     7
 72
     5
  1
DRAWING No.
  7
A4small
 73
     1
 44
1.0
1001
ACAD
1000
MTEXTBEGIN
1070
    73
1070
     1
1070
    44
1040
1.0
1070
    74
1070
     0
1000
MTEXTEND
1000
ACAD_MTEXT_DEFINED_HEIGHT_BEGIN
1070
    46
1040
6.75
1000
ACAD_MTEXT_DEFINED_HEIGHT_END
  0
MTEXT
  5
AE
330
65
100
AcDbEntity
  8
0
100
AcDbMText
 10
1287.0
 20
232.5
 30
0.0
 40
5.0
 41
104.6625
 71
     7
 72
     5
  1
MANAGER
  7
A4small
 73
     1
 44
1.0
1001
ACAD
1000
MTEXTBEGIN
1070
    73
1070
     1
1070
    44
1040
1.0
1070
    74
1070
     0
1000
MTEXTEND
1000
ACAD_MTEXT_DEFINED_HEIGHT_BEGIN
1070
    46
1040
6.75
1000
ACAD_MTEXT_DEFINED_HEIGHT_END
  0
MTEXT
  5
AF
330
65
100
AcDbEntity
  8
0
100
AcDbMText
 10
1287.0
 20
212.5
 30
0.0
 40
5.0
 41
104.6625
 71
     7
 72
     5
  1
CHECKED BY
  7
A4small
 73
     1
 44
1.0
1001
ACAD
1000
MTEXTBEGIN
1070
    73
1070
     1
1070
    44
1040
1.0
1070
    74
1070
     0
1000
MTEXTEND
1000
ACAD_MTEXT_DEFINED_HEIGHT_BEGIN
1070
    46
1040
6.75
1000
ACAD_MTEXT_DEFINED_HEIGHT_END
  0
MTEXT
  5
B0
330
65
100
AcDbEntity
  8
0
100
AcDbMText
 10
1287.0
 20
192.5
 30
0.0
 40
5.0
 41
104.6625
 71
     7
 72
     5
  1
DESIGNED BY
  7
A4small
 73
     1
 44
1.0
1001
ACAD
1000
MTEXTBEGIN
1070
    73
1070
     1
1070
    44
1040
1.0
1070
    74
1070
     0
1000
MTEXTEND
1000
ACAD_MTEXT_DEFINED_HEIGHT_BEGIN
1070
    46
1040
6.75
1000
ACAD_MTEXT_DEFINED_HEIGHT_END
  0
MTEXT
  5
B1
330
65
100
AcDbEntity
  8
0
100
AcDbMText
 10
1287.0
 20
172.5
 30
0.0
 40
5.0
 41
104.6625
 71
     7
 72
     5
  1
DRAWN BY
  7
A4small
 73
     1
 44
1.0
1001
ACAD
1000
MTEXTBEGIN
1070
    73
1070
     1
1070
    44
1040
1.0
1070
    74
1070
     0
1000
MTEXTEND
1000
ACAD_MTEXT_DEFINED_HEIGHT_BEGIN
1070
    46
1040
6.75
1000
ACAD_MTEXT_DEFINED_HEIGHT_END
  0
MTEXT
  5
B2
330
65
100
AcDbEntity
  8
0
100
AcDbMText
 10
1377.0
 20
152.5
 30
0.0
 40
5.0
 41
104.6625
 71
     7
 72
     5
  1
SCALE
  7
A4small
 73
     1
 44
1.0
1001
ACAD
1000
MTEXTBEGIN
1070
    73
1070
     1
1070
    44
1040
1.0
1070
    74
1070
     0
1000
MTEXTEND
1000
ACAD_MTEXT_DEFINED_HEIGHT_BEGIN
1070
    46
1040
6.75
1000
ACAD_MTEXT_DEFINED_HEIGHT_END
  0
MTEXT
  5
B9
330
65
100
AcDbEntity
  8
0
100
AcDbMText
 10
1095.0
 20
290.0
 30
0.0
 40
10.0
 41
110.0
 71
     4
 72
     5
  1

  7
A4smallText
 73
     1
 44
1.0
1001
ACAD
1000
MTEXTBEGIN
1070
    73
1070
     1
1070
    44
1040
1.0
1070
    74
1070
     0
1000
MTEXTEND
1000
ACAD_MTEXT_DEFINED_HEIGHT_BEGIN
1070
    46
1040
10.0
1000
ACAD_MTEXT_DEFINED_HEIGHT_END
  0
MTEXT
  5
BA
330
65
100
AcDbEntity
  8
0
100
AcDbMText
 10
1215.0
 20
290.0
 30
0.0
 40
10.0
 41
195.0
 71
     4
 72
     5
  1

  7
A4smallText
 73
     1
 44
1.0
1001
ACAD
1000
MTEXTBEGIN
1070
    73
1070
     1
1070
    44
1040
1.0
1070
    74
1070
     0
1000
MTEXTEND
1000
ACAD_MTEXT_DEFINED_HEIGHT_BEGIN
1070
    46
1040
10.0
1000
ACAD_MTEXT_DEFINED_HEIGHT_END
  0
MTEXT
  5
BB
330
65
100
AcDbEntity
  8
0
100
AcDbMText
 10
1000.960914421421
 20
173.0525327595437
 30
0.0
 40
10.0
 41
150.0
 71
     1
 72
     5
  1
e-drain {\fMS PGothic|b0|i0|c128|p50;桝用BUCKET}
  7
A4smallText
 73
     1
 44
1.0
1001
ACAD
1000
MTEXTBEGIN
1070
    73
1070
     1
1070
    44
1040
1.0
1070
    74
1070
     0
1000
MTEXTEND
1000
ACAD_MTEXT_DEFINED_HEIGHT_BEGIN
1070
    46
1040
10.0
1000
ACAD_MTEXT_DEFINED_HEIGHT_END
  0
MTEXT
  5
BD
330
65
100
AcDbEntity
  8
0
100
AcDbMText
 10
1271.659515848292
 20
138.1098122545936
 30
0.0
 40
10.0
 41
110.0
 71
     1
 72
     5
  1
14-04-06
  7
A4smallText
 73
     1
 44
1.0
1001
ACAD
1000
MTEXTBEGIN
1070
    73
1070
     1
1070
    44
1040
1.0
1070
    74
1070
     0
1000
MTEXTEND
1000
ACAD_MTEXT_DEFINED_HEIGHT_BEGIN
1070
    46
1040
10.0
1000
ACAD_MTEXT_DEFINED_HEIGHT_END
  0
MTEXT
  5
BE
330
65
100
AcDbEntity
  8
0
100
AcDbMText
 10
1380.0
 20
137.0
 30
0.0
 40
10.0
 41
30.0
 71
     1
 72
     5
  1
1/5
  7
A4smallText
 73
     1
 44
1.0
1001
ACAD
1000
MTEXTBEGIN
1070
    73
1070
     1
1070
    44
1040
1.0
1070
    74
1070
     0
1000
MTEXTEND
1000
ACAD_MTEXT_DEFINED_HEIGHT_BEGIN
1070
    46
1040
10.0
1000
ACAD_MTEXT_DEFINED_HEIGHT_END
  0
MTEXT
  5
C0
330
65
100
AcDbEntity
  8
0
100
AcDbMText
 10
835.0
 20
90.0
 30
0.0
 40
10.0
 41
135.0
 71
     1
 72
     5
  1

  7
A4smallText
 73
     1
 44
1.0
1001
ACAD
1000
MTEXTBEGIN
1070
    73
1070
     1
1070
    44
1040
1.0
1070
    74
1070
     0
1000
MTEXTEND
1000
ACAD_MTEXT_DEFINED_HEIGHT_BEGIN
1070
    46
1040
10.0
1000
ACAD_MTEXT_DEFINED_HEIGHT_END
  0
MTEXT
  5
C1
330
65
100
AcDbEntity
  8
0
100
AcDbMText
 10
835.0
 20
100.5
 30
0.0
 40
10.0
 41
135.0
 71
     1
 72
     5
  1

  7
A4smallText
 73
     1
 44
1.0
1001
ACAD
1000
MTEXTBEGIN
1070
    73
1070
     1
1070
    44
1040
1.0
1070
    74
1070
     0
1000
MTEXTEND
1000
ACAD_MTEXT_DEFINED_HEIGHT_BEGIN
1070
    46
1040
10.0
1000
ACAD_MTEXT_DEFINED_HEIGHT_END
  0
MTEXT
  5
C2
330
65
100
AcDbEntity
  8
0
100
AcDbMText
 10
835.0
 20
111.0
 30
0.0
 40
10.0
 41
135.0
 71
     1
 72
     5
  1

  7
A4smallText
 73
     1
 44
1.0
1001
ACAD
1000
MTEXTBEGIN
1070
    73
1070
     1
1070
    44
1040
1.0
1070
    74
1070
     0
1000
MTEXTEND
1000
ACAD_MTEXT_DEFINED_HEIGHT_BEGIN
1070
    46
1040
10.0
1000
ACAD_MTEXT_DEFINED_HEIGHT_END
  0
MTEXT
  5
C3
330
65
100
AcDbEntity
  8
0
100
AcDbMText
 10
835.0
 20
121.5
 30
0.0
 40
10.0
 41
135.0
 71
     1
 72
     5
  1

  7
A4smallText
 73
     1
 44
1.0
1001
ACAD
1000
MTEXTBEGIN
1070
    73
1070
     1
1070
    44
1040
1.0
1070
    74
1070
     0
1000
MTEXTEND
1000
ACAD_MTEXT_DEFINED_HEIGHT_BEGIN
1070
    46
1040
10.0
1000
ACAD_MTEXT_DEFINED_HEIGHT_END
  0
MTEXT
  5
C4
330
65
100
AcDbEntity
  8
0
100
AcDbMText
 10
835.0
 20
132.0
 30
0.0
 40
10.0
 41
135.0
 71
     1
 72
     5
  1

  7
A4smallText
 73
     1
 44
1.0
1001
ACAD
1000
MTEXTBEGIN
1070
    73
1070
     1
1070
    44
1040
1.0
1070
    74
1070
     0
1000
MTEXTEND
1000
ACAD_MTEXT_DEFINED_HEIGHT_BEGIN
1070
    46
1040
10.0
1000
ACAD_MTEXT_DEFINED_HEIGHT_END
  0
IMAGE
  5
C7
330
65
100
AcDbEntity
  8
0
 92
      140
310
8C0000000100000084000000060000000500000000000000009890400000000000605340000000000000000000000000009890400200000000E05A40000000000000000000000000001091400200000000E05A4000000000000000000000000000109140000000000060534000000000000000000000000000989040000000
310
00006053400000000000000000
100
AcDbRasterImage
 90
        0
 10
1062.0
 20
77.5
 30
0.0
 11
0.03
 21
0.0
 31
0.0
 12
0.0
 22
0.0303336703741153
 32
0.0
 13
1000.0
 23
989.0
340
C6
 70
     7
280
     0
281
    50
282
    50
283
     0
360
C8
 71
     1
 91
        2
 14
-0.5
 24
-0.5
 14
999.5
 24
988.4999999999999
  0
LINE
  5
33E
330
65
100
AcDbEntity
  8
0
100
AcDbLine
 10
0.0
 20
0.0
 30
0.0
 11
0.0
 21
0.0
 31
0.0
  0
LINE
  5
33F
330
65
100
AcDbEntity
  8
0
100
AcDbLine
 10
0.0
 20
0.0
 30
0.0
 11
0.0
 21
0.0
 31
0.0
  0
LINE
  5
340
330
65
100
AcDbEntity
  8
0
100
AcDbLine
 10
0.0
 20
0.0
 30
0.0
 11
0.0
 21
0.0
 31
0.0
  0
LINE
  5
341
330
65
100
AcDbEntity
  8
0
100
AcDbLine
 10
0.0
 20
0.0
 30
0.0
 11
0.0
 21
0.0
 31
0.0
  0
LINE
  5
342
330
65
100
AcDbEntity
  8
0
100
AcDbLine
 10
0.0
 20
0.0
 30
0.0
 11
0.0
 21
0.0
 31
0.0
  0
LINE
  5
343
330
65
100
AcDbEntity
  8
0
100
AcDbLine
 10
0.0
 20
0.0
 30
0.0
 11
0.0
 21
0.0
 31
0.0
  0
LINE
  5
344
330
65
100
AcDbEntity
  8
0
100
AcDbLine
 10
0.0
 20
0.0
 30
0.0
 11
0.0
 21
0.0
 31
0.0
  0
LINE
  5
345
330
65
100
AcDbEntity
  8
0
100
AcDbLine
 10
0.0
 20
0.0
 30
0.0
 11
0.0
 21
0.0
 31
0.0
  0
LINE
  5
3B0
330
65
100
AcDbEntity
  8
0
100
AcDbLine
 10
0.0
 20
0.0
 30
0.0
 11
0.0
 21
0.0
 31
0.0
  0
LINE
  5
3B1
330
65
100
AcDbEntity
  8
0
100
AcDbLine
 10
0.0
 20
0.0
 30
0.0
 11
0.0
 21
0.0
 31
0.0
  0
LINE
  5
3B2
330
65
100
AcDbEntity
  8
0
100
AcDbLine
 10
0.0
 20
0.0
 30
0.0
 11
0.0
 21
0.0
 31
0.0
  0
LINE
  5
3B3
330
65
100
AcDbEntity
  8
0
100
AcDbLine
 10
0.0
 20
0.0
 30
0.0
 11
0.0
 21
0.0
 31
0.0
  0
LINE
  5
3B4
330
65
100
AcDbEntity
  8
0
100
AcDbLine
 10
0.0
 20
0.0
 30
0.0
 11
0.0
 21
0.0
 31
0.0
  0
LINE
  5
3B5
330
65
100
AcDbEntity
  8
0
100
AcDbLine
 10
0.0
 20
0.0
 30
0.0
 11
0.0
 21
0.0
 31
0.0
  0
LINE
  5
3B6
330
65
100
AcDbEntity
  8
0
100
AcDbLine
 10
0.0
 20
0.0
 30
0.0
 11
0.0
 21
0.0
 31
0.0
  0
LINE
  5
3B7
330
65
100
AcDbEntity
  8
0
100
AcDbLine
 10
0.0
 20
0.0
 30
0.0
 11
0.0
 21
0.0
 31
0.0
  0
LINE
  5
3B8
330
65
100
AcDbEntity
  8
0
100
AcDbLine
 10
0.0
 20
0.0
 30
0.0
 11
0.0
 21
0.0
 31
0.0
  0
LINE
  5
3B9
330
65
100
AcDbEntity
  8
0
100
AcDbLine
 10
0.0
 20
0.0
 30
0.0
 11
0.0
 21
0.0
 31
0.0
  0
LINE
  5
3BA
330
65
100
AcDbEntity
  8
0
100
AcDbLine
 10
0.0
 20
0.0
 30
0.0
 11
0.0
 21
0.0
 31
0.0
  0
LINE
  5
3BB
330
65
100
AcDbEntity
  8
0
100
AcDbLine
 10
0.0
 20
0.0
 30
0.0
 11
0.0
 21
0.0
 31
0.0
  0
LINE
  5
3BC
330
65
100
AcDbEntity
  8
0
100
AcDbLine
 10
0.0
 20
0.0
 30
0.0
 11
0.0
 21
0.0
 31
0.0
  0
LINE
  5
3BD
330
65
100
AcDbEntity
  8
0
100
AcDbLine
 10
0.0
 20
0.0
 30
0.0
 11
0.0
 21
0.0
 31
0.0
  0
LINE
  5
3BE
330
65
100
AcDbEntity
  8
0
100
AcDbLine
 10
0.0
 20
0.0
 30
0.0
 11
0.0
 21
0.0
 31
0.0
  0
LINE
  5
3BF
330
65
100
AcDbEntity
  8
0
100
AcDbLine
 10
0.0
 20
0.0
 30
0.0
 11
0.0
 21
0.0
 31
0.0
  0
LINE
  5
408
330
65
100
AcDbEntity
  8
0
100
AcDbLine
 10
286.9623972666968
 20
759.4711826389847
 30
0.0
 11
736.9623972666968
 21
759.4711826389847
 31
0.0
  0
LINE
  5
409
330
65
100
AcDbEntity
  8
0
100
AcDbLine
 10
287.9623972666968
 20
758.4711826389847
 30
0.0
 11
735.9623972666968
 21
758.4711826389847
 31
0.0
  0
LINE
  5
40A
102
{ACAD_REACTORS
330
A3B
102
}
330
65
100
AcDbEntity
  8
0
100
AcDbLine
 10
286.9623972666968
 20
759.4711826389847
 30
0.0
 11
286.9623972666968
 21
674.4711826389846
 31
0.0
  0
LINE
  5
40B
102
{ACAD_REACTORS
330
CF0
102
}
330
65
100
AcDbEntity
  8
0
100
AcDbLine
 10
286.9623972666968
 20
674.4711826389846
 30
0.0
 11
736.9623972666968
 21
674.4711826389846
 31
0.0
  0
LINE
  5
40C
330
65
100
AcDbEntity
  8
0
100
AcDbLine
 10
287.9623972666968
 20
675.4711826389847
 30
0.0
 11
735.9623972666968
 21
675.4711826389847
 31
0.0
  0
LINE
  5
40D
102
{ACAD_REACTORS
330
A3B
102
}
330
65
100
AcDbEntity
  8
0
100
AcDbLine
 10
736.9623972666968
 20
759.4711826389847
 30
0.0
 11
736.9623972666968
 21
674.4711826389846
 31
0.0
  0
LINE
  5
40E
330
65
100
AcDbEntity
  8
0
100
AcDbLine
 10
287.9623972666968
 20
758.4711826389847
 30
0.0
 11
287.9623972666968
 21
675.4711826389847
 31
0.0
  0
LINE
  5
40F
330
65
100
AcDbEntity
  8
0
100
AcDbLine
 10
735.9623972666968
 20
758.4711826389847
 30
0.0
 11
735.9623972666968
 21
675.4711826389844
 31
0.0
  0
LINE
  5
412
330
65
100
AcDbEntity
  8
0
100
AcDbLine
 10
898.9958737716714
 20
759.4711826389847
 30
0.0
 11
898.9958737716714
 21
674.4711826389846
 31
0.0
  0
LINE
  5
413
330
65
100
AcDbEntity
  8
0
100
AcDbLine
 10
1133.995873771671
 20
744.4711826389847
 30
0.0
 11
1133.995873771671
 21
689.4711826389847
 31
0.0
  0
LINE
  5
41C
102
{ACAD_REACTORS
330
439
330
451
102
}
330
65
100
AcDbEntity
  8
0
100
AcDbLine
 10
898.9958737716714
 20
759.4711826389847
 30
0.0
 11
1133.995873771671
 21
744.4711826389847
 31
0.0
  0
LINE
  5
41D
102
{ACAD_REACTORS
330
439
330
451
102
}
330
65
100
AcDbEntity
  8
0
100
AcDbLine
 10
898.9958737716714
 20
674.4711826389846
 30
0.0
 11
1133.995873771671
 21
689.4711826389847
 31
0.0
  0
LINE
  5
41E
330
65
100
AcDbEntity
  8
0
100
AcDbLine
 10
898.9958737716717
 20
675.4732176891392
 30
0.0
 11
1132.995873771671
 21
690.4093879019052
 31
0.0
  0
LINE
  5
421
330
65
100
AcDbEntity
  8
0
100
AcDbLine
 10
898.9958737716714
 20
758.4691475888303
 30
0.0
 11
1132.995873771671
 21
743.5329773760643
 31
0.0
  0
DIMENSION
  5
422
102
{ACAD_XDICTIONARY
360
42F
102
}
102
{ACAD_REACTORS
330
439
102
}
330
65
100
AcDbEntity
  8
0
100
AcDbDimension
  2
*D4
 10
863.8191383496303
 20
674.4711826389846
 30
0.0
 11
856.9792679539958
 21
716.9711826389848
 31
0.0
 70
    32
 71
     5
 42
85.00000000000012
  3
DimStyle
100
AcDbAlignedDimension
 13
898.9958737716714
 23
759.4711826389847
 33
0.0
 14
898.9958737716714
 24
674.4711826389846
 34
0.0
 50
90.0
100
AcDbRotatedDimension
  0
DIMENSION
  5
43A
102
{ACAD_XDICTIONARY
360
447
102
}
102
{ACAD_REACTORS
330
451
102
}
330
65
100
AcDbEntity
  8
0
100
AcDbDimension
  2
*D5
 10
1168.632851158712
 20
689.4711826389847
 30
0.0
 11
1161.8103750332
 21
716.9711826389848
 31
0.0
 70
    32
 71
     5
 42
55.0
  3
DimStyle
100
AcDbAlignedDimension
 13
1133.995873771671
 23
744.4711826389847
 33
0.0
 14
1133.995873771671
 24
689.4711826389847
 34
0.0
 50
90.0
100
AcDbRotatedDimension
  0
DIMENSION
  5
452
330
65
100
AcDbEntity
  8
0
100
AcDbDimension
  2
*D6
 10
1133.995873771671
 20
639.8827739000624
 30
0.0
 11
1016.495873771671
 21
646.7255433407172
 31
0.0
 70
    32
 71
     5
 42
234.9999999999996
  3
DimStyle
100
AcDbAlignedDimension
 13
898.9958737716714
 23
674.4711826389846
 33
0.0
 14
1133.995873771671
 24
689.4711826389847
 34
0.0
100
AcDbRotatedDimension
  0
LINE
  5
463
102
{ACAD_REACTORS
330
C1B
102
}
330
65
100
AcDbEntity
  8
0
100
AcDbLine
 10
286.9623972666968
 20
494.6083244330792
 30
0.0
 11
736.9623972666968
 21
494.6083244330792
 31
0.0
  0
LINE
  5
464
330
65
100
AcDbEntity
  8
0
100
AcDbLine
 10
304.4623972666968
 20
259.6083244330793
 30
0.0
 11
719.4623972666968
 21
259.6083244330793
 31
0.0
  0
LINE
  5
465
102
{ACAD_REACTORS
330
A53
330
A88
102
}
330
65
100
AcDbEntity
  8
0
100
AcDbLine
 10
286.9623972666968
 20
494.6083244330792
 30
0.0
 11
304.4623972666968
 21
259.6083244330793
 31
0.0
  0
LINE
  5
466
102
{ACAD_REACTORS
330
A53
330
A88
102
}
330
65
100
AcDbEntity
  8
0
100
AcDbLine
 10
736.9623972666968
 20
494.6083244330792
 30
0.0
 11
719.4623972666968
 21
259.6083244330793
 31
0.0
  0
LINE
  5
467
330
65
100
AcDbEntity
  8
0
100
AcDbLine
 10
287.965166181103
 20
494.6083244330792
 30
0.0
 11
305.4623980959966
 21
260.6083244330793
 31
0.0
  0
LINE
  5
468
330
65
100
AcDbEntity
  8
0
100
AcDbLine
 10
735.9596283522908
 20
494.6083244330792
 30
0.0
 11
718.462396437397
 21
260.6083244330794
 31
0.0
  0
LINE
  5
469
330
65
100
AcDbEntity
  8
0
100
AcDbLine
 10
305.4623980959966
 20
260.6083244330793
 30
0.0
 11
718.462396437397
 21
260.6083244330794
 31
0.0
  0
INSERT
  5
6F4
330
65
100
AcDbEntity
  8
φ10
100
AcDbBlockReference
  2
a
 10
466.9454269135281
 20
279.1962598553735
 30
0.0
  0
INSERT
  5
70B
330
65
100
AcDbEntity
  8
φ10
100
AcDbBlockReference
  2
b
 10
451.962435564569
 20
291.9283244330793
 30
0.0
  0
INSERT
  5
7DF
330
65
100
AcDbEntity
  8
φ10
100
AcDbBlockReference
  2
k
 10
336.9624355645691
 20
452.8083244330793
 30
0.0
  0
INSERT
  5
96E
330
65
100
AcDbEntity
  8
φ10
100
AcDbBlockReference
  2
a
 10
466.9454269135281
 20
313.8362598553735
 30
0.0
  0
INSERT
  5
96F
330
65
100
AcDbEntity
  8
φ10
100
AcDbBlockReference
  2
b
 10
451.962435564569
 20
326.5683244330793
 30
0.0
  0
INSERT
  5
970
330
65
100
AcDbEntity
  8
φ10
100
AcDbBlockReference
  2
a
 10
466.9454269135281
 20
348.4762598553735
 30
0.0
  0
INSERT
  5
971
330
65
100
AcDbEntity
  8
φ10
100
AcDbBlockReference
  2
b
 10
451.962435564569
 20
361.2083244330793
 30
0.0
  0
INSERT
  5
972
330
65
100
AcDbEntity
  8
φ10
100
AcDbBlockReference
  2
a
 10
466.9454269135281
 20
383.1162598553736
 30
0.0
  0
INSERT
  5
973
330
65
100
AcDbEntity
  8
φ10
100
AcDbBlockReference
  2
b
 10
451.962435564569
 20
395.8483244330794
 30
0.0
  0
INSERT
  5
974
330
65
100
AcDbEntity
  8
φ10
100
AcDbBlockReference
  2
a
 10
466.9454269135281
 20
417.7562598553732
 30
0.0
  0
INSERT
  5
975
330
65
100
AcDbEntity
  8
φ10
100
AcDbBlockReference
  2
b
 10
451.962435564569
 20
430.4883244330793
 30
0.0
  0
LINE
  5
997
330
65
100
AcDbEntity
  8
取っ手
100
AcDbLine
 10
384.4623972666968
 20
675.4711826389847
 30
0.0
 11
384.4623972666968
 21
758.4711826389847
 31
0.0
  0
LINE
  5
998
330
65
100
AcDbEntity
  8
取っ手
100
AcDbLine
 10
389.4623972666968
 20
675.4711826389847
 30
0.0
 11
389.4623972666968
 21
758.4711826389847
 31
0.0
  0
LINE
  5
99B
330
65
100
AcDbEntity
  8
10_本体点線
100
AcDbLine
 10
305.4623980959967
 20
743.4691475888301
 30
0.0
 11
305.4623980959967
 21
690.4732176891394
 31
0.0
  0
LINE
  5
99C
102
{ACAD_REACTORS
330
D29
102
}
330
65
100
AcDbEntity
  8
10_本体点線
100
AcDbLine
 10
305.4623980959967
 20
690.4732176891395
 30
0.0
 11
718.4623964373969
 21
690.4732176891394
 31
0.0
  0
LINE
  5
99D
330
65
100
AcDbEntity
  8
10_本体点線
100
AcDbLine
 10
718.462396437397
 20
690.4732176891394
 30
0.0
 11
718.462396437397
 21
743.4691475888302
 31
0.0
  0
LINE
  5
99E
102
{ACAD_REACTORS
330
D29
102
}
330
65
100
AcDbEntity
  8
10_本体点線
100
AcDbLine
 10
718.4623964373969
 20
743.4691475888302
 30
0.0
 11
305.4623980959967
 21
743.46914758883
 31
0.0
  0
LINE
  5
99F
330
65
100
AcDbEntity
  8
取っ手
100
AcDbLine
 10
634.4623972666968
 20
675.4711826389847
 30
0.0
 11
634.4623972666968
 21
758.4711826389847
 31
0.0
  0
LINE
  5
9A0
330
65
100
AcDbEntity
  8
取っ手
100
AcDbLine
 10
639.4623972666968
 20
675.4711826389847
 30
0.0
 11
639.4623972666968
 21
758.4711826389847
 31
0.0
  0
LINE
  5
9A1
330
65
100
AcDbEntity
  8
0
100
AcDbLine
 10
1132.995873771671
 20
743.5329773760643
 30
0.0
 11
1132.995873771672
 21
690.4093879019058
 31
0.0
  0
CIRCLE
  5
9A7
102
{ACAD_REACTORS
330
B17
102
}
330
65
100
AcDbEntity
  8
取っ手
100
AcDbCircle
 10
386.9623972666969
 20
484.6083244330793
 30
0.0
 40
2.5
  0
LINE
  5
9A8
330
65
100
AcDbEntity
  8
0
100
AcDbLine
 10
384.4623972666968
 20
494.6083244330792
 30
0.0
 11
389.4623972666968
 21
494.6083244330792
 31
0.0
  0
CIRCLE
  5
9AA
102
{ACAD_REACTORS
330
B2F
102
}
330
65
100
AcDbEntity
  8
取っ手
100
AcDbCircle
 10
636.9623972666968
 20
484.6083244330793
 30
0.0
 40
2.5
  0
DIMENSION
  5
A24
102
{ACAD_XDICTIONARY
360
A31
102
}
102
{ACAD_REACTORS
330
A3B
102
}
330
65
100
AcDbEntity
  8
0
100
AcDbDimension
  2
*D43
 10
736.9623972666968
 20
794.0284294646962
 30
0.0
 11
511.9623972666968
 21
800.8682998603308
 31
0.0
 70
    32
 71
     5
 42
450.0
  3
DimStyle
100
AcDbAlignedDimension
 13
286.9623972666968
 23
759.4711826389847
 33
0.0
 14
736.9623972666968
 24
759.4711826389847
 34
0.0
100
AcDbRotatedDimension
  0
DIMENSION
  5
A3C
102
{ACAD_XDICTIONARY
360
A49
102
}
102
{ACAD_REACTORS
330
A53
102
}
330
65
100
AcDbEntity
  8
0
100
AcDbDimension
  2
*D44
 10
736.9623972666968
 20
564.8376375909704
 30
0.0
 11
511.9623972666968
 21
564.8376375909704
 31
0.0
 70
   160
 71
     5
 42
450.0
  3
DimStyle
100
AcDbAlignedDimension
 13
286.9623972666968
 23
494.6083244330792
 33
0.0
 14
736.9623972666968
 24
494.6083244330792
 34
0.0
100
AcDbRotatedDimension
  0
DIMENSION
  5
A71
102
{ACAD_XDICTIONARY
360
A7E
102
}
102
{ACAD_REACTORS
330
A88
102
}
330
65
100
AcDbEntity
  8
0
100
AcDbDimension
  2
*D45
 10
719.4623972666968
 20
224.5199434289425
 30
0.0
 11
511.9623972666968
 21
231.3598138245769
 31
0.0
 70
    32
 71
     5
 42
415.0
  3
DimStyle
100
AcDbAlignedDimension
 13
304.4623972666968
 23
259.6083244330793
 33
0.0
 14
719.4623972666968
 24
259.6083244330793
 34
0.0
100
AcDbRotatedDimension
  0
DIMENSION
  5
A92
330
65
100
AcDbEntity
  8
0
100
AcDbDimension
  2
*D46
 10
251.9468456326658
 20
452.8083244330793
 30
0.0
 11
245.1069752370313
 21
473.7083244330793
 31
0.0
 70
    32
 71
     5
 42
41.79999999999995
  3
DimStyle
100
AcDbAlignedDimension
 13
286.9623972666968
 23
494.6083244330792
 33
0.0
 14
326.9624355645691
 24
452.8083244330793
 34
0.0
 50
90.0
100
AcDbRotatedDimension
1001
ACAD
1000
DSTYLE
1002
{
1070
   271
1070
     1
1002
}
  0
DIMENSION
  5
AD2
330
65
100
AcDbEntity
  8
0
100
AcDbDimension
  2
*D48
 10
251.9468456326658
 20
259.6083244330793
 30
0.0
 11
245.1069752370313
 21
269.6083244330794
 31
0.0
 70
    32
 71
     5
 42
20.0
  3
DimStyle
100
AcDbAlignedDimension
 13
326.9624355645691
 23
279.6083244330794
 33
0.0
 14
304.4623972666968
 24
259.6083244330793
 34
0.0
 50
90.0
100
AcDbRotatedDimension
  0
DIMENSION
  5
AEA
330
65
100
AcDbEntity
  8
0
100
AcDbDimension
  2
*D49
 10
251.9468456326658
 20
452.8083244330793
 30
0.0
 11
245.1040761920109
 21
366.2083244330796
 31
0.0
 70
    32
 71
     5
 42
173.2
  3
DimStyle
100
AcDbAlignedDimension
 13
326.9624355645691
 23
279.6083244330794
 33
0.0
 14
326.9624355645691
 24
452.8083244330793
 34
0.0
 50
90.0
100
AcDbRotatedDimension
1001
ACAD
1000
DSTYLE
1002
{
1070
   271
1070
     1
1002
}
  0
DIMENSION
  5
B00
102
{ACAD_XDICTIONARY
360
B0D
102
}
102
{ACAD_REACTORS
330
B17
102
}
330
65
100
AcDbEntity
  8
0
100
AcDbDimension
  2
*D50
 10
386.9623972666969
 20
529.2530458142076
 30
0.0
 11
336.9623972666968
 21
536.0929162098421
 31
0.0
 70
    32
 71
     5
 42
100.0
  3
DimStyle
100
AcDbAlignedDimension
 13
286.9623972666968
 23
494.6083244330792
 33
0.0
 14
386.9623972666969
 24
484.6083244330793
 34
0.0
100
AcDbRotatedDimension
  0
DIMENSION
  5
B18
102
{ACAD_XDICTIONARY
360
B25
102
}
102
{ACAD_REACTORS
330
B2F
102
}
330
65
100
AcDbEntity
  8
0
100
AcDbDimension
  2
*D51
 10
636.9623972666968
 20
529.2530458142076
 30
0.0
 11
511.9623972666968
 21
536.0929162098421
 31
0.0
 70
    32
 71
     5
 42
250.0
  3
DimStyle
100
AcDbAlignedDimension
 13
386.9623972666969
 23
484.6083244330793
 33
0.0
 14
636.9623972666968
 24
484.6083244330793
 34
0.0
100
AcDbRotatedDimension
  0
DIMENSION
  5
B30
330
65
100
AcDbEntity
  8
0
100
AcDbDimension
  2
*D52
 10
736.9623972666968
 20
529.2530458142076
 30
0.0
 11
686.9623972666968
 21
536.0929162098421
 31
0.0
 70
    32
 71
     5
 42
100.0
  3
DimStyle
100
AcDbAlignedDimension
 13
636.9623972666968
 23
484.6083244330793
 33
0.0
 14
736.9623972666968
 24
494.6083244330792
 34
0.0
100
AcDbRotatedDimension
  0
DIMENSION
  5
B95
330
65
100
AcDbEntity
  8
0
100
AcDbDimension
  2
*D56
 10
681.9624355645692
 20
475.6574079519204
 30
0.0
 11
671.9624355645692
 21
482.4972783475549
 31
0.0
 70
    32
 71
     5
 42
20.0
  3
DimStyle
100
AcDbAlignedDimension
 13
661.9624355645692
 23
447.8083244330792
 33
0.0
 14
681.9624355645692
 24
447.8083244330792
 34
0.0
100
AcDbRotatedDimension
  0
DIMENSION
  5
C02
102
{ACAD_XDICTIONARY
360
C10
102
}
102
{ACAD_REACTORS
330
C1B
102
}
330
65
100
AcDbEntity
  8
0
100
AcDbDimension
  2
*D58
 10
593.553812522404
 20
494.6083244330792
 30
0.0
 11
593.5538125224037
 21
466.4348933280314
 31
0.0
 70
   160
 71
     5
 42
10.0
  3
DimStyle
100
AcDbAlignedDimension
 13
636.9623972666968
 23
484.6083244330793
 33
0.0
 14
615.9582015606863
 24
494.6083244330792
 34
0.0
 50
90.0
100
AcDbRotatedDimension
  0
DIMENSION
  5
CD9
102
{ACAD_XDICTIONARY
360
CE6
102
}
102
{ACAD_REACTORS
330
CF0
102
}
330
65
100
AcDbEntity
  8
0
100
AcDbDimension
  2
*D59
 10
251.7018695337229
 20
674.4711826389846
 30
0.0
 11
244.8619991380884
 21
716.9711826389848
 31
0.0
 70
    32
 71
     5
 42
85.00000000000012
  3
DimStyle
100
AcDbAlignedDimension
 13
286.9623972666968
 23
759.4711826389847
 33
0.0
 14
286.9623972666968
 24
674.4711826389846
 34
0.0
 50
90.0
100
AcDbRotatedDimension
  0
DIMENSION
  5
CF1
330
65
100
AcDbEntity
  8
0
100
AcDbDimension
  2
*D60
 10
718.4623964373969
 20
639.6523861036658
 30
0.0
 11
511.9265534894542
 21
639.6523861036658
 31
0.0
 70
   160
 71
     5
 42
412.9999983414002
  3
DimStyle
100
AcDbAlignedDimension
 13
305.4623980959967
 23
674.4711826389846
 33
0.0
 14
718.4623964373969
 24
674.4711826389846
 34
0.0
100
AcDbRotatedDimension
  0
DIMENSION
  5
D12
102
{ACAD_XDICTIONARY
360
D1F
102
}
102
{ACAD_REACTORS
330
D29
102
}
330
65
100
AcDbEntity
  8
0
100
AcDbDimension
  2
*D61
 10
511.9623972666968
 20
690.4732176891394
 30
0.0
 11
505.1196278260419
 21
716.9711826389847
 31
0.0
 70
    32
 71
     5
 42
52.99592989969074
  3
DimStyle
100
AcDbAlignedDimension
 13
511.9623972666967
 23
743.4691475888302
 33
0.0
 14
511.9623972666967
 24
690.4732176891394
 34
0.0
 50
90.0
100
AcDbRotatedDimension
  0
MTEXT
  5
D3C
330
65
100
AcDbEntity
  8
0
100
AcDbMText
 10
162.9309182655852
 20
866.7403243167727
 30
0.0
 40
15.0
 41
0.0
 71
     7
 72
     5
  1
e-drain 桝用BUCKET
  7
LeaderLine
 73
     1
 44
1.0
1001
ACAD
1000
MTEXTBEGIN
1070
    73
1070
     1
1070
    44
1040
1.0
1070
    74
1070
     0
1000
MTEXTEND
  0
LINE
  5
D3D
330
65
100
AcDbEntity
  8
ﾚｲﾔ1
100
AcDbLine
 10
157.2246848481134
 20
864.3602510472883
 30
0.0
 11
359.9859164947883
 21
864.3602510472883
 31
0.0
  0
MTEXT
  5
D52
102
{ACAD_REACTORS
330
D53
102
}
330
65
100
AcDbEntity
  8
0
100
AcDbMText
 10
792.6221441740692
 20
792.0971632904011
 30
0.0
 40
12.5
 41
0.0
 71
     7
 72
     5
  1
SUS304 2B\P　　 PL 1.0t
  7
LeaderLine
 73
     1
 44
1.0
1001
ACAD
1000
MTEXTBEGIN
1070
    73
1070
     1
1070
    44
1040
1.0
1070
    74
1070
     0
1000
MTEXTEND
  0
LEADER
  5
D53
330
65
100
AcDbEntity
  8
寸法線
100
AcDbLeader
  3
DimStyle
 73
     0
 74
     0
 75
     1
 40
33.40435606060606
 41
84.80113636363638
 76
     3
 10
736.6600271246753
 20
741.5315895122366
 30
0.0
 10
785.1221441740692
 20
789.5971632904011
 30
0.0
 10
790.1221441740692
 20
789.5971632904011
 30
0.0
340
D52
1001
ACAD
1000
DSTYLE
1002
{
1070
   340
1005
80
1002
}
  0
MTEXT
  5
DF6
102
{ACAD_REACTORS
330
DF7
102
}
330
65
100
AcDbEntity
  8
0
100
AcDbMText
 10
410.115693007141
 20
470.019698933725
 30
0.0
 40
12.5
 41
0.0
 71
     7
 72
     5
  1
φ5
  7
LeaderLine
 73
     1
 44
1.0
1001
ACAD
1000
MTEXTBEGIN
1070
    73
1070
     1
1070
    44
1040
1.0
1070
    74
1070
     0
1000
MTEXTEND
  0
LEADER
  5
DF7
330
65
100
AcDbEntity
  8
寸法線
100
AcDbLeader
  3
DimStyle
 73
     0
 74
     0
 75
     1
 40
16.26420454545455
 41
22.65625
 76
     3
 10
387.4123972666968
 20
484.6083244330793
 30
0.0
 10
402.6156930071411
 20
467.519698933725
 30
0.0
 10
407.6156930071411
 20
467.519698933725
 30
0.0
340
DF6
1001
ACAD
1000
DSTYLE
1002
{
1070
   340
1005
80
1002
}
  0
MTEXT
  5
DF9
102
{ACAD_REACTORS
330
DFA
102
}
330
65
100
AcDbEntity
  8
0
100
AcDbMText
 10
737.1525985124017
 20
429.0195325167823
 30
0.0
 40
12.5
 41
0.0
 71
     7
 72
     5
  1
φ10
  7
LeaderLine
 73
     1
 44
1.0
1001
ACAD
1000
MTEXTBEGIN
1070
    73
1070
     1
1070
    44
1040
1.0
1070
    74
1070
     0
1000
MTEXTEND
  0
LEADER
  5
DFA
330
65
100
AcDbEntity
  8
寸法線
100
AcDbLeader
  3
DimStyle
 73
     0
 74
     0
 75
     1
 40
16.26420454545455
 41
32.03125
 76
     3
 10
701.9624355645693
 20
452.8083244330793
 30
0.0
 10
729.6525985124016
 20
426.5195325167824
 30
0.0
 10
734.6525985124017
 20
426.5195325167824
 30
0.0
340
DF9
1001
ACAD
1000
DSTYLE
1002
{
1070
   340
1005
80
1002
}
  0
MTEXT
  5
F1C
330
65
100
AcDbEntity
  8
0
100
AcDbMText
 10
1159.09254991662
 20
306.4649820366767
 30
0.0
 40
13.0
 41
195.0
 71
     1
 72
     5
  1
{\fMS PGothic|b0|i0|c128|p50;材質　　}SUS304 2B
  7
A4smallText
 73
     1
 44
1.0
1001
ACAD
1000
MTEXTBEGIN
1070
    73
1070
     1
1070
    44
1040
1.0
1070
    74
1070
     0
1000
MTEXTEND
1000
ACAD_MTEXT_DEFINED_HEIGHT_BEGIN
1070
    46
1040
13.0
1000
ACAD_MTEXT_DEFINED_HEIGHT_END
  0
ENDSEC
  0
SECTION
  2
OBJECTS
  0
DICTIONARY
  5
C
330
0
100
AcDbDictionary
281
     1
  3
ACAD_2007HEADERVARS_RT
350
F28
  3
ACAD_COLOR
350
5B
  3
ACAD_GROUP
350
D
  3
ACAD_IMAGE_DICT
350
C5
  3
ACAD_IMAGE_VARS
350
C9
  3
ACAD_LAYOUT
350
5A
  3
ACAD_MATERIAL
350
10
  3
ACAD_MLEADERSTYLE
350
5E
  3
ACAD_MLINESTYLE
350
57
  3
ACAD_PLOTSETTINGS
350
59
  3
ACAD_PLOTSTYLENAME
350
E
  3
ACAD_SCALELIST
350
3A
  3
ACAD_TABLESTYLE
350
5C
  3
ACAD_VISUALSTYLE
350
29
  3
ACDB_RECOMPOSE_DATA
350
3E8
  3
AcDbVariableDictionary
350
3DA
  3
DWGPROPS
350
F27
  0
DICTIONARY
  5
9F1
330
2
100
AcDbDictionary
280
     1
281
     1
  3
ACAD_LAYERSTATES
360
9F2
  0
DICTIONARY
  5
41F
330
65
100
AcDbDictionary
280
     1
281
     1
  3
ACAD_SORTENTS
360
420
  0
DICTIONARY
  5
D66
330
6DD
100
AcDbDictionary
280
     1
281
     1
  3
AcDbBlockTableRecordData
360
F35
  0
DICTIONARY
  5
D69
330
6F5
100
AcDbDictionary
280
     1
281
     1
  3
AcDbBlockTableRecordData
360
F37
  0
DICTIONARY
  5
D6C
330
70C
100
AcDbDictionary
280
     1
281
     1
  3
AcDbBlockTableRecordData
360
F39
  0
DICTIONARY
  5
D6F
330
724
100
AcDbDictionary
280
     1
281
     1
  3
AcDbBlockTableRecordData
360
F3B
  0
DICTIONARY
  5
D72
330
73B
100
AcDbDictionary
280
     1
281
     1
  3
AcDbBlockTableRecordData
360
F3D
  0
DICTIONARY
  5
D75
330
753
100
AcDbDictionary
280
     1
281
     1
  3
AcDbBlockTableRecordData
360
F3F
  0
DICTIONARY
  5
D78
330
76A
100
AcDbDictionary
280
     1
281
     1
  3
AcDbBlockTableRecordData
360
F41
  0
DICTIONARY
  5
D7B
330
782
100
AcDbDictionary
280
     1
281
     1
  3
AcDbBlockTableRecordData
360
F43
  0
DICTIONARY
  5
D7E
330
799
100
AcDbDictionary
280
     1
281
     1
  3
AcDbBlockTableRecordData
360
F45
  0
DICTIONARY
  5
D81
330
7B1
100
AcDbDictionary
280
     1
281
     1
  3
AcDbBlockTableRecordData
360
F47
  0
DICTIONARY
  5
D84
330
7C8
100
AcDbDictionary
280
     1
281
     1
  3
AcDbBlockTableRecordData
360
F49
  0
DICTIONARY
  5
F4E
330
CB1
100
AcDbDictionary
280
     1
281
     1
  3
ACAD_MTEXT_RT
360
F4F
  0
DICTIONARY
  5
F4C
330
B91
100
AcDbDictionary
280
     1
281
     1
  3
ACAD_MTEXT_RT
360
F4D
  0
DICTIONARY
  5
F50
330
CBF
100
AcDbDictionary
280
     1
281
     1
  3
ACAD_MTEXT_RT
360
F51
  0
IMAGEDEF_REACTOR
  5
C8
330
C7
100
AcDbRasterImageDefReactor
 90
        2
330
C7
  0
DICTIONARY
  5
42F
330
422
100
AcDbDictionary
280
     1
281
     1
  3
ACAD_DIMASSOC
360
439
  0
DICTIONARY
  5
447
330
43A
100
AcDbDictionary
280
     1
281
     1
  3
ACAD_DIMASSOC
360
451
  0
DICTIONARY
  5
A31
330
A24
100
AcDbDictionary
280
     1
281
     1
  3
ACAD_DIMASSOC
360
A3B
  0
DICTIONARY
  5
A49
330
A3C
100
AcDbDictionary
280
     1
281
     1
  3
ACAD_DIMASSOC
360
A53
  0
DICTIONARY
  5
A7E
330
A71
100
AcDbDictionary
280
     1
281
     1
  3
ACAD_DIMASSOC
360
A88
  0
DICTIONARY
  5
B0D
330
B00
100
AcDbDictionary
280
     1
281
     1
  3
ACAD_DIMASSOC
360
B17
  0
DICTIONARY
  5
B25
330
B18
100
AcDbDictionary
280
     1
281
     1
  3
ACAD_DIMASSOC
360
B2F
  0
DICTIONARY
  5
C10
330
C02
100
AcDbDictionary
280
     1
281
     1
  3
ACAD_DIMASSOC
360
C1B
  0
DICTIONARY
  5
CE6
330
CD9
100
AcDbDictionary
280
     1
281
     1
  3
ACAD_DIMASSOC
360
CF0
  0
DICTIONARY
  5
D1F
330
D12
100
AcDbDictionary
280
     1
281
     1
  3
ACAD_DIMASSOC
360
D29
  0
DICTIONARY
  5
F28
102
{ACAD_REACTORS
330
C
102
}
330
C
100
AcDbDictionary
281
     1
  3
DIMARCSYM
350
F29
  3
DIMJOGANG
350
F2A
  3
DIMLTEX1
350
F2C
  3
DIMLTEX2
350
F2D
  3
DIMLTYPE
350
F2B
  0
DICTIONARY
  5
5B
102
{ACAD_REACTORS
330
C
102
}
330
C
100
AcDbDictionary
281
     1
  0
DICTIONARY
  5
D
102
{ACAD_REACTORS
330
C
102
}
330
C
100
AcDbDictionary
281
     1
  0
DICTIONARY
  5
C5
102
{ACAD_REACTORS
330
C
102
}
330
C
100
AcDbDictionary
281
     1
  3
KWGLOGO
350
C6
  0
RASTERVARIABLES
  5
C9
102
{ACAD_REACTORS
330
C
102
}
330
C
100
AcDbRasterVariables
 90
        0
 70
     1
 71
     1
 72
     1
  0
DICTIONARY
  5
5A
102
{ACAD_REACTORS
330
C
102
}
330
C
100
AcDbDictionary
281
     1
  3
Model
350
68
  3
レイアウト1
350
64
  3
レイアウト2
350
6C
  0
DICTIONARY
  5
10
102
{ACAD_REACTORS
330
C
102
}
330
C
100
AcDbDictionary
281
     1
  3
ByBlock
350
19
  3
ByLayer
350
11
  3
Global
350
21
  0
DICTIONARY
  5
5E
102
{ACAD_REACTORS
330
C
102
}
330
C
100
AcDbDictionary
281
     1
  3
Standard
350
5F
  0
DICTIONARY
  5
57
102
{ACAD_REACTORS
330
C
102
}
330
C
100
AcDbDictionary
281
     1
  3
Standard
350
58
  0
DICTIONARY
  5
59
102
{ACAD_REACTORS
330
C
102
}
330
C
100
AcDbDictionary
281
     1
  0
ACDBDICTIONARYWDFLT
  5
E
102
{ACAD_REACTORS
330
C
102
}
330
C
100
AcDbDictionary
281
     1
  3
Normal
350
F
100
AcDbDictionaryWithDefault
340
F
  0
DICTIONARY
  5
3A
102
{ACAD_REACTORS
330
C
102
}
330
C
100
AcDbDictionary
281
     1
  3
A0
350
3B
  3
A1
350
3C
  3
A2
350
3D
  3
A3
350
3E
  3
A4
350
3F
  3
A5
350
40
  3
A6
350
41
  3
A7
350
42
  3
A8
350
43
  3
A9
350
44
  3
B0
350
45
  3
B1
350
46
  3
B2
350
47
  3
B3
350
48
  3
B4
350
49
  3
B5
350
4A
  3
B6
350
4B
  0
DICTIONARY
  5
5C
102
{ACAD_REACTORS
330
C
102
}
330
C
100
AcDbDictionary
281
     1
  3
Standard
350
5D
  3
部品図用
350
9EF
  0
DICTIONARY
  5
29
102
{ACAD_REACTORS
330
C
102
}
330
C
100
AcDbDictionary
281
     1
  3
2dWireframe
350
2F
  3
3D Hidden
350
31
  3
3dWireframe
350
30
  3
Basic
350
2E
  3
Brighten
350
35
  3
ColorChange
350
39
  3
Conceptual
350
32
  3
Dim
350
34
  3
Facepattern
350
38
  3
Flat
350
2A
  3
FlatWithEdges
350
2B
  3
Gouraud
350
2C
  3
GouraudWithEdges
350
2D
  3
Linepattern
350
37
  3
Realistic
350
33
  3
Thicken
350
36
  0
XRECORD
  5
3E8
102
{ACAD_REACTORS
330
C
102
}
330
C
100
AcDbXrecord
280
     1
 90
        1
330
5D
330
9EF
  0
DICTIONARY
  5
3DA
102
{ACAD_REACTORS
330
C
102
}
330
C
100
AcDbDictionary
281
     1
  3
CANNOSCALE
350
3DE
  3
CMLEADERSTYLE
350
3DC
  3
CTABLESTYLE
350
3DB
  3
DIMASSOC
350
3E5
  3
HIDETEXT
350
3E4
  3
INDEXCTL
350
3E3
  3
LAYEREVAL
350
3E0
  3
LAYERNOTIFY
350
3E1
  3
LIGHTINGUNITS
350
3DF
  3
MSLTSCALE
350
3DD
  3
SORTENTS
350
3E2
  0
XRECORD
  5
F27
102
{ACAD_REACTORS
330
C
102
}
330
C
100
AcDbXrecord
280
     1
  1
DWGPROPS COOKIE
  2

  3

  4

  6

  7

  8
PCuser
  9

300
=
301
=
302
=
303
=
304
=
305
=
306
=
307
=
308
=
309
=
 40
0.0708192245370371
 41
2457081.582992141
 42
2457082.39101919
  1

 90
        0
  0
DICTIONARY
  5
9F2
102
{ACAD_REACTORS
330
9F1
102
}
330
9F1
100
AcDbDictionary
281
     1
  0
SORTENTSTABLE
  5
420
102
{ACAD_REACTORS
330
41F
102
}
330
41F
100
AcDbSortentsTable
330
65
331
3BA
  5
3BA
331
BD
  5
BD
331
98
  5
98
331
342
  5
342
331
40D
  5
40D
331
464
  5
464
331
95
  5
95
331
3B7
  5
3B7
331
BA
  5
BA
331
40A
  5
40A
331
92
  5
92
331
3B4
  5
3B4
331
468
  5
469
331
8F
  5
8F
331
3B1
  5
3B1
331
A6
  5
A6
331
B1
  5
B1
331
8C
  5
8C
331
33E
  5
33E
331
A3
  5
A3
331
422
  5
422
331
AE
  5
AE
331
89
  5
89
331
41E
  5
421
331
AB
  5
AB
331
C2
  5
C2
331
9D
  5
9D
331
43A
  5
43A
331
3BF
  5
3BF
331
3BC
  5
3BC
331
9A
  5
9A
331
40F
  5
40F
331
344
  5
344
331
466
  5
468
331
97
  5
97
331
3B9
  5
3B9
331
40C
  5
40C
331
341
  5
341
331
463
  5
463
331
B9
  5
B9
331
94
  5
94
331
3B6
  5
3B6
331
409
  5
409
331
91
  5
91
331
3B3
  5
3B3
331
8E
  5
8E
331
3B0
  5
3B0
331
A5
  5
A5
331
452
  5
452
331
8B
  5
8B
331
B0
  5
B0
331
C7
  5
C7
331
AD
  5
AD
331
88
  5
88
331
421
  5
41D
331
413
  5
413
331
41D
  5
41E
331
C4
  5
C4
331
9F
  5
9F
331
AA
  5
AA
331
9C
  5
9C
331
3BE
  5
3BE
331
C1
  5
C1
331
BE
  5
BE
331
99
  5
99
331
3BB
  5
3BB
331
40E
  5
40E
331
343
  5
343
331
465
  5
466
331
3B8
  5
3B8
331
BB
  5
BB
331
96
  5
96
331
40B
  5
40B
331
340
  5
340
331
93
  5
93
331
3B5
  5
3B5
331
469
  5
465
331
408
  5
408
331
90
  5
90
331
3B2
  5
3B2
331
A7
  5
A7
331
8D
  5
8D
331
33F
  5
33F
331
B2
  5
B2
331
A4
  5
A4
331
AF
  5
AF
331
8A
  5
8A
331
A1
  5
A1
331
AC
  5
AC
331
41C
  5
41C
331
9E
  5
9E
331
C3
  5
C3
331
412
  5
412
331
A9
  5
A9
331
C0
  5
C0
331
9B
  5
9B
331
3BD
  5
3BD
331
345
  5
345
  0
DICTIONARY
  5
F35
102
{ACAD_REACTORS
330
D66
102
}
330
D66
100
AcDbDictionary
280
     1
281
     1
  3
Edit
360
F36
  0
DICTIONARY
  5
F37
102
{ACAD_REACTORS
330
D69
102
}
330
D69
100
AcDbDictionary
280
     1
281
     1
  3
Edit
360
F38
  0
DICTIONARY
  5
F39
102
{ACAD_REACTORS
330
D6C
102
}
330
D6C
100
AcDbDictionary
280
     1
281
     1
  3
Edit
360
F3A
  0
DICTIONARY
  5
F3B
102
{ACAD_REACTORS
330
D6F
102
}
330
D6F
100
AcDbDictionary
280
     1
281
     1
  3
Edit
360
F3C
  0
DICTIONARY
  5
F3D
102
{ACAD_REACTORS
330
D72
102
}
330
D72
100
AcDbDictionary
280
     1
281
     1
  3
Edit
360
F3E
  0
DICTIONARY
  5
F3F
102
{ACAD_REACTORS
330
D75
102
}
330
D75
100
AcDbDictionary
280
     1
281
     1
  3
Edit
360
F40
  0
DICTIONARY
  5
F41
102
{ACAD_REACTORS
330
D78
102
}
330
D78
100
AcDbDictionary
280
     1
281
     1
  3
Edit
360
F42
  0
DICTIONARY
  5
F43
102
{ACAD_REACTORS
330
D7B
102
}
330
D7B
100
AcDbDictionary
280
     1
281
     1
  3
Edit
360
F44
  0
DICTIONARY
  5
F45
102
{ACAD_REACTORS
330
D7E
102
}
330
D7E
100
AcDbDictionary
280
     1
281
     1
  3
Edit
360
F46
  0
DICTIONARY
  5
F47
102
{ACAD_REACTORS
330
D81
102
}
330
D81
100
AcDbDictionary
280
     1
281
     1
  3
Edit
360
F48
  0
DICTIONARY
  5
F49
102
{ACAD_REACTORS
330
D84
102
}
330
D84
100
AcDbDictionary
280
     1
281
     1
  3
Edit
360
F4A
  0
XRECORD
  5
F4F
102
{ACAD_REACTORS
330
F4E
102
}
330
F4E
100
AcDbXrecord
280
     1
 40
5001.0
  1
\A1;\U+220510
  0
XRECORD
  5
F4D
102
{ACAD_REACTORS
330
F4C
102
}
330
F4C
100
AcDbXrecord
280
     1
 40
5774.0
  1
\A1;\U+2205531
  0
XRECORD
  5
F51
102
{ACAD_REACTORS
330
F50
102
}
330
F50
100
AcDbXrecord
280
     1
 40
4425.0
  1
\A1;\U+22055
  0
DIMASSOC
  5
439
102
{ACAD_REACTORS
330
42F
102
}
330
42F
100
AcDbDimAssoc
330
422
 90
        3
 70
     0
 71
     0
  1
AcDbOsnapPointRef
 72
    13
331
41C
 73
     2
 91
        0
 40
0.0
 10
0.0
 20
0.0
 30
2.000000000000000E+50
 75
     0
  1
AcDbOsnapPointRef
 72
    13
331
41D
 73
     2
 91
        0
 40
0.0
 10
0.0
 20
0.0
 30
2.000000000000000E+50
 75
     0
  0
DIMASSOC
  5
451
102
{ACAD_REACTORS
330
447
102
}
330
447
100
AcDbDimAssoc
330
43A
 90
        3
 70
     0
 71
     0
  1
AcDbOsnapPointRef
 72
     1
331
41C
 73
     2
 91
        0
 40
1.0
 10
0.0
 20
0.0
 30
2.000000000000000E+50
 75
     0
  1
AcDbOsnapPointRef
 72
     1
331
41D
 73
     2
 91
        0
 40
1.0
 10
0.0
 20
0.0
 30
2.000000000000000E+50
 75
     0
  0
DIMASSOC
  5
A3B
102
{ACAD_REACTORS
330
A31
102
}
330
A31
100
AcDbDimAssoc
330
A24
 90
        3
 70
     0
 71
     0
  1
AcDbOsnapPointRef
 72
    13
331
40A
 73
     2
 91
        0
 40
0.0
 10
0.0
 20
0.0
 30
2.000000000000000E+50
 75
     0
  1
AcDbOsnapPointRef
 72
    13
331
40D
 73
     2
 91
        0
 40
0.0
 10
0.0
 20
0.0
 30
2.000000000000000E+50
 75
     0
  0
DIMASSOC
  5
A53
102
{ACAD_REACTORS
330
A49
102
}
330
A49
100
AcDbDimAssoc
330
A3C
 90
        3
 70
     0
 71
     0
  1
AcDbOsnapPointRef
 72
    13
331
465
 73
     2
 91
        0
 40
0.0
 10
0.0
 20
0.0
 30
2.000000000000000E+50
 75
     0
  1
AcDbOsnapPointRef
 72
    13
331
466
 73
     2
 91
        0
 40
0.0
 10
0.0
 20
0.0
 30
2.000000000000000E+50
 75
     0
  0
DIMASSOC
  5
A88
102
{ACAD_REACTORS
330
A7E
102
}
330
A7E
100
AcDbDimAssoc
330
A71
 90
        3
 70
     0
 71
     0
  1
AcDbOsnapPointRef
 72
     1
331
465
 73
     2
 91
        0
 40
1.0
 10
0.0
 20
0.0
 30
2.000000000000000E+50
 75
     0
  1
AcDbOsnapPointRef
 72
     1
331
466
 73
     2
 91
        0
 40
1.0
 10
0.0
 20
0.0
 30
2.000000000000000E+50
 75
     0
  0
DIMASSOC
  5
B17
102
{ACAD_REACTORS
330
B0D
102
}
330
B0D
100
AcDbDimAssoc
330
B00
 90
        2
 70
     0
 71
     0
  1
AcDbOsnapPointRef
 72
     3
331
9A7
 73
     2
 91
        0
 40
0.0
 10
0.0
 20
0.0
 30
0.0
 75
     0
  0
DIMASSOC
  5
B2F
102
{ACAD_REACTORS
330
B25
102
}
330
B25
100
AcDbDimAssoc
330
B18
 90
        2
 70
     0
 71
     0
  1
AcDbOsnapPointRef
 72
     3
331
9AA
 73
     2
 91
        0
 40
0.0
 10
0.0
 20
0.0
 30
0.0
 75
     0
  0
DIMASSOC
  5
C1B
102
{ACAD_REACTORS
330
C10
102
}
330
C10
100
AcDbDimAssoc
330
C02
 90
        2
 70
     0
 71
     0
  1
AcDbOsnapPointRef
 72
     8
331
463
 73
     2
 91
        0
 40
0.7777777777777778
 10
0.0
 20
0.0
 30
0.0
 75
     1
  1
AcDbOsnapPointRef
 72
     0
 40
0.0
 10
615.9582015606863
 20
513.234319680822
 30
0.0
 75
     0
  0
DIMASSOC
  5
CF0
102
{ACAD_REACTORS
330
CE6
102
}
330
CE6
100
AcDbDimAssoc
330
CD9
 90
        2
 70
     0
 71
     0
  1
AcDbOsnapPointRef
 72
    13
331
40B
 73
     2
 91
        0
 40
0.0
 10
0.0
 20
0.0
 30
2.000000000000000E+50
 75
     0
  0
DIMASSOC
  5
D29
102
{ACAD_REACTORS
330
D1F
102
}
330
D1F
100
AcDbDimAssoc
330
D12
 90
        3
 70
     0
 71
     0
  1
AcDbOsnapPointRef
 72
     8
331
99E
 73
     2
 91
        0
 40
0.5000000000000002
 10
0.0
 20
0.0
 30
0.0
 75
     1
  1
AcDbOsnapPointRef
 72
     0
 40
0.0
 10
511.9623972666968
 20
622.9086979657747
 30
0.0
 75
     0
  1
AcDbOsnapPointRef
 72
     8
331
99C
 73
     2
 91
        0
 40
0.5
 10
0.0
 20
0.0
 30
0.0
 75
     1
  1
AcDbOsnapPointRef
 72
     8
331
99E
 73
     2
 91
        0
 40
0.5000000000000002
 10
0.0
 20
0.0
 30
0.0
 75
     1
  1
AcDbOsnapPointRef
 72
     0
 40
0.0
 10
511.9623972666968
 20
622.9086979657747
 30
0.0
 75
     0
  0
XRECORD
  5
F29
102
{ACAD_REACTORS
330
F28
102
}
330
F28
100
AcDbXrecord
280
     1
 70
     1
  0
XRECORD
  5
F2A
102
{ACAD_REACTORS
330
F28
102
}
330
F28
100
AcDbXrecord
280
     1
 40
1.570796326794896
  0
XRECORD
  5
F2C
102
{ACAD_REACTORS
330
F28
102
}
330
F28
100
AcDbXrecord
280
     1
340
54
  0
XRECORD
  5
F2D
102
{ACAD_REACTORS
330
F28
102
}
330
F28
100
AcDbXrecord
280
     1
340
54
  0
XRECORD
  5
F2B
102
{ACAD_REACTORS
330
F28
102
}
330
F28
100
AcDbXrecord
280
     1
340
54
  0
IMAGEDEF
  5
C6
102
{ACAD_REACTORS
330
C5
330
C8
102
}
330
C5
100
AcDbRasterImageDef
 90
        0
  1
E:\logo\kwglogo.gif
 10
1000.0
 20
989.0
 11
0.001
 21
0.001
280
     1
281
     0
  0
LAYOUT
  5
68
102
{ACAD_XDICTIONARY
360
F31
102
}
102
{ACAD_REACTORS
330
5A
102
}
330
5A
100
AcDbPlotSettings
  1

  2
LBP3970
  4
A4
  6

 40
5.873749732971191
 41
5.873747825622557
 42
5.873748779296875
 43
5.873748779296875
 44
209.9733276367186
 45
296.9259948730469
 46
0.0
 47
0.0
 48
0.0
 49
0.0
140
0.0
141
0.0
142
1.0
143
6.542998600961611
 70
 11952
 72
     1
 73
     1
 74
     0
  7
monochrome.ctb
 75
     0
147
0.1528351236164153
148
190.4083968023259
149
4.361376834148358
100
AcDbLayout
  1
Model
 70
     1
 71
     0
 10
0.0
 20
0.0
 11
12.0
 21
9.0
 12
0.0
 22
0.0
 32
0.0
 14
0.0
 24
0.0
 34
0.0
 15
0.0
 25
0.0
 35
0.0
146
0.0
 13
0.0
 23
0.0
 33
0.0
 16
1.0
 26
0.0
 36
0.0
 17
0.0
 27
1.0
 37
0.0
 76
     0
330
65
331
4F
1001
ACAD_PSEXT
1000
LBP3970
1000
Canon LBP3920/3970 LIPSLX
1000
IP_192.168.2.220
1000

1070
     0
  0
LAYOUT
  5
64
102
{ACAD_XDICTIONARY
360
F2F
102
}
102
{ACAD_REACTORS
330
5A
102
}
330
5A
100
AcDbPlotSettings
  1

  2
LBP3970
  4

  6

 40
0.0
 41
0.0
 42
0.0
 43
0.0
 44
0.0
 45
0.0
 46
0.0
 47
0.0
 48
0.0
 49
0.0
140
0.0
141
0.0
142
1.0
143
1.0
 70
   688
 72
     0
 73
     0
 74
     5
  7
monochrome.ctb
 75
    16
147
1.0
148
0.0
149
0.0
100
AcDbLayout
  1
レイアウト1
 70
     1
 71
     1
 10
0.0
 20
0.0
 11
420.0
 21
297.0
 12
0.0
 22
0.0
 32
0.0
 14
1.000000000000000E+20
 24
1.000000000000000E+20
 34
1.000000000000000E+20
 15
-1.000000000000000E+20
 25
-1.000000000000000E+20
 35
-1.000000000000000E+20
146
0.0
 13
0.0
 23
0.0
 33
0.0
 16
1.0
 26
0.0
 36
0.0
 17
0.0
 27
1.0
 37
0.0
 76
     0
330
61
  0
LAYOUT
  5
6C
102
{ACAD_XDICTIONARY
360
F33
102
}
102
{ACAD_REACTORS
330
5A
102
}
330
5A
100
AcDbPlotSettings
  1

  2
LBP3970
  4

  6

 40
0.0
 41
0.0
 42
0.0
 43
0.0
 44
0.0
 45
0.0
 46
0.0
 47
0.0
 48
0.0
 49
0.0
140
0.0
141
0.0
142
1.0
143
1.0
 70
   688
 72
     0
 73
     0
 74
     5
  7
monochrome.ctb
 75
    16
147
1.0
148
0.0
149
0.0
100
AcDbLayout
  1
レイアウト2
 70
     1
 71
     2
 10
0.0
 20
0.0
 11
12.0
 21
9.0
 12
0.0
 22
0.0
 32
0.0
 14
0.0
 24
0.0
 34
0.0
 15
0.0
 25
0.0
 35
0.0
146
0.0
 13
0.0
 23
0.0
 33
0.0
 16
1.0
 26
0.0
 36
0.0
 17
0.0
 27
1.0
 37
0.0
 76
     0
330
69
  0
MATERIAL
  5
19
102
{ACAD_XDICTIONARY
360
1A
102
}
102
{ACAD_REACTORS
330
10
102
}
330
10
100
AcDbMaterial
  1
ByBlock
 72
     0
 43
0.0208333333333333
 43
0.0
 43
0.0
 43
0.0
 43
0.0
 43
0.0208333333333333
 43
0.0
 43
0.0
 43
0.0
 43
0.0
 43
1.0
 43
0.0
 43
0.0
 43
0.0
 43
0.0
 43
1.0
 77
     0
 47
0.0208333333333333
 47
0.0
 47
0.0
 47
0.0
 47
0.0
 47
0.0208333333333333
 47
0.0
 47
0.0
 47
0.0
 47
0.0
 47
1.0
 47
0.0
 47
0.0
 47
0.0
 47
0.0
 47
1.0
171
     0
 49
0.0208333333333333
 49
0.0
 49
0.0
 49
0.0
 49
0.0
 49
0.0208333333333333
 49
0.0
 49
0.0
 49
0.0
 49
0.0
 49
1.0
 49
0.0
 49
0.0
 49
0.0
 49
0.0
 49
1.0
175
     0
142
0.0208333333333333
142
0.0
142
0.0
142
0.0
142
0.0
142
0.0208333333333333
142
0.0
142
0.0
142
0.0
142
0.0
142
1.0
142
0.0
142
0.0
142
0.0
142
0.0
142
1.0
179
     0
144
0.0208333333333333
144
0.0
144
0.0
144
0.0
144
0.0
144
0.0208333333333333
144
0.0
144
0.0
144
0.0
144
0.0
144
1.0
144
0.0
144
0.0
144
0.0
144
0.0
144
1.0
147
0.0208333333333333
147
0.0
147
0.0
147
0.0
147
0.0
147
0.0208333333333333
147
0.0
147
0.0
147
0.0
147
0.0
147
1.0
147
0.0
147
0.0
147
0.0
147
0.0
147
1.0
  0
MATERIAL
  5
11
102
{ACAD_XDICTIONARY
360
12
102
}
102
{ACAD_REACTORS
330
10
102
}
330
10
100
AcDbMaterial
  1
ByLayer
 72
     0
 43
0.0208333333333333
 43
0.0
 43
0.0
 43
0.0
 43
0.0
 43
0.0208333333333333
 43
0.0
 43
0.0
 43
0.0
 43
0.0
 43
1.0
 43
0.0
 43
0.0
 43
0.0
 43
0.0
 43
1.0
 77
     0
 47
0.0208333333333333
 47
0.0
 47
0.0
 47
0.0
 47
0.0
 47
0.0208333333333333
 47
0.0
 47
0.0
 47
0.0
 47
0.0
 47
1.0
 47
0.0
 47
0.0
 47
0.0
 47
0.0
 47
1.0
171
     0
 49
0.0208333333333333
 49
0.0
 49
0.0
 49
0.0
 49
0.0
 49
0.0208333333333333
 49
0.0
 49
0.0
 49
0.0
 49
0.0
 49
1.0
 49
0.0
 49
0.0
 49
0.0
 49
0.0
 49
1.0
175
     0
142
0.0208333333333333
142
0.0
142
0.0
142
0.0
142
0.0
142
0.0208333333333333
142
0.0
142
0.0
142
0.0
142
0.0
142
1.0
142
0.0
142
0.0
142
0.0
142
0.0
142
1.0
179
     0
144
0.0208333333333333
144
0.0
144
0.0
144
0.0
144
0.0
144
0.0208333333333333
144
0.0
144
0.0
144
0.0
144
0.0
144
1.0
144
0.0
144
0.0
144
0.0
144
0.0
144
1.0
147
0.0208333333333333
147
0.0
147
0.0
147
0.0
147
0.0
147
0.0208333333333333
147
0.0
147
0.0
147
0.0
147
0.0
147
1.0
147
0.0
147
0.0
147
0.0
147
0.0
147
1.0
  0
MATERIAL
  5
21
102
{ACAD_XDICTIONARY
360
22
102
}
102
{ACAD_REACTORS
330
10
102
}
330
10
100
AcDbMaterial
  1
Global
 72
     0
 43
0.0208333333333333
 43
0.0
 43
0.0
 43
0.0
 43
0.0
 43
0.0208333333333333
 43
0.0
 43
0.0
 43
0.0
 43
0.0
 43
1.0
 43
0.0
 43
0.0
 43
0.0
 43
0.0
 43
1.0
 77
     0
 47
0.0208333333333333
 47
0.0
 47
0.0
 47
0.0
 47
0.0
 47
0.0208333333333333
 47
0.0
 47
0.0
 47
0.0
 47
0.0
 47
1.0
 47
0.0
 47
0.0
 47
0.0
 47
0.0
 47
1.0
171
     0
 49
0.0208333333333333
 49
0.0
 49
0.0
 49
0.0
 49
0.0
 49
0.0208333333333333
 49
0.0
 49
0.0
 49
0.0
 49
0.0
 49
1.0
 49
0.0
 49
0.0
 49
0.0
 49
0.0
 49
1.0
175
     0
142
0.0208333333333333
142
0.0
142
0.0
142
0.0
142
0.0
142
0.0208333333333333
142
0.0
142
0.0
142
0.0
142
0.0
142
1.0
142
0.0
142
0.0
142
0.0
142
0.0
142
1.0
179
     0
144
0.0208333333333333
144
0.0
144
0.0
144
0.0
144
0.0
144
0.0208333333333333
144
0.0
144
0.0
144
0.0
144
0.0
144
1.0
144
0.0
144
0.0
144
0.0
144
0.0
144
1.0
147
0.0208333333333333
147
0.0
147
0.0
147
0.0
147
0.0
147
0.0208333333333333
147
0.0
147
0.0
147
0.0
147
0.0
147
1.0
147
0.0
147
0.0
147
0.0
147
0.0
147
1.0
  0
MLEADERSTYLE
  5
5F
102
{ACAD_REACTORS
330
5E
102
}
330
5E
100
AcDbMLeaderStyle
170
     2
171
     1
172
     0
 90
        2
 40
0.0
 41
0.0
173
     1
 91
-1056964608
340
53
 92
       -2
290
     1
 42
0.09
291
     1
 43
0.36
  3
Standard
 44
0.18
300

342
4D
174
     1
178
     6
175
     1
176
     0
 93
-1056964608
 45
0.18
292
     0
297
     0
 46
0.18
 94
-1056964608
 47
1.0
 49
1.0
140
1.0
293
     1
141
0.0
294
     1
177
     0
142
1.0
295
     0
296
     0
143
0.125
1001
ACAD_MLEADERVER
1070
     2
  0
MLINESTYLE
  5
58
102
{ACAD_REACTORS
330
57
102
}
330
57
100
AcDbMlineStyle
  2
STANDARD
 70
     0
  3

 62
   256
 51
90.0
 52
90.0
 71
     2
 49
0.5
 62
   256
  6
BYLAYER
 49
-0.5
 62
   256
  6
BYLAYER
  0
ACDBPLACEHOLDER
  5
F
102
{ACAD_REACTORS
330
E
102
}
330
E
  0
SCALE
  5
3B
102
{ACAD_REACTORS
330
3A
102
}
330
3A
100
AcDbScale
 70
     0
300
1:1
140
1.0
141
1.0
290
     1
  0
SCALE
  5
3C
102
{ACAD_REACTORS
330
3A
102
}
330
3A
100
AcDbScale
 70
     0
300
1:2
140
1.0
141
2.0
290
     0
  0
SCALE
  5
3D
102
{ACAD_REACTORS
330
3A
102
}
330
3A
100
AcDbScale
 70
     0
300
1:4
140
1.0
141
4.0
290
     0
  0
SCALE
  5
3E
102
{ACAD_REACTORS
330
3A
102
}
330
3A
100
AcDbScale
 70
     0
300
1:5
140
1.0
141
5.0
290
     0
  0
SCALE
  5
3F
102
{ACAD_REACTORS
330
3A
102
}
330
3A
100
AcDbScale
 70
     0
300
1:8
140
1.0
141
8.0
290
     0
  0
SCALE
  5
40
102
{ACAD_REACTORS
330
3A
102
}
330
3A
100
AcDbScale
 70
     0
300
1:10
140
1.0
141
10.0
290
     0
  0
SCALE
  5
41
102
{ACAD_REACTORS
330
3A
102
}
330
3A
100
AcDbScale
 70
     0
300
1:16
140
1.0
141
16.0
290
     0
  0
SCALE
  5
42
102
{ACAD_REACTORS
330
3A
102
}
330
3A
100
AcDbScale
 70
     0
300
1:20
140
1.0
141
20.0
290
     0
  0
SCALE
  5
43
102
{ACAD_REACTORS
330
3A
102
}
330
3A
100
AcDbScale
 70
     0
300
1:30
140
1.0
141
30.0
290
     0
  0
SCALE
  5
44
102
{ACAD_REACTORS
330
3A
102
}
330
3A
100
AcDbScale
 70
     0
300
1:40
140
1.0
141
40.0
290
     0
  0
SCALE
  5
45
102
{ACAD_REACTORS
330
3A
102
}
330
3A
100
AcDbScale
 70
     0
300
1:50
140
1.0
141
50.0
290
     0
  0
SCALE
  5
46
102
{ACAD_REACTORS
330
3A
102
}
330
3A
100
AcDbScale
 70
     0
300
1:100
140
1.0
141
100.0
290
     0
  0
SCALE
  5
47
102
{ACAD_REACTORS
330
3A
102
}
330
3A
100
AcDbScale
 70
     0
300
2:1
140
2.0
141
1.0
290
     0
  0
SCALE
  5
48
102
{ACAD_REACTORS
330
3A
102
}
330
3A
100
AcDbScale
 70
     0
300
4:1
140
4.0
141
1.0
290
     0
  0
SCALE
  5
49
102
{ACAD_REACTORS
330
3A
102
}
330
3A
100
AcDbScale
 70
     0
300
8:1
140
8.0
141
1.0
290
     0
  0
SCALE
  5
4A
102
{ACAD_REACTORS
330
3A
102
}
330
3A
100
AcDbScale
 70
     0
300
10:1
140
10.0
141
1.0
290
     0
  0
SCALE
  5
4B
102
{ACAD_REACTORS
330
3A
102
}
330
3A
100
AcDbScale
 70
     0
300
100:1
140
100.0
141
1.0
290
     0
  0
TABLESTYLE
  5
5D
102
{ACAD_XDICTIONARY
360
3E6
102
}
102
{ACAD_REACTORS
330
5C
102
}
330
5C
100
AcDbTableStyle
  3
Standard
 70
     0
 71
     0
 40
1.5
 41
1.5
280
     0
281
     0
  7
Standard
140
4.5
170
     2
 62
     0
 63
     7
283
     0
274
    -2
284
     1
 64
     0
275
    -2
285
     1
 65
     0
276
    -2
286
     1
 66
     0
277
    -2
287
     1
 67
     0
278
    -2
288
     1
 68
     0
279
    -2
289
     1
 69
     0
  7
Standard
140
6.0
170
     5
 62
     0
 63
     7
283
     0
274
    -2
284
     1
 64
     0
275
    -2
285
     1
 65
     0
276
    -2
286
     1
 66
     0
277
    -2
287
     1
 67
     0
278
    -2
288
     1
 68
     0
279
    -2
289
     1
 69
     0
  7
Standard
140
4.5
170
     5
 62
     0
 63
     7
283
     0
274
    -2
284
     1
 64
     0
275
    -2
285
     1
 65
     0
276
    -2
286
     1
 66
     0
277
    -2
287
     1
 67
     0
278
    -2
288
     1
 68
     0
279
    -2
289
     1
 69
     0
  0
TABLESTYLE
  5
9EF
102
{ACAD_XDICTIONARY
360
9F0
102
}
102
{ACAD_REACTORS
330
5C
102
}
330
5C
100
AcDbTableStyle
  3
Standard
 70
     1
 71
     2
 40
1.5
 41
1.5
280
     0
281
     0
  7
Standard
140
3.2
170
     5
 62
     0
 63
     7
283
     0
274
    -2
284
     1
 64
     0
275
    -2
285
     1
 65
     0
276
    -2
286
     1
 66
     0
277
    -2
287
     1
 67
     0
278
    -2
288
     1
 68
     0
279
    -2
289
     1
 69
     0
  7
Standard
140
6.0
170
     5
 62
     0
 63
     7
283
     0
274
    -2
284
     1
 64
     0
275
    -2
285
     1
 65
     0
276
    -2
286
     1
 66
     0
277
    -2
287
     1
 67
     0
278
    -2
288
     1
 68
     0
279
    -2
289
     1
 69
     0
  7
Standard
140
3.2
170
     5
 62
     0
 63
     7
283
     0
274
    -2
284
     1
 64
     0
275
    -2
285
     1
 65
     0
276
    -2
286
     1
 66
     0
277
    -2
287
     1
 67
     0
278
    -2
288
     1
 68
     0
279
    -2
289
     1
 69
     0
  0
VISUALSTYLE
  5
2F
102
{ACAD_REACTORS
330
29
102
}
330
29
100
AcDbVisualStyle
  2
2dWireframe
 70
     4
 71
     0
 72
     2
 73
     0
 90
        0
 40
-0.6
 41
-30.0
 62
     5
 63
     7
 74
     1
 91
        4
 64
     7
 65
   257
 75
     1
175
     1
 42
1.0
 92
        0
 66
   257
 43
1.0
 76
     1
 77
     6
 78
     2
 67
     7
 79
     5
170
     0
171
     0
290
     0
174
     0
 93
        1
 44
0.0
173
     0
291
     0
 45
0.0
1001
ACAD
1000
AcDbSavedByObjectVersion
1070
     0
1000
AcDbSavedByObjectVersion
1070
     0
1000
AcDbSavedByObjectVersion
1070
     0
1000
AcDbSavedByObjectVersion
1070
     0
  0
VISUALSTYLE
  5
31
102
{ACAD_REACTORS
330
29
102
}
330
29
100
AcDbVisualStyle
  2
3D Hidden
 70
     6
 71
     1
 72
     2
 73
     2
 90
        0
 40
-0.6
 41
-30.0
 62
     5
 63
     7
 74
     2
 91
        2
 64
     7
 65
   257
 75
     2
175
     1
 42
40.0
 92
        0
 66
   257
 43
1.0
 76
     1
 77
     6
 78
     2
 67
     7
 79
     3
170
     0
171
     0
290
     0
174
     0
 93
        1
 44
0.0
173
     0
291
     0
 45
0.0
1001
ACAD
1000
AcDbSavedByObjectVersion
1070
     0
1000
AcDbSavedByObjectVersion
1070
     0
1000
AcDbSavedByObjectVersion
1070
     0
1000
AcDbSavedByObjectVersion
1070
     0
  0
VISUALSTYLE
  5
30
102
{ACAD_REACTORS
330
29
102
}
330
29
100
AcDbVisualStyle
  2
3dWireframe
 70
     5
 71
     0
 72
     2
 73
     0
 90
        0
 40
-0.6
 41
-30.0
 62
     5
 63
     7
 74
     1
 91
        4
 64
     7
 65
   257
 75
     1
175
     1
 42
1.0
 92
        0
 66
   257
 43
1.0
 76
     1
 77
     6
 78
     2
 67
     7
 79
     5
170
     0
171
     0
290
     0
174
     0
 93
        1
 44
0.0
173
     0
291
     0
 45
0.0
1001
ACAD
1000
AcDbSavedByObjectVersion
1070
     0
1000
AcDbSavedByObjectVersion
1070
     0
1000
AcDbSavedByObjectVersion
1070
     0
1000
AcDbSavedByObjectVersion
1070
     0
  0
VISUALSTYLE
  5
2E
102
{ACAD_REACTORS
330
29
102
}
330
29
100
AcDbVisualStyle
  2
Basic
 70
     7
 71
     1
 72
     0
 73
     1
 90
        0
 40
-0.6
 41
-30.0
 62
     5
 63
     7
 74
     0
 91
        4
 64
     7
 65
   257
 75
     1
175
     1
 42
1.0
 92
        8
 66
     7
 43
1.0
 76
     1
 77
     6
 78
     2
 67
     7
 79
     5
170
     0
171
     0
290
     0
174
     0
 93
        1
 44
0.0
173
     0
291
     1
 45
0.0
1001
ACAD
1000
AcDbSavedByObjectVersion
1070
     0
1000
AcDbSavedByObjectVersion
1070
     0
1000
AcDbSavedByObjectVersion
1070
     0
1000
AcDbSavedByObjectVersion
1070
     0
  0
VISUALSTYLE
  5
35
102
{ACAD_REACTORS
330
29
102
}
330
29
100
AcDbVisualStyle
  2
Brighten
 70
    12
 71
     2
 72
     2
 73
     0
 90
        0
 40
-0.6
 41
-30.0
 62
     5
 63
     7
 74
     1
 91
        4
 64
     7
 65
   257
 75
     1
175
     1
 42
1.0
 92
        8
 66
     7
 43
1.0
 76
     1
 77
     6
 78
     2
 67
     7
 79
     5
170
     0
171
     0
290
     0
174
     0
 93
        1
 44
50.0
173
     0
291
     1
 45
0.0
1001
ACAD
1000
AcDbSavedByObjectVersion
1070
     0
1000
AcDbSavedByObjectVersion
1070
     0
1000
AcDbSavedByObjectVersion
1070
     0
1000
AcDbSavedByObjectVersion
1070
     0
  0
VISUALSTYLE
  5
39
102
{ACAD_REACTORS
330
29
102
}
330
29
100
AcDbVisualStyle
  2
ColorChange
 70
    16
 71
     2
 72
     2
 73
     3
 90
        0
 40
-0.6
 41
-30.0
 62
     5
 63
     8
 74
     1
 91
        4
 64
     7
 65
   257
 75
     1
175
     1
 42
1.0
 92
        8
 66
     8
 43
1.0
 76
     1
 77
     6
 78
     2
 67
     7
 79
     5
170
     0
171
     0
290
     0
174
     0
 93
        1
 44
0.0
173
     0
291
     1
 45
0.0
1001
ACAD
1000
AcDbSavedByObjectVersion
1070
     0
1000
AcDbSavedByObjectVersion
1070
     0
1000
AcDbSavedByObjectVersion
1070
     0
1000
AcDbSavedByObjectVersion
1070
     0
  0
VISUALSTYLE
  5
32
102
{ACAD_REACTORS
330
29
102
}
330
29
100
AcDbVisualStyle
  2
Conceptual
 70
     9
 71
     3
 72
     2
 73
     0
 90
        0
 40
-0.6
 41
-30.0
 62
     5
 63
     7
 74
     2
 91
        2
 64
     7
 65
   257
 75
     1
175
     1
 42
40.0
 92
        8
 66
     7
 43
1.0
 76
     1
 77
     6
 78
     2
 67
     7
 79
     3
170
     0
171
     0
290
     0
174
     0
 93
        1
 44
0.0
173
     0
291
     0
 45
0.0
1001
ACAD
1000
AcDbSavedByObjectVersion
1070
     0
1000
AcDbSavedByObjectVersion
1070
     0
1000
AcDbSavedByObjectVersion
1070
     0
1000
AcDbSavedByObjectVersion
1070
     0
  0
VISUALSTYLE
  5
34
102
{ACAD_REACTORS
330
29
102
}
330
29
100
AcDbVisualStyle
  2
Dim
 70
    11
 71
     2
 72
     2
 73
     0
 90
        0
 40
-0.6
 41
-30.0
 62
     5
 63
     7
 74
     1
 91
        4
 64
     7
 65
   257
 75
     1
175
     1
 42
1.0
 92
        8
 66
     7
 43
1.0
 76
     1
 77
     6
 78
     2
 67
     7
 79
     5
170
     0
171
     0
290
     0
174
     0
 93
        1
 44
-50.0
173
     0
291
     1
 45
0.0
1001
ACAD
1000
AcDbSavedByObjectVersion
1070
     0
1000
AcDbSavedByObjectVersion
1070
     0
1000
AcDbSavedByObjectVersion
1070
     0
1000
AcDbSavedByObjectVersion
1070
     0
  0
VISUALSTYLE
  5
38
102
{ACAD_REACTORS
330
29
102
}
330
29
100
AcDbVisualStyle
  2
Facepattern
 70
    15
 71
     2
 72
     2
 73
     0
 90
        0
 40
-0.6
 41
-30.0
 62
     5
 63
     7
 74
     1
 91
        4
 64
     7
 65
   257
 75
     1
175
     1
 42
1.0
 92
        8
 66
     7
 43
1.0
 76
     1
 77
     6
 78
     2
 67
     7
 79
     5
170
     0
171
     0
290
     0
174
     0
 93
        1
 44
0.0
173
     0
291
     1
 45
0.0
1001
ACAD
1000
AcDbSavedByObjectVersion
1070
     0
1000
AcDbSavedByObjectVersion
1070
     0
1000
AcDbSavedByObjectVersion
1070
     0
1000
AcDbSavedByObjectVersion
1070
     0
  0
VISUALSTYLE
  5
2A
102
{ACAD_REACTORS
330
29
102
}
330
29
100
AcDbVisualStyle
  2
Flat
 70
     0
 71
     2
 72
     1
 73
     1
 90
        2
 40
-0.6
 41
30.0
 62
     5
 63
     7
 74
     0
 91
        4
 64
     7
 65
   257
 75
     1
175
     1
 42
1.0
 92
        8
 66
     7
 43
1.0
 76
     1
 77
     6
 78
     2
 67
     7
 79
     5
170
     0
171
     0
290
     0
174
     0
 93
       13
 44
0.0
173
     0
291
     1
 45
0.0
1001
ACAD
1000
AcDbSavedByObjectVersion
1070
     0
1000
AcDbSavedByObjectVersion
1070
     0
1000
AcDbSavedByObjectVersion
1070
     0
1000
AcDbSavedByObjectVersion
1070
     0
  0
VISUALSTYLE
  5
2B
102
{ACAD_REACTORS
330
29
102
}
330
29
100
AcDbVisualStyle
  2
FlatWithEdges
 70
     1
 71
     2
 72
     1
 73
     1
 90
        2
 40
-0.6
 41
30.0
 62
     5
 63
     7
 74
     1
 91
        4
 64
     7
 65
   257
 75
     1
175
     1
 42
1.0
 92
        0
 66
   257
 43
1.0
 76
     1
 77
     6
 78
     2
 67
     7
 79
     5
170
     0
171
     0
290
     0
174
     0
 93
       13
 44
0.0
173
     0
291
     1
 45
0.0
1001
ACAD
1000
AcDbSavedByObjectVersion
1070
     0
1000
AcDbSavedByObjectVersion
1070
     0
1000
AcDbSavedByObjectVersion
1070
     0
1000
AcDbSavedByObjectVersion
1070
     0
  0
VISUALSTYLE
  5
2C
102
{ACAD_REACTORS
330
29
102
}
330
29
100
AcDbVisualStyle
  2
Gouraud
 70
     2
 71
     2
 72
     2
 73
     1
 90
        2
 40
-0.6
 41
30.0
 62
     5
 63
     7
 74
     0
 91
        4
 64
     7
 65
   257
 75
     1
175
     1
 42
1.0
 92
        0
 66
     7
 43
1.0
 76
     1
 77
     6
 78
     2
 67
     7
 79
     5
170
     0
171
     0
290
     0
174
     0
 93
       13
 44
0.0
173
     0
291
     1
 45
0.0
1001
ACAD
1000
AcDbSavedByObjectVersion
1070
     0
1000
AcDbSavedByObjectVersion
1070
     0
1000
AcDbSavedByObjectVersion
1070
     0
1000
AcDbSavedByObjectVersion
1070
     0
  0
VISUALSTYLE
  5
2D
102
{ACAD_REACTORS
330
29
102
}
330
29
100
AcDbVisualStyle
  2
GouraudWithEdges
 70
     3
 71
     2
 72
     2
 73
     1
 90
        2
 40
-0.6
 41
30.0
 62
     5
 63
     7
 74
     1
 91
        4
 64
     7
 65
   257
 75
     1
175
     1
 42
1.0
 92
        0
 66
   257
 43
1.0
 76
     1
 77
     6
 78
     2
 67
     7
 79
     5
170
     0
171
     0
290
     0
174
     0
 93
       13
 44
0.0
173
     0
291
     1
 45
0.0
1001
ACAD
1000
AcDbSavedByObjectVersion
1070
     0
1000
AcDbSavedByObjectVersion
1070
     0
1000
AcDbSavedByObjectVersion
1070
     0
1000
AcDbSavedByObjectVersion
1070
     0
  0
VISUALSTYLE
  5
37
102
{ACAD_REACTORS
330
29
102
}
330
29
100
AcDbVisualStyle
  2
Linepattern
 70
    14
 71
     2
 72
     2
 73
     0
 90
        0
 40
-0.6
 41
-30.0
 62
     5
 63
     7
 74
     1
 91
        4
 64
     7
 65
   257
 75
     7
175
     7
 42
1.0
 92
        8
 66
     7
 43
1.0
 76
     1
 77
     6
 78
     2
 67
     7
 79
     5
170
     0
171
     0
290
     0
174
     0
 93
        1
 44
0.0
173
     0
291
     1
 45
0.0
1001
ACAD
1000
AcDbSavedByObjectVersion
1070
     0
1000
AcDbSavedByObjectVersion
1070
     0
1000
AcDbSavedByObjectVersion
1070
     0
1000
AcDbSavedByObjectVersion
1070
     0
  0
VISUALSTYLE
  5
33
102
{ACAD_REACTORS
330
29
102
}
330
29
100
AcDbVisualStyle
  2
Realistic
 70
     8
 71
     2
 72
     2
 73
     0
 90
        0
 40
-0.6
 41
-30.0
 62
     5
 63
     7
 74
     1
 91
        0
 64
     7
 65
   257
 75
     1
175
     1
 42
1.0
 92
        8
 66
     8
 43
1.0
 76
     1
 77
     6
 78
     2
 67
     7
 79
     5
170
     0
171
     0
290
     0
174
     0
 93
       13
 44
0.0
173
     0
291
     0
 45
0.0
1001
ACAD
1000
AcDbSavedByObjectVersion
1070
     0
1000
AcDbSavedByObjectVersion
1070
     0
1000
AcDbSavedByObjectVersion
1070
     0
1000
AcDbSavedByObjectVersion
1070
     0
  0
VISUALSTYLE
  5
36
102
{ACAD_REACTORS
330
29
102
}
330
29
100
AcDbVisualStyle
  2
Thicken
 70
    13
 71
     2
 72
     2
 73
     0
 90
        0
 40
-0.6
 41
-30.0
 62
     5
 63
     7
 74
     1
 91
        4
 64
     7
 65
   257
 75
     1
175
     1
 42
1.0
 92
       12
 66
     7
 43
1.0
 76
     1
 77
     6
 78
     2
 67
     7
 79
     5
170
     0
171
     0
290
     0
174
     0
 93
        1
 44
0.0
173
     0
291
     1
 45
0.0
1001
ACAD
1000
AcDbSavedByObjectVersion
1070
     0
1000
AcDbSavedByObjectVersion
1070
     0
1000
AcDbSavedByObjectVersion
1070
     0
1000
AcDbSavedByObjectVersion
1070
     0
  0
DICTIONARYVAR
  5
3DE
102
{ACAD_REACTORS
330
3DA
102
}
330
3DA
100
DictionaryVariables
280
     0
  1
1:1
  0
DICTIONARYVAR
  5
3DC
102
{ACAD_REACTORS
330
3DA
102
}
330
3DA
100
DictionaryVariables
280
     0
  1
STANDARD
  0
DICTIONARYVAR
  5
3DB
102
{ACAD_REACTORS
330
3DA
102
}
330
3DA
100
DictionaryVariables
280
     0
  1
STANDARD
  0
DICTIONARYVAR
  5
3E5
102
{ACAD_REACTORS
330
3DA
102
}
330
3DA
100
DictionaryVariables
280
     0
  1
2
  0
DICTIONARYVAR
  5
3E4
102
{ACAD_REACTORS
330
3DA
102
}
330
3DA
100
DictionaryVariables
280
     0
  1
1
  0
DICTIONARYVAR
  5
3E3
102
{ACAD_REACTORS
330
3DA
102
}
330
3DA
100
DictionaryVariables
280
     0
  1
0
  0
DICTIONARYVAR
  5
3E0
102
{ACAD_REACTORS
330
3DA
102
}
330
3DA
100
DictionaryVariables
280
     0
  1
0
  0
DICTIONARYVAR
  5
3E1
102
{ACAD_REACTORS
330
3DA
102
}
330
3DA
100
DictionaryVariables
280
     0
  1
0
  0
DICTIONARYVAR
  5
3DF
102
{ACAD_REACTORS
330
3DA
102
}
330
3DA
100
DictionaryVariables
280
     0
  1
2
  0
DICTIONARYVAR
  5
3DD
102
{ACAD_REACTORS
330
3DA
102
}
330
3DA
100
DictionaryVariables
280
     0
  1
1
  0
DICTIONARYVAR
  5
3E2
102
{ACAD_REACTORS
330
3DA
102
}
330
3DA
100
DictionaryVariables
280
     0
  1
127
  0
XRECORD
  5
F36
102
{ACAD_REACTORS
330
F35
102
}
330
F35
100
AcDbXrecord
280
     1
1070
     0
1070
     1
1070
     1
  0
XRECORD
  5
F38
102
{ACAD_REACTORS
330
F37
102
}
330
F37
100
AcDbXrecord
280
     1
1070
     0
1070
     1
1070
     1
  0
XRECORD
  5
F3A
102
{ACAD_REACTORS
330
F39
102
}
330
F39
100
AcDbXrecord
280
     1
1070
     0
1070
     1
1070
     1
  0
XRECORD
  5
F3C
102
{ACAD_REACTORS
330
F3B
102
}
330
F3B
100
AcDbXrecord
280
     1
1070
     0
1070
     1
1070
     1
  0
XRECORD
  5
F3E
102
{ACAD_REACTORS
330
F3D
102
}
330
F3D
100
AcDbXrecord
280
     1
1070
     0
1070
     1
1070
     1
  0
XRECORD
  5
F40
102
{ACAD_REACTORS
330
F3F
102
}
330
F3F
100
AcDbXrecord
280
     1
1070
     0
1070
     1
1070
     1
  0
XRECORD
  5
F42
102
{ACAD_REACTORS
330
F41
102
}
330
F41
100
AcDbXrecord
280
     1
1070
     0
1070
     1
1070
     1
  0
XRECORD
  5
F44
102
{ACAD_REACTORS
330
F43
102
}
330
F43
100
AcDbXrecord
280
     1
1070
     0
1070
     1
1070
     1
  0
XRECORD
  5
F46
102
{ACAD_REACTORS
330
F45
102
}
330
F45
100
AcDbXrecord
280
     1
1070
     0
1070
     1
1070
     1
  0
XRECORD
  5
F48
102
{ACAD_REACTORS
330
F47
102
}
330
F47
100
AcDbXrecord
280
     1
1070
     0
1070
     1
1070
     1
  0
XRECORD
  5
F4A
102
{ACAD_REACTORS
330
F49
102
}
330
F49
100
AcDbXrecord
280
     1
1070
     0
1070
     1
1070
     1
  0
DICTIONARY
  5
F31
330
68
100
AcDbDictionary
280
     1
281
     1
  3
ACAD_XREC_ROUNDTRIP
360
F32
  0
DICTIONARY
  5
F2F
330
64
100
AcDbDictionary
280
     1
281
     1
  3
ACAD_XREC_ROUNDTRIP
360
F30
  0
DICTIONARY
  5
F33
330
6C
100
AcDbDictionary
280
     1
281
     1
  3
ACAD_XREC_ROUNDTRIP
360
F34
  0
DICTIONARY
  5
1A
330
19
100
AcDbDictionary
280
     1
281
     1
  3
ACAD_XREC_ROUNDTRIP
360
3EC
  3
BUMPTILE
360
1C
  3
DIFFUSETILE
360
1B
  3
OPACITYTILE
360
1F
  3
REFLECTIONTILE
360
1E
  3
REFRACTIONTILE
360
20
  3
SPECULARTILE
360
1D
  0
DICTIONARY
  5
12
330
11
100
AcDbDictionary
280
     1
281
     1
  3
ACAD_XREC_ROUNDTRIP
360
3EB
  3
BUMPTILE
360
14
  3
DIFFUSETILE
360
13
  3
OPACITYTILE
360
17
  3
REFLECTIONTILE
360
16
  3
REFRACTIONTILE
360
18
  3
SPECULARTILE
360
15
  0
DICTIONARY
  5
22
330
21
100
AcDbDictionary
280
     1
281
     1
  3
ACAD_XREC_ROUNDTRIP
360
3ED
  3
BUMPTILE
360
24
  3
DIFFUSETILE
360
23
  3
OPACITYTILE
360
27
  3
REFLECTIONTILE
360
26
  3
REFRACTIONTILE
360
28
  3
SPECULARTILE
360
25
  0
DICTIONARY
  5
3E6
330
5D
100
AcDbDictionary
280
     1
281
     1
  3
ACAD_ROUNDTRIP_2008_TABLESTYLE_CELLSTYLEMAP
360
F25
  3
ACAD_XREC_ROUNDTRIP
360
F2E
  0
DICTIONARY
  5
9F0
330
9EF
100
AcDbDictionary
280
     1
281
     1
  3
ACAD_ROUNDTRIP_2008_TABLESTYLE_CELLSTYLEMAP
360
F26
  3
ACAD_XREC_ROUNDTRIP
360
F4B
  0
XRECORD
  5
F32
102
{ACAD_REACTORS
330
F31
102
}
330
F31
100
AcDbXrecord
280
     1
102
SHADEPLOT
 70
     0
102
SHADEPLOTRESLEVEL
 70
     2
102
SHADEPLOTCUSTOMDPI
 70
   300
  0
XRECORD
  5
F30
102
{ACAD_REACTORS
330
F2F
102
}
330
F2F
100
AcDbXrecord
280
     1
102
SHADEPLOT
 70
     0
102
SHADEPLOTRESLEVEL
 70
     2
102
SHADEPLOTCUSTOMDPI
 70
   300
  0
XRECORD
  5
F34
102
{ACAD_REACTORS
330
F33
102
}
330
F33
100
AcDbXrecord
280
     1
102
SHADEPLOT
 70
     0
102
SHADEPLOTRESLEVEL
 70
     2
102
SHADEPLOTCUSTOMDPI
 70
   300
  0
XRECORD
  5
3EC
102
{ACAD_REACTORS
330
1A
102
}
330
1A
100
AcDbXrecord
280
     1
102
MATERIAL
148
0.0
149
0.0
149
0.0
 93
        0
 94
      127
282
     0
 72
     0
 77
     0
171
     0
175
     0
179
     0
273
     0
  0
XRECORD
  5
1C
102
{ACAD_REACTORS
330
1A
102
}
330
1A
100
AcDbXrecord
280
     1
270
     1
271
     1
  0
XRECORD
  5
1B
102
{ACAD_REACTORS
330
1A
102
}
330
1A
100
AcDbXrecord
280
     1
270
     1
271
     1
  0
XRECORD
  5
1F
102
{ACAD_REACTORS
330
1A
102
}
330
1A
100
AcDbXrecord
280
     1
270
     1
271
     1
  0
XRECORD
  5
1E
102
{ACAD_REACTORS
330
1A
102
}
330
1A
100
AcDbXrecord
280
     1
270
     1
271
     1
  0
XRECORD
  5
20
102
{ACAD_REACTORS
330
1A
102
}
330
1A
100
AcDbXrecord
280
     1
270
     1
271
     1
  0
XRECORD
  5
1D
102
{ACAD_REACTORS
330
1A
102
}
330
1A
100
AcDbXrecord
280
     1
270
     1
271
     1
  0
XRECORD
  5
3EB
102
{ACAD_REACTORS
330
12
102
}
330
12
100
AcDbXrecord
280
     1
102
MATERIAL
148
0.0
149
0.0
149
0.0
 93
        0
 94
      127
282
     0
 72
     0
 77
     0
171
     0
175
     0
179
     0
273
     0
  0
XRECORD
  5
14
102
{ACAD_REACTORS
330
12
102
}
330
12
100
AcDbXrecord
280
     1
270
     1
271
     1
  0
XRECORD
  5
13
102
{ACAD_REACTORS
330
12
102
}
330
12
100
AcDbXrecord
280
     1
270
     1
271
     1
  0
XRECORD
  5
17
102
{ACAD_REACTORS
330
12
102
}
330
12
100
AcDbXrecord
280
     1
270
     1
271
     1
  0
XRECORD
  5
16
102
{ACAD_REACTORS
330
12
102
}
330
12
100
AcDbXrecord
280
     1
270
     1
271
     1
  0
XRECORD
  5
18
102
{ACAD_REACTORS
330
12
102
}
330
12
100
AcDbXrecord
280
     1
270
     1
271
     1
  0
XRECORD
  5
15
102
{ACAD_REACTORS
330
12
102
}
330
12
100
AcDbXrecord
280
     1
270
     1
271
     1
  0
XRECORD
  5
3ED
102
{ACAD_REACTORS
330
22
102
}
330
22
100
AcDbXrecord
280
     1
102
MATERIAL
148
0.0
149
0.0
149
0.0
 93
        0
 94
      127
282
     0
 72
     0
 77
     0
171
     0
175
     0
179
     0
273
     0
  0
XRECORD
  5
24
102
{ACAD_REACTORS
330
22
102
}
330
22
100
AcDbXrecord
280
     1
270
     1
271
     1
  0
XRECORD
  5
23
102
{ACAD_REACTORS
330
22
102
}
330
22
100
AcDbXrecord
280
     1
270
     1
271
     1
  0
XRECORD
  5
27
102
{ACAD_REACTORS
330
22
102
}
330
22
100
AcDbXrecord
280
     1
270
     1
271
     1
  0
XRECORD
  5
26
102
{ACAD_REACTORS
330
22
102
}
330
22
100
AcDbXrecord
280
     1
270
     1
271
     1
  0
XRECORD
  5
28
102
{ACAD_REACTORS
330
22
102
}
330
22
100
AcDbXrecord
280
     1
270
     1
271
     1
  0
XRECORD
  5
25
102
{ACAD_REACTORS
330
22
102
}
330
22
100
AcDbXrecord
280
     1
270
     1
271
     1
  0
CELLSTYLEMAP
  5
F25
102
{ACAD_REACTORS
330
3E6
102
}
330
3E6
100
AcDbCellStyleMap
 90
        3
300
CELLSTYLE
  1
TABLEFORMAT_BEGIN
 90
        5
170
     1
 91
        0
 92
    32768
 62
   257
 93
        1
300
CONTENTFORMAT
  1
CONTENTFORMAT_BEGIN
 90
        0
 91
        0
 92
      512
 93
        0
300

 40
0.0
140
1.0
 94
        5
 62
     0
340
4D
144
6.0
309
CONTENTFORMAT_END
171
     1
301
MARGIN
  1
CELLMARGIN_BEGIN
 40
1.5
 40
1.5
 40
1.5
 40
1.5
 40
0.18
 40
0.18
309
CELLMARGIN_END
 94
        6
 95
        1
302
GRIDFORMAT
  1
GRIDFORMAT_BEGIN
 90
        0
 91
        1
 62
     0
 92
       -2
340
0
 93
        0
 40
1.125
309
GRIDFORMAT_END
 95
        2
302
GRIDFORMAT
  1
GRIDFORMAT_BEGIN
 90
        0
 91
        1
 62
     0
 92
       -2
340
0
 93
        0
 40
1.125
309
GRIDFORMAT_END
 95
        4
302
GRIDFORMAT
  1
GRIDFORMAT_BEGIN
 90
        0
 91
        1
 62
     0
 92
       -2
340
0
 93
        0
 40
1.125
309
GRIDFORMAT_END
 95
        8
302
GRIDFORMAT
  1
GRIDFORMAT_BEGIN
 90
        0
 91
        1
 62
     0
 92
       -2
340
0
 93
        0
 40
1.125
309
GRIDFORMAT_END
 95
       16
302
GRIDFORMAT
  1
GRIDFORMAT_BEGIN
 90
        0
 91
        1
 62
     0
 92
       -2
340
0
 93
        0
 40
1.125
309
GRIDFORMAT_END
 95
       32
302
GRIDFORMAT
  1
GRIDFORMAT_BEGIN
 90
        0
 91
        1
 62
     0
 92
       -2
340
0
 93
        0
 40
1.125
309
GRIDFORMAT_END
309
TABLEFORMAT_END
  1
CELLSTYLE_BEGIN
 90
        1
 91
        1
300
_TITLE
309
CELLSTYLE_END
300
CELLSTYLE
  1
TABLEFORMAT_BEGIN
 90
        5
170
     1
 91
        0
 92
        0
 62
   257
 93
        1
300
CONTENTFORMAT
  1
CONTENTFORMAT_BEGIN
 90
        0
 91
        0
 92
      512
 93
        0
300

 40
0.0
140
1.0
 94
        5
 62
     0
340
4D
144
4.5
309
CONTENTFORMAT_END
171
     1
301
MARGIN
  1
CELLMARGIN_BEGIN
 40
1.5
 40
1.5
 40
1.5
 40
1.5
 40
0.18
 40
0.18
309
CELLMARGIN_END
 94
        6
 95
        1
302
GRIDFORMAT
  1
GRIDFORMAT_BEGIN
 90
        0
 91
        1
 62
     0
 92
       -2
340
0
 93
        0
 40
1.125
309
GRIDFORMAT_END
 95
        2
302
GRIDFORMAT
  1
GRIDFORMAT_BEGIN
 90
        0
 91
        1
 62
     0
 92
       -2
340
0
 93
        0
 40
1.125
309
GRIDFORMAT_END
 95
        4
302
GRIDFORMAT
  1
GRIDFORMAT_BEGIN
 90
        0
 91
        1
 62
     0
 92
       -2
340
0
 93
        0
 40
1.125
309
GRIDFORMAT_END
 95
        8
302
GRIDFORMAT
  1
GRIDFORMAT_BEGIN
 90
        0
 91
        1
 62
     0
 92
       -2
340
0
 93
        0
 40
1.125
309
GRIDFORMAT_END
 95
       16
302
GRIDFORMAT
  1
GRIDFORMAT_BEGIN
 90
        0
 91
        1
 62
     0
 92
       -2
340
0
 93
        0
 40
1.125
309
GRIDFORMAT_END
 95
       32
302
GRIDFORMAT
  1
GRIDFORMAT_BEGIN
 90
        0
 91
        1
 62
     0
 92
       -2
340
0
 93
        0
 40
1.125
309
GRIDFORMAT_END
309
TABLEFORMAT_END
  1
CELLSTYLE_BEGIN
 90
        2
 91
        1
300
_HEADER
309
CELLSTYLE_END
300
CELLSTYLE
  1
TABLEFORMAT_BEGIN
 90
        5
170
     1
 91
        0
 92
        0
 62
   257
 93
        1
300
CONTENTFORMAT
  1
CONTENTFORMAT_BEGIN
 90
        0
 91
        0
 92
      512
 93
        0
300

 40
0.0
140
1.0
 94
        2
 62
     0
340
4D
144
4.5
309
CONTENTFORMAT_END
171
     1
301
MARGIN
  1
CELLMARGIN_BEGIN
 40
1.5
 40
1.5
 40
1.5
 40
1.5
 40
0.18
 40
0.18
309
CELLMARGIN_END
 94
        6
 95
        1
302
GRIDFORMAT
  1
GRIDFORMAT_BEGIN
 90
        0
 91
        1
 62
     0
 92
       -2
340
0
 93
        0
 40
1.125
309
GRIDFORMAT_END
 95
        2
302
GRIDFORMAT
  1
GRIDFORMAT_BEGIN
 90
        0
 91
        1
 62
     0
 92
       -2
340
0
 93
        0
 40
1.125
309
GRIDFORMAT_END
 95
        4
302
GRIDFORMAT
  1
GRIDFORMAT_BEGIN
 90
        0
 91
        1
 62
     0
 92
       -2
340
0
 93
        0
 40
1.125
309
GRIDFORMAT_END
 95
        8
302
GRIDFORMAT
  1
GRIDFORMAT_BEGIN
 90
        0
 91
        1
 62
     0
 92
       -2
340
0
 93
        0
 40
1.125
309
GRIDFORMAT_END
 95
       16
302
GRIDFORMAT
  1
GRIDFORMAT_BEGIN
 90
        0
 91
        1
 62
     0
 92
       -2
340
0
 93
        0
 40
1.125
309
GRIDFORMAT_END
 95
       32
302
GRIDFORMAT
  1
GRIDFORMAT_BEGIN
 90
        0
 91
        1
 62
     0
 92
       -2
340
0
 93
        0
 40
1.125
309
GRIDFORMAT_END
309
TABLEFORMAT_END
  1
CELLSTYLE_BEGIN
 90
        3
 91
        2
300
_DATA
309
CELLSTYLE_END
  0
XRECORD
  5
F2E
102
{ACAD_REACTORS
330
3E6
102
}
330
3E6
100
AcDbXrecord
280
     1
102
ACAD_ROUNDTRIP_PRE2007_TABLESTYLE
 90
      512
 91
        0
  1

 92
      512
 93
        0
  2

 94
      512
 95
        0
  3

  0
CELLSTYLEMAP
  5
F26
102
{ACAD_REACTORS
330
9F0
102
}
330
9F0
100
AcDbCellStyleMap
 90
        3
300
CELLSTYLE
  1
TABLEFORMAT_BEGIN
 90
        5
170
     1
 91
        0
 92
    32768
 62
   257
 93
        1
300
CONTENTFORMAT
  1
CONTENTFORMAT_BEGIN
 90
        0
 91
        0
 92
        4
 93
        0
300

 40
0.0
140
1.0
 94
        5
 62
     0
340
4D
144
6.0
309
CONTENTFORMAT_END
171
     1
301
MARGIN
  1
CELLMARGIN_BEGIN
 40
1.5
 40
1.5
 40
1.5
 40
1.5
 40
0.18
 40
0.18
309
CELLMARGIN_END
 94
        6
 95
        1
302
GRIDFORMAT
  1
GRIDFORMAT_BEGIN
 90
        0
 91
        1
 62
     0
 92
       -2
340
0
 93
        0
 40
0.045
309
GRIDFORMAT_END
 95
        2
302
GRIDFORMAT
  1
GRIDFORMAT_BEGIN
 90
        0
 91
        1
 62
     0
 92
       -2
340
0
 93
        0
 40
0.045
309
GRIDFORMAT_END
 95
        4
302
GRIDFORMAT
  1
GRIDFORMAT_BEGIN
 90
        0
 91
        1
 62
     0
 92
       -2
340
0
 93
        0
 40
0.045
309
GRIDFORMAT_END
 95
        8
302
GRIDFORMAT
  1
GRIDFORMAT_BEGIN
 90
        0
 91
        1
 62
     0
 92
       -2
340
0
 93
        0
 40
0.045
309
GRIDFORMAT_END
 95
       16
302
GRIDFORMAT
  1
GRIDFORMAT_BEGIN
 90
        0
 91
        1
 62
     0
 92
       -2
340
0
 93
        0
 40
0.045
309
GRIDFORMAT_END
 95
       32
302
GRIDFORMAT
  1
GRIDFORMAT_BEGIN
 90
        0
 91
        1
 62
     0
 92
       -2
340
0
 93
        0
 40
0.045
309
GRIDFORMAT_END
309
TABLEFORMAT_END
  1
CELLSTYLE_BEGIN
 90
        1
 91
        1
300
_TITLE
309
CELLSTYLE_END
300
CELLSTYLE
  1
TABLEFORMAT_BEGIN
 90
        5
170
     1
 91
        0
 92
        0
 62
   257
 93
        1
300
CONTENTFORMAT
  1
CONTENTFORMAT_BEGIN
 90
        0
 91
        0
 92
        4
 93
        0
300

 40
0.0
140
1.0
 94
        5
 62
     0
340
4D
144
3.2
309
CONTENTFORMAT_END
171
     1
301
MARGIN
  1
CELLMARGIN_BEGIN
 40
1.5
 40
1.5
 40
1.5
 40
1.5
 40
0.18
 40
0.18
309
CELLMARGIN_END
 94
        6
 95
        1
302
GRIDFORMAT
  1
GRIDFORMAT_BEGIN
 90
        0
 91
        1
 62
     0
 92
       -2
340
0
 93
        0
 40
0.045
309
GRIDFORMAT_END
 95
        2
302
GRIDFORMAT
  1
GRIDFORMAT_BEGIN
 90
        0
 91
        1
 62
     0
 92
       -2
340
0
 93
        0
 40
0.045
309
GRIDFORMAT_END
 95
        4
302
GRIDFORMAT
  1
GRIDFORMAT_BEGIN
 90
        0
 91
        1
 62
     0
 92
       -2
340
0
 93
        0
 40
0.045
309
GRIDFORMAT_END
 95
        8
302
GRIDFORMAT
  1
GRIDFORMAT_BEGIN
 90
        0
 91
        1
 62
     0
 92
       -2
340
0
 93
        0
 40
0.045
309
GRIDFORMAT_END
 95
       16
302
GRIDFORMAT
  1
GRIDFORMAT_BEGIN
 90
        0
 91
        1
 62
     0
 92
       -2
340
0
 93
        0
 40
0.045
309
GRIDFORMAT_END
 95
       32
302
GRIDFORMAT
  1
GRIDFORMAT_BEGIN
 90
        0
 91
        1
 62
     0
 92
       -2
340
0
 93
        0
 40
0.045
309
GRIDFORMAT_END
309
TABLEFORMAT_END
  1
CELLSTYLE_BEGIN
 90
        2
 91
        1
300
_HEADER
309
CELLSTYLE_END
300
CELLSTYLE
  1
TABLEFORMAT_BEGIN
 90
        5
170
     1
 91
        0
 92
        0
 62
   257
 93
        1
300
CONTENTFORMAT
  1
CONTENTFORMAT_BEGIN
 90
        0
 91
        0
 92
        4
 93
        0
300

 40
0.0
140
1.0
 94
        5
 62
     0
340
4D
144
3.2
309
CONTENTFORMAT_END
171
     1
301
MARGIN
  1
CELLMARGIN_BEGIN
 40
1.5
 40
1.5
 40
1.5
 40
1.5
 40
0.18
 40
0.18
309
CELLMARGIN_END
 94
        6
 95
        1
302
GRIDFORMAT
  1
GRIDFORMAT_BEGIN
 90
        0
 91
        1
 62
     0
 92
       -2
340
0
 93
        0
 40
0.045
309
GRIDFORMAT_END
 95
        2
302
GRIDFORMAT
  1
GRIDFORMAT_BEGIN
 90
        0
 91
        1
 62
     0
 92
       -2
340
0
 93
        0
 40
0.045
309
GRIDFORMAT_END
 95
        4
302
GRIDFORMAT
  1
GRIDFORMAT_BEGIN
 90
        0
 91
        1
 62
     0
 92
       -2
340
0
 93
        0
 40
0.045
309
GRIDFORMAT_END
 95
        8
302
GRIDFORMAT
  1
GRIDFORMAT_BEGIN
 90
        0
 91
        1
 62
     0
 92
       -2
340
0
 93
        0
 40
0.045
309
GRIDFORMAT_END
 95
       16
302
GRIDFORMAT
  1
GRIDFORMAT_BEGIN
 90
        0
 91
        1
 62
     0
 92
       -2
340
0
 93
        0
 40
0.045
309
GRIDFORMAT_END
 95
       32
302
GRIDFORMAT
  1
GRIDFORMAT_BEGIN
 90
        0
 91
        1
 62
     0
 92
       -2
340
0
 93
        0
 40
0.045
309
GRIDFORMAT_END
309
TABLEFORMAT_END
  1
CELLSTYLE_BEGIN
 90
        3
 91
        2
300
_DATA
309
CELLSTYLE_END
  0
XRECORD
  5
F4B
102
{ACAD_REACTORS
330
9F0
102
}
330
9F0
100
AcDbXrecord
280
     1
102
ACAD_ROUNDTRIP_PRE2007_TABLESTYLE
 90
        4
 91
        0
  1

 92
        4
 93
        0
  2

 94
        4
 95
        0
  3

  0
ENDSEC
  0
EOF
