  0
SECTION
  2
HEADER
  9
$ACADVER
  1
AC1015
  9
$ACADMAINTVER
 70
    20
  9
$DWGCODEPAGE
  3
ANSI_932
  9
$INSBASE
 10
0.0
 20
0.0
 30
0.0
  9
$EXTMIN
 10
-0.1812661157691764
 20
25.34793525189798
 30
-0.0000000349181948
  9
$EXTMAX
 10
2970.181293776891
 20
2125.604290731556
 30
0.0000000814935747
  9
$LIMMIN
 10
0.0
 20
0.0
  9
$LIMMAX
 10
420.0
 20
297.0
  9
$ORTHOMODE
 70
     1
  9
$REGENMODE
 70
     1
  9
$FILLMODE
 70
     1
  9
$QTEXTMODE
 70
     0
  9
$MIRRTEXT
 70
     0
  9
$LTSCALE
 40
1.0
  9
$ATTMODE
 70
     1
  9
$TEXTSIZE
 40
2.5
  9
$TRACEWID
 40
1.0
  9
$TEXTSTYLE
  7
Standard
  9
$CLAYER
  8
0
  9
$CELTYPE
  6
ByLayer
  9
$CECOLOR
 62
   256
  9
$CELTSCALE
 40
1.0
  9
$DISPSILH
 70
     0
  9
$DIMSCALE
 40
10.0
  9
$DIMASZ
 40
1.0
  9
$DIMEXO
 40
1.0
  9
$DIMDLI
 40
0.38
  9
$DIMRND
 40
0.0
  9
$DIMDLE
 40
0.0
  9
$DIMEXE
 40
0.18
  9
$DIMTP
 40
0.0
  9
$DIMTM
 40
0.0
  9
$DIMTXT
 40
17.0
  9
$DIMCEN
 40
0.09
  9
$DIMTSZ
 40
0.0
  9
$DIMTOL
 70
     0
  9
$DIMLIM
 70
     0
  9
$DIMTIH
 70
     0
  9
$DIMTOH
 70
     0
  9
$DIMSE1
 70
     0
  9
$DIMSE2
 70
     0
  9
$DIMTAD
 70
     1
  9
$DIMZIN
 70
     0
  9
$DIMBLK
  1

  9
$DIMASO
 70
     1
  9
$DIMSHO
 70
     1
  9
$DIMPOST
  1

  9
$DIMAPOST
  1

  9
$DIMALT
 70
     0
  9
$DIMALTD
 70
     2
  9
$DIMALTF
 40
25.4
  9
$DIMLFAC
 40
1.0
  9
$DIMTOFL
 70
     0
  9
$DIMTVP
 40
0.0
  9
$DIMTIX
 70
     0
  9
$DIMSOXD
 70
     0
  9
$DIMSAH
 70
     0
  9
$DIMBLK1
  1

  9
$DIMBLK2
  1

  9
$DIMSTYLE
  2
DimStyle
  9
$DIMCLRD
 70
     0
  9
$DIMCLRE
 70
     0
  9
$DIMCLRT
 70
     0
  9
$DIMTFAC
 40
1.0
  9
$DIMGAP
 40
0.5
  9
$DIMJUST
 70
     0
  9
$DIMSD1
 70
     0
  9
$DIMSD2
 70
     0
  9
$DIMTOLJ
 70
     1
  9
$DIMTZIN
 70
     0
  9
$DIMALTZ
 70
     0
  9
$DIMALTTZ
 70
     0
  9
$DIMUPT
 70
     0
  9
$DIMDEC
 70
     0
  9
$DIMTDEC
 70
     0
  9
$DIMALTU
 70
     2
  9
$DIMALTTD
 70
     2
  9
$DIMTXSTY
  7
Dimsmall
  9
$DIMAUNIT
 70
     0
  9
$DIMADEC
 70
     0
  9
$DIMALTRND
 40
0.0
  9
$DIMAZIN
 70
     0
  9
$DIMDSEP
 70
    46
  9
$DIMATFIT
 70
     3
  9
$DIMFRAC
 70
     0
  9
$DIMLDRBLK
  1

  9
$DIMLUNIT
 70
     2
  9
$DIMLWD
 70
    -2
  9
$DIMLWE
 70
    -2
  9
$DIMTMOVE
 70
     0
  9
$LUNITS
 70
     2
  9
$LUPREC
 70
     4
  9
$SKETCHINC
 40
1.0
  9
$FILLETRAD
 40
0.0
  9
$AUNITS
 70
     0
  9
$AUPREC
 70
     0
  9
$MENU
  1
.
  9
$ELEVATION
 40
0.0
  9
$PELEVATION
 40
0.0
  9
$THICKNESS
 40
0.0
  9
$LIMCHECK
 70
     0
  9
$CHAMFERA
 40
0.0
  9
$CHAMFERB
 40
0.0
  9
$CHAMFERC
 40
0.0
  9
$CHAMFERD
 40
0.0
  9
$SKPOLY
 70
     0
  9
$TDCREATE
 40
2457029.721060139
  9
$TDUCREATE
 40
2457029.346060139
  9
$TDUPDATE
 40
2457082.575627732
  9
$TDUUPDATE
 40
2457082.200627731
  9
$TDINDWG
 40
0.1233379051
  9
$TDUSRTIMER
 40
0.1233377199
  9
$USRTIMER
 70
     1
  9
$ANGBASE
 50
0.0
  9
$ANGDIR
 70
     0
  9
$PDMODE
 70
     0
  9
$PDSIZE
 40
0.0
  9
$PLINEWID
 40
0.0
  9
$SPLFRAME
 70
     0
  9
$SPLINETYPE
 70
     6
  9
$SPLINESEGS
 70
     8
  9
$HANDSEED
  5
2CB5
  9
$SURFTAB1
 70
     6
  9
$SURFTAB2
 70
     6
  9
$SURFTYPE
 70
     6
  9
$SURFU
 70
     6
  9
$SURFV
 70
     6
  9
$UCSBASE
  2

  9
$UCSNAME
  2

  9
$UCSORG
 10
0.0
 20
0.0
 30
0.0
  9
$UCSXDIR
 10
1.0
 20
0.0
 30
0.0
  9
$UCSYDIR
 10
0.0
 20
1.0
 30
0.0
  9
$UCSORTHOREF
  2

  9
$UCSORTHOVIEW
 70
     0
  9
$UCSORGTOP
 10
0.0
 20
0.0
 30
0.0
  9
$UCSORGBOTTOM
 10
0.0
 20
0.0
 30
0.0
  9
$UCSORGLEFT
 10
0.0
 20
0.0
 30
0.0
  9
$UCSORGRIGHT
 10
0.0
 20
0.0
 30
0.0
  9
$UCSORGFRONT
 10
0.0
 20
0.0
 30
0.0
  9
$UCSORGBACK
 10
0.0
 20
0.0
 30
0.0
  9
$PUCSBASE
  2

  9
$PUCSNAME
  2

  9
$PUCSORG
 10
0.0
 20
0.0
 30
0.0
  9
$PUCSXDIR
 10
1.0
 20
0.0
 30
0.0
  9
$PUCSYDIR
 10
0.0
 20
1.0
 30
0.0
  9
$PUCSORTHOREF
  2

  9
$PUCSORTHOVIEW
 70
     0
  9
$PUCSORGTOP
 10
0.0
 20
0.0
 30
0.0
  9
$PUCSORGBOTTOM
 10
0.0
 20
0.0
 30
0.0
  9
$PUCSORGLEFT
 10
0.0
 20
0.0
 30
0.0
  9
$PUCSORGRIGHT
 10
0.0
 20
0.0
 30
0.0
  9
$PUCSORGFRONT
 10
0.0
 20
0.0
 30
0.0
  9
$PUCSORGBACK
 10
0.0
 20
0.0
 30
0.0
  9
$USERI1
 70
     0
  9
$USERI2
 70
     0
  9
$USERI3
 70
     0
  9
$USERI4
 70
     0
  9
$USERI5
 70
     0
  9
$USERR1
 40
0.0
  9
$USERR2
 40
0.0
  9
$USERR3
 40
0.0
  9
$USERR4
 40
0.0
  9
$USERR5
 40
0.0
  9
$WORLDVIEW
 70
     1
  9
$SHADEDGE
 70
     3
  9
$SHADEDIF
 70
    70
  9
$TILEMODE
 70
     1
  9
$MAXACTVP
 70
    64
  9
$PINSBASE
 10
0.0
 20
0.0
 30
0.0
  9
$PLIMCHECK
 70
     0
  9
$PEXTMIN
 10
1.000000000000000E+20
 20
1.000000000000000E+20
 30
1.000000000000000E+20
  9
$PEXTMAX
 10
-1.000000000000000E+20
 20
-1.000000000000000E+20
 30
-1.000000000000000E+20
  9
$PLIMMIN
 10
0.0
 20
0.0
  9
$PLIMMAX
 10
420.0
 20
297.0
  9
$UNITMODE
 70
     0
  9
$VISRETAIN
 70
     1
  9
$PLINEGEN
 70
     0
  9
$PSLTSCALE
 70
     1
  9
$TREEDEPTH
 70
  3020
  9
$CMLSTYLE
  2
Standard
  9
$CMLJUST
 70
     0
  9
$CMLSCALE
 40
20.0
  9
$PROXYGRAPHICS
 70
     1
  9
$MEASUREMENT
 70
     1
  9
$CELWEIGHT
370
    -1
  9
$ENDCAPS
280
     0
  9
$JOINSTYLE
280
     0
  9
$LWDISPLAY
290
     0
  9
$INSUNITS
 70
     4
  9
$HYPERLINKBASE
  1

  9
$STYLESHEET
  1
monochrome.ctb
  9
$XEDIT
290
     1
  9
$CEPSNTYPE
380
     0
  9
$PSTYLEMODE
290
     1
  9
$FINGERPRINTGUID
  2
{8DA439C8-B1AB-4B2E-8458-22E26846B961}
  9
$VERSIONGUID
  2
{8AE7754F-C178-477C-B921-547A407CEB3E}
  9
$EXTNAMES
290
     1
  9
$PSVPSCALE
 40
0.0
  9
$OLESTARTUP
290
     0
  0
ENDSEC
  0
SECTION
  2
CLASSES
  0
CLASS
  1
ACDBDICTIONARYWDFLT
  2
AcDbDictionaryWithDefault
  3
ObjectDBX Classes
 90
        0
280
     0
281
     0
  0
CLASS
  1
MATERIAL
  2
AcDbMaterial
  3
ObjectDBX Classes
 90
     1153
280
     0
281
     0
  0
CLASS
  1
VISUALSTYLE
  2
AcDbVisualStyle
  3
ObjectDBX Classes
 90
     4095
280
     0
281
     0
  0
CLASS
  1
SCALE
  2
AcDbScale
  3
ObjectDBX Classes
 90
     1153
280
     0
281
     0
  0
CLASS
  1
TABLESTYLE
  2
AcDbTableStyle
  3
ObjectDBX Classes
 90
     4095
280
     0
281
     0
  0
CLASS
  1
MLEADERSTYLE
  2
AcDbMLeaderStyle
  3
ACDB_MLEADERSTYLE_CLASS
 90
     4095
280
     0
281
     0
  0
CLASS
  1
IMAGEDEF
  2
AcDbRasterImageDef
  3
ISM
 90
        0
280
     0
281
     0
  0
CLASS
  1
IMAGE
  2
AcDbRasterImage
  3
ISM
 90
     2175
280
     0
281
     1
  0
CLASS
  1
IMAGEDEF_REACTOR
  2
AcDbRasterImageDefReactor
  3
ISM
 90
        1
280
     0
281
     0
  0
CLASS
  1
RASTERVARIABLES
  2
AcDbRasterVariables
  3
ISM
 90
        0
280
     0
281
     0
  0
CLASS
  1
DICTIONARYVAR
  2
AcDbDictionaryVar
  3
ObjectDBX Classes
 90
        0
280
     0
281
     0
  0
CLASS
  1
CELLSTYLEMAP
  2
AcDbCellStyleMap
  3
ObjectDBX Classes
 90
     1152
280
     0
281
     0
  0
CLASS
  1
ACDBPLACEHOLDER
  2
AcDbPlaceHolder
  3
ObjectDBX Classes
 90
        0
280
     0
281
     0
  0
CLASS
  1
LAYOUT
  2
AcDbLayout
  3
ObjectDBX Classes
 90
        0
280
     0
281
     0
  0
CLASS
  1
DIMASSOC
  2
AcDbDimAssoc
  3
"AcDbDimAssoc|Product Desc:     AcDim ARX App For Dimension|Company:          Autodesk, Inc.|WEB Address:      www.autodesk.com"
 90
        0
280
     0
281
     0
  0
CLASS
  1
SORTENTSTABLE
  2
AcDbSortentsTable
  3
ObjectDBX Classes
 90
    32768
280
     0
281
     0
  0
ENDSEC
  0
SECTION
  2
TABLES
  0
TABLE
  2
VPORT
  5
8
330
0
100
AcDbSymbolTable
 70
     1
  0
VPORT
  5
4F
330
8
100
AcDbSymbolTableRecord
100
AcDbViewportTableRecord
  2
*Active
 70
     0
 10
0.0
 20
0.0
 11
1.0
 21
1.0
 12
1485.000013830561
 22
1075.476112991727
 13
0.0
 23
0.0
 14
10.0
 24
10.0
 15
10.0
 25
10.0
 16
0.0
 26
0.0
 36
1.0
 17
0.0
 27
0.0
 37
0.0
 40
2116.621989418461
 41
1.762028608582574
 42
50.0
 43
0.0
 44
0.0
 50
0.0
 51
0.0
 71
     0
 72
  1000
 73
     1
 74
     3
 75
     0
 76
     0
 77
     0
 78
     0
281
     0
 65
     1
110
0.0
120
0.0
130
0.0
111
1.0
121
0.0
131
0.0
112
0.0
122
1.0
132
0.0
 79
     0
146
0.0
  0
ENDTAB
  0
TABLE
  2
LTYPE
  5
5
330
0
100
AcDbSymbolTable
 70
     7
  0
LTYPE
  5
53
330
5
100
AcDbSymbolTableRecord
100
AcDbLinetypeTableRecord
  2
ByBlock
 70
     0
  3

 72
    65
 73
     0
 40
0.0
  0
LTYPE
  5
54
330
5
100
AcDbSymbolTableRecord
100
AcDbLinetypeTableRecord
  2
ByLayer
 70
     0
  3

 72
    65
 73
     0
 40
0.0
  0
LTYPE
  5
55
330
5
100
AcDbSymbolTableRecord
100
AcDbLinetypeTableRecord
  2
Continuous
 70
     0
  3
Solid line
 72
    65
 73
     0
 40
0.0
  0
LTYPE
  5
73
330
5
100
AcDbSymbolTableRecord
100
AcDbLinetypeTableRecord
  2
ACAD_ISO08W100
 70
     0
  3
ISO long-dash short-dash ____ __ ____ __ ____ _
 72
    65
 73
     4
 40
36.0
 49
24.0
 74
     0
 49
-3.0
 74
     0
 49
6.0
 74
     0
 49
-3.0
 74
     0
  0
LTYPE
  5
242A
330
5
100
AcDbSymbolTableRecord
100
AcDbLinetypeTableRecord
  2
1点長鎖線
 70
     0
  3

 72
    65
 73
     4
 40
15.25
 49
12.0
 74
     0
 49
-1.5
 74
     0
 49
0.25
 74
     0
 49
-1.5
 74
     0
  0
LTYPE
  5
242B
330
5
100
AcDbSymbolTableRecord
100
AcDbLinetypeTableRecord
  2
点線
 70
     0
  3

 72
    65
 73
     2
 40
1.75
 49
0.25
 74
     0
 49
-1.5
 74
     0
  0
LTYPE
  5
298B
330
5
100
AcDbSymbolTableRecord
100
AcDbLinetypeTableRecord
  2
HIDDEN
 70
     0
  3
Hidden __ __ __ __ __ __ __ __ __ __ __ __ __ _
 72
    65
 73
     2
 40
9.524999999999996
 49
6.349999999999997
 74
     0
 49
-3.174999999999998
 74
     0
  0
LTYPE
  5
298C
330
5
100
AcDbSymbolTableRecord
100
AcDbLinetypeTableRecord
  2
HIDDEN4
 70
     0
  3
Hidden (.2x) _ _ _ _ _ _ _ _ _ _ _ _ _ _ _ _ _
 72
    65
 73
     2
 40
2.5
 49
1.5
 74
     0
 49
-1.0
 74
     0
  0
LTYPE
  5
29D8
330
5
100
AcDbSymbolTableRecord
100
AcDbLinetypeTableRecord
  2
CENTER2
 70
     0
  3
Center (.5x) ___ _ ___ _ ___ _ ___ _ ___ _ ___
 72
    65
 73
     4
 40
28.575
 49
19.05
 74
     0
 49
-3.174999999999998
 74
     0
 49
3.174999999999998
 74
     0
 49
-3.174999999999998
 74
     0
  0
ENDTAB
  0
TABLE
  2
LAYER
  5
2
102
{ACAD_XDICTIONARY
360
2856
102
}
330
0
100
AcDbSymbolTable
 70
    12
  0
LAYER
  5
4C
330
2
100
AcDbSymbolTableRecord
100
AcDbLayerTableRecord
  2
0
 70
     0
 62
     7
  6
Continuous
370
    18
390
F
  0
LAYER
  5
6F
330
2
100
AcDbSymbolTableRecord
100
AcDbLayerTableRecord
  2
寸法線
 70
     0
 62
     7
  6
Continuous
370
    15
390
F
  0
LAYER
  5
70
330
2
100
AcDbSymbolTableRecord
100
AcDbLayerTableRecord
  2
図面枠
 70
     0
 62
     7
  6
Continuous
370
    -3
390
F
  0
LAYER
  5
71
330
2
100
AcDbSymbolTableRecord
100
AcDbLayerTableRecord
  2
用紙枠
 70
     0
 62
     6
  6
Continuous
290
     0
370
    -3
390
F
  0
LAYER
  5
72
330
2
100
AcDbSymbolTableRecord
100
AcDbLayerTableRecord
  2
クリップ
 70
     0
 62
     7
  6
Continuous
370
    -3
390
F
  0
LAYER
  5
2141
330
2
100
AcDbSymbolTableRecord
100
AcDbLayerTableRecord
  2
Defpoints
 70
     0
 62
     7
  6
Continuous
290
     0
370
    -3
390
F
  0
LAYER
  5
242C
330
2
100
AcDbSymbolTableRecord
100
AcDbLayerTableRecord
  2
ﾚｲﾔ1
 70
     0
 62
     7
  6
Continuous
370
    18
390
F
  0
LAYER
  5
242D
330
2
100
AcDbSymbolTableRecord
100
AcDbLayerTableRecord
  2
ﾚｲﾔ2
 70
     0
 62
     5
  6
CENTER2
370
    15
390
F
  0
LAYER
  5
242E
330
2
100
AcDbSymbolTableRecord
100
AcDbLayerTableRecord
  2
文字
 70
     0
 62
     3
  6
Continuous
370
    -3
390
F
  0
LAYER
  5
242F
330
2
100
AcDbSymbolTableRecord
100
AcDbLayerTableRecord
  2
寸法
 70
     0
 62
     3
  6
Continuous
370
    -3
390
F
  0
LAYER
  5
298D
330
2
100
AcDbSymbolTableRecord
100
AcDbLayerTableRecord
  2
点線２
 70
     0
 62
    21
  6
HIDDEN4
370
     9
390
F
1001
AcAecLayerStandard
1000

1000

  0
LAYER
  5
29D9
102
{ACAD_XDICTIONARY
360
29DA
102
}
330
2
100
AcDbSymbolTableRecord
100
AcDbLayerTableRecord
  2
04_中心線
 70
     0
 62
     1
  6
CENTER2
370
     9
390
F
  0
ENDTAB
  0
TABLE
  2
STYLE
  5
3
330
0
100
AcDbSymbolTable
 70
    20
  0
STYLE
  5
4D
330
3
100
AcDbSymbolTableRecord
100
AcDbTextStyleTableRecord
  2
Standard
 70
     0
 40
0.0
 41
1.0
 50
0.0
 71
     0
 42
2.5
  3
txt
  4

  0
STYLE
  5
52
330
3
100
AcDbSymbolTableRecord
100
AcDbTextStyleTableRecord
  2
Annotative
 70
     0
 40
0.0
 41
1.0
 50
0.0
 71
     0
 42
0.2
  3
txt
  4

1001
AcadAnnotative
1000
AnnotativeData
1002
{
1070
     1
1070
     1
1002
}
  0
STYLE
  5
74
330
3
100
AcDbSymbolTableRecord
100
AcDbTextStyleTableRecord
  2
A3Logos
 70
     0
 40
5.0
 41
1.0
 50
0.0
 71
     0
 42
2.5
  3
swissk.ttf
  4

1001
ACAD
1000
Swis721 Blk BT
1071
      257
1001
AcadAnnotative
1000
AnnotativeData
1002
{
1070
     1
1070
     1
1002
}
  0
STYLE
  5
75
330
3
100
AcDbSymbolTableRecord
100
AcDbTextStyleTableRecord
  2
A3smallText
 70
     0
 40
3.0
 41
1.0
 50
0.0
 71
     0
 42
2.5
  3
arial.ttf
  4

1001
ACAD
1000
Arial
1071
      257
1001
AcadAnnotative
1000
AnnotativeData
1002
{
1070
     1
1070
     1
1002
}
  0
STYLE
  5
76
330
3
100
AcDbSymbolTableRecord
100
AcDbTextStyleTableRecord
  2
A3small
 70
     0
 40
1.5
 41
1.0
 50
0.0
 71
     0
 42
2.5
  3
arial.ttf
  4

1001
ACAD
1000
Arial
1071
      257
1001
AcadAnnotative
1000
AnnotativeData
1002
{
1070
     1
1070
     1
1002
}
  0
STYLE
  5
77
330
3
100
AcDbSymbolTableRecord
100
AcDbTextStyleTableRecord
  2
A3MspGothic
 70
     0
 40
1.5
 41
1.0
 50
0.0
 71
     0
 42
2.5
  3

  4

1001
ACAD
1000
MS PGothic
1071
      257
1001
AcadAnnotative
1000
AnnotativeData
1002
{
1070
     1
1070
     1
1002
}
  0
STYLE
  5
78
330
3
100
AcDbSymbolTableRecord
100
AcDbTextStyleTableRecord
  2
A3MspGothic2
 70
     0
 40
2.5
 41
1.0
 50
0.0
 71
     0
 42
2.5
  3

  4

1001
ACAD
1000
MS PGothic
1071
      257
1001
AcadAnnotative
1000
AnnotativeData
1002
{
1070
     1
1070
     1
1002
}
  0
STYLE
  5
79
330
3
100
AcDbSymbolTableRecord
100
AcDbTextStyleTableRecord
  2
A4Logos
 70
     0
 40
3.5
 41
1.0
 50
0.0
 71
     0
 42
2.5
  3
swissk.ttf
  4

1001
ACAD
1000
Swis721 Blk BT
1071
      257
1001
AcadAnnotative
1000
AnnotativeData
1002
{
1070
     1
1070
     1
1002
}
  0
STYLE
  5
7A
330
3
100
AcDbSymbolTableRecord
100
AcDbTextStyleTableRecord
  2
A4smallText
 70
     0
 40
2.0
 41
1.0
 50
0.0
 71
     0
 42
2.5
  3
arial.ttf
  4

1001
ACAD
1000
Arial
1071
      257
1001
AcadAnnotative
1000
AnnotativeData
1002
{
1070
     1
1070
     1
1002
}
  0
STYLE
  5
7B
330
3
100
AcDbSymbolTableRecord
100
AcDbTextStyleTableRecord
  2
A4small
 70
     0
 40
1.0
 41
1.0
 50
0.0
 71
     0
 42
2.5
  3
arial.ttf
  4

1001
ACAD
1000
Arial
1071
      257
1001
AcadAnnotative
1000
AnnotativeData
1002
{
1070
     1
1070
     1
1002
}
  0
STYLE
  5
7C
330
3
100
AcDbSymbolTableRecord
100
AcDbTextStyleTableRecord
  2
A4MspGothic
 70
     0
 40
1.0
 41
1.0
 50
0.0
 71
     0
 42
2.5
  3

  4

1001
ACAD
1000
MS PGothic
1071
      257
1001
AcadAnnotative
1000
AnnotativeData
1002
{
1070
     1
1070
     1
1002
}
  0
STYLE
  5
7D
330
3
100
AcDbSymbolTableRecord
100
AcDbTextStyleTableRecord
  2
A4MspGothic2
 70
     0
 40
1.7
 41
1.0
 50
0.0
 71
     0
 42
2.5
  3

  4

1001
ACAD
1000
MS PGothic
1071
      257
1001
AcadAnnotative
1000
AnnotativeData
1002
{
1070
     1
1070
     1
1002
}
  0
STYLE
  5
7E
330
3
100
AcDbSymbolTableRecord
100
AcDbTextStyleTableRecord
  2
Dimsmall
 70
     0
 40
17.0
 41
1.0
 50
0.0
 71
     0
 42
2.5
  3
arial.ttf
  4

1001
AcadAnnotative
1000
AnnotativeData
1002
{
1070
     1
1070
     1
1002
}
1001
ACAD
1000
Arial
1071
       34
  0
STYLE
  5
7F
330
3
100
AcDbSymbolTableRecord
100
AcDbTextStyleTableRecord
  2
DimClipsmall
 70
     0
 40
10.0
 41
1.0
 50
0.0
 71
     0
 42
2.5
  3
arial.ttf
  4

1001
AcadAnnotative
1000
AnnotativeData
1002
{
1070
     1
1070
     1
1002
}
1001
ACAD
1000
Arial
1071
       34
  0
STYLE
  5
80
330
3
100
AcDbSymbolTableRecord
100
AcDbTextStyleTableRecord
  2
LeaderLine
 70
     0
 40
25.0
 41
1.0
 50
0.0
 71
     0
 42
2.5
  3

  4

1001
ACAD
1000
MS PGothic
1071
      257
1001
AcadAnnotative
1000
AnnotativeData
1002
{
1070
     1
1070
     1
1002
}
  0
STYLE
  5
81
330
3
100
AcDbSymbolTableRecord
100
AcDbTextStyleTableRecord
  2
A3ImageText
 70
     0
 40
3.0
 41
1.0
 50
0.0
 71
     0
 42
2.5
  3

  4

1001
ACAD
1000
MS PGothic
1071
      257
1001
AcadAnnotative
1000
AnnotativeData
1002
{
1070
     1
1070
     1
1002
}
  0
STYLE
  5
82
330
3
100
AcDbSymbolTableRecord
100
AcDbTextStyleTableRecord
  2
A4ImageText
 70
     0
 40
2.1
 41
1.0
 50
0.0
 71
     0
 42
2.5
  3

  4

1001
ACAD
1000
MS PGothic
1071
      257
1001
AcadAnnotative
1000
AnnotativeData
1002
{
1070
     1
1070
     1
1002
}
  0
STYLE
  5
2430
330
3
100
AcDbSymbolTableRecord
100
AcDbTextStyleTableRecord
  2
文字ｽﾀｲﾙ1
 70
     0
 40
5.0
 41
1.0
 50
0.0
 71
     0
 42
0.0
  3
MONOTXT
  4
BIGFONT
  0
STYLE
  5
2431
330
3
100
AcDbSymbolTableRecord
100
AcDbTextStyleTableRecord
  2
TextStyle01
 70
     0
 40
5.0
 41
1.0
 50
0.0
 71
     0
 42
0.0
  3
MONOTXT
  4
BIGFONT
  0
ENDTAB
  0
TABLE
  2
VIEW
  5
6
330
0
100
AcDbSymbolTable
 70
     0
  0
ENDTAB
  0
TABLE
  2
UCS
  5
7
330
0
100
AcDbSymbolTable
 70
     0
  0
ENDTAB
  0
TABLE
  2
APPID
  5
9
330
0
100
AcDbSymbolTable
 70
    12
  0
APPID
  5
4E
330
9
100
AcDbSymbolTableRecord
100
AcDbRegAppTableRecord
  2
ACAD
 70
     0
  0
APPID
  5
56
330
9
100
AcDbSymbolTableRecord
100
AcDbRegAppTableRecord
  2
AcadAnnotative
 70
     0
  0
APPID
  5
60
330
9
100
AcDbSymbolTableRecord
100
AcDbRegAppTableRecord
  2
ACAD_MLEADERVER
 70
     0
  0
APPID
  5
2391
330
9
100
AcDbSymbolTableRecord
100
AcDbRegAppTableRecord
  2
ACAD_DSTYLE_DIMJOGGED_JOGANGLE_SYMBOL
 70
     0
  0
APPID
  5
23B1
330
9
100
AcDbSymbolTableRecord
100
AcDbRegAppTableRecord
  2
DCO15
 70
     0
  0
APPID
  5
264D
330
9
100
AcDbSymbolTableRecord
100
AcDbRegAppTableRecord
  2
ACAD_EXEMPT_FROM_CAD_STANDARDS
 70
     0
  0
APPID
  5
26E6
330
9
100
AcDbSymbolTableRecord
100
AcDbRegAppTableRecord
  2
ACAD_DSTYLE_DIMJAG
 70
     0
  0
APPID
  5
26E7
330
9
100
AcDbSymbolTableRecord
100
AcDbRegAppTableRecord
  2
ACAD_DSTYLE_DIMBREAK
 70
     0
  0
APPID
  5
26E9
330
9
100
AcDbSymbolTableRecord
100
AcDbRegAppTableRecord
  2
AcadAnnoPO
 70
     0
  0
APPID
  5
26EB
330
9
100
AcDbSymbolTableRecord
100
AcDbRegAppTableRecord
  2
ACAD_DSTYLE_DIMTALN
 70
     0
  0
APPID
  5
2855
330
9
100
AcDbSymbolTableRecord
100
AcDbRegAppTableRecord
  2
ACAD_PSEXT
 70
     0
  0
APPID
  5
298E
330
9
100
AcDbSymbolTableRecord
100
AcDbRegAppTableRecord
  2
AcAecLayerStandard
 70
     0
  0
ENDTAB
  0
TABLE
  2
DIMSTYLE
  5
A
330
0
100
AcDbSymbolTable
 70
    20
100
AcDbDimStyleTable
 71
     3
340
84
340
26EC
340
85
  0
DIMSTYLE
105
50
330
A
100
AcDbSymbolTableRecord
100
AcDbDimStyleTableRecord
  2
ISO-25
 70
     0
 41
2.5
 42
0.625
 43
3.75
 44
1.25
 73
     0
 74
     0
 77
     1
 78
     8
140
2.5
141
2.5
143
0.03937007874016
147
0.625
171
     3
172
     1
271
     2
272
     2
274
     3
283
     0
284
     8
340
4D
1001
ACAD_DSTYLE_DIMJOGGED_JOGANGLE_SYMBOL
1070
   384
1040
1.570796326794896
  0
DIMSTYLE
105
51
330
A
100
AcDbSymbolTableRecord
100
AcDbDimStyleTableRecord
  2
Annotative
 70
     0
340
4D
1001
AcadAnnotative
1000
AnnotativeData
1002
{
1070
     1
1070
     1
1002
}
  0
DIMSTYLE
105
83
330
A
100
AcDbSymbolTableRecord
100
AcDbDimStyleTableRecord
  2
Standard
 70
     0
 41
4.0
 42
1.0
 73
     0
 74
     0
 77
     1
147
0.5
271
     0
340
4D
  0
DIMSTYLE
105
84
102
{ACAD_REACTORS
330
2640
330
264F
330
26B3
330
26CB
330
2779
330
28AB
330
2AA3
330
2754
330
2738
330
26D8
330
2827
330
2BB6
102
}
330
A
100
AcDbSymbolTableRecord
100
AcDbDimStyleTableRecord
  2
DimStyle
 70
     0
 40
10.0
 41
1.0
 42
1.0
 73
     0
 74
     0
 77
     1
140
25.0
147
0.5
271
     0
272
     0
340
7E
1001
ACAD_DSTYLE_DIMJAG
1070
   388
1040
1.5
1001
ACAD_DSTYLE_DIMTALN
1070
   392
1070
     0
  0
DIMSTYLE
105
85
330
A
100
AcDbSymbolTableRecord
100
AcDbDimStyleTableRecord
  2
DimStyleDec1
 70
     0
 40
10.0
 41
1.0
 42
1.0
 73
     0
 74
     0
 77
     1
147
0.5
271
     1
340
7E
  0
DIMSTYLE
105
86
330
A
100
AcDbSymbolTableRecord
100
AcDbDimStyleTableRecord
  2
DimClip
 70
     0
 40
10.0
 41
4.0
 42
1.0
 73
     0
 74
     0
 77
     1
147
0.5
271
     0
340
7F
  0
DIMSTYLE
105
87
330
A
100
AcDbSymbolTableRecord
100
AcDbDimStyleTableRecord
  2
LeaderLine
 70
     0
 40
10.0
 41
4.0
 42
1.0
 73
     0
 74
     0
 77
     1
147
0.5
271
     0
340
80
  0
DIMSTYLE
105
2432
330
A
100
AcDbSymbolTableRecord
100
AcDbDimStyleTableRecord
  2
DIM_0001
 70
     0
 42
1.0
 44
1.0
 45
0.1
 73
     0
 74
     0
 77
     1
 78
     8
 79
     2
140
0.0
146
0.4
147
0.375
172
     1
176
   256
177
   256
178
   256
179
     1
271
     1
274
     1
278
    44
284
     8
286
     8
340
2430
371
    -1
372
    -1
  0
DIMSTYLE
105
2433
330
A
100
AcDbSymbolTableRecord
100
AcDbDimStyleTableRecord
  2
DIM_0002
 70
     0
 42
1.0
 44
1.0
 45
0.1
 73
     0
 74
     0
 77
     1
 78
     8
 79
     2
140
0.0
146
0.4
147
0.375
172
     1
176
   256
177
   256
178
   256
179
     1
271
     1
274
     1
278
    44
284
     8
286
     8
340
2430
371
    -1
372
    -1
  0
DIMSTYLE
105
2434
330
A
100
AcDbSymbolTableRecord
100
AcDbDimStyleTableRecord
  2
DIM_0003
 70
     0
 42
1.0
 44
1.0
 45
0.1
 73
     0
 74
     0
 77
     1
 78
     8
 79
     2
140
0.0
146
0.4
147
0.375
172
     1
176
   256
177
   256
178
   256
179
     1
271
     1
274
     1
278
    44
284
     8
286
     8
340
2430
371
    -1
372
    -1
  0
DIMSTYLE
105
2435
330
A
100
AcDbSymbolTableRecord
100
AcDbDimStyleTableRecord
  2
DIM_0004
 70
     0
 42
1.0
 44
1.0
 45
0.1
 73
     0
 74
     0
 77
     1
 78
     8
 79
     2
140
0.0
146
0.4
147
0.375
172
     1
176
   256
177
   256
178
   256
179
     1
271
     1
274
     1
278
    44
284
     8
286
     8
340
2430
371
    -1
372
    -1
  0
DIMSTYLE
105
2436
330
A
100
AcDbSymbolTableRecord
100
AcDbDimStyleTableRecord
  2
DIM_0005
 70
     0
 42
1.0
 44
1.0
 45
0.1
 73
     0
 74
     0
 77
     1
 78
     8
 79
     2
140
0.0
146
0.4
147
0.375
172
     1
176
   256
177
   256
178
   256
179
     1
271
     1
274
     1
278
    44
284
     8
286
     8
340
2430
371
    -1
372
    -1
  0
DIMSTYLE
105
2437
330
A
100
AcDbSymbolTableRecord
100
AcDbDimStyleTableRecord
  2
DIM_0006
 70
     0
 42
1.0
 44
1.0
 45
0.1
 73
     0
 74
     0
 77
     1
 78
     8
 79
     2
140
0.0
146
0.4
147
0.375
172
     1
176
   256
177
   256
178
   256
179
     1
271
     1
274
     1
278
    44
284
     8
286
     8
340
2430
371
    -1
372
    -1
  0
DIMSTYLE
105
2438
330
A
100
AcDbSymbolTableRecord
100
AcDbDimStyleTableRecord
  2
DIM_0007
 70
     0
 42
1.0
 44
1.0
 45
0.1
 73
     0
 74
     0
 77
     1
 78
     8
 79
     2
140
0.0
146
0.4
147
0.375
172
     1
176
   256
177
   256
178
   256
179
     1
271
     1
274
     1
278
    44
284
     8
286
     8
340
2430
371
    -1
372
    -1
  0
DIMSTYLE
105
2439
330
A
100
AcDbSymbolTableRecord
100
AcDbDimStyleTableRecord
  2
DIM_0008
 70
     0
 42
1.0
 44
1.0
 45
0.1
 73
     0
 74
     0
 77
     1
 78
     8
 79
     2
140
0.0
146
0.4
147
0.375
172
     1
176
   256
177
   256
178
   256
179
     1
271
     1
274
     1
278
    44
284
     8
286
     8
340
2430
371
    -1
372
    -1
  0
DIMSTYLE
105
243A
330
A
100
AcDbSymbolTableRecord
100
AcDbDimStyleTableRecord
  2
DIM_0009
 70
     0
 42
1.0
 44
1.0
 45
0.1
 73
     0
 74
     0
 77
     1
 78
     8
 79
     2
140
0.0
146
0.4
147
0.375
172
     1
176
   256
177
   256
178
   256
179
     1
271
     1
274
     1
278
    44
284
     8
286
     8
340
2430
371
    -1
372
    -1
  0
DIMSTYLE
105
243B
330
A
100
AcDbSymbolTableRecord
100
AcDbDimStyleTableRecord
  2
DIM_0010
 70
     0
 42
1.0
 44
1.0
 45
0.1
 73
     0
 74
     0
 77
     1
 78
     8
 79
     2
140
0.0
146
0.4
147
0.375
172
     1
176
   256
177
   256
178
   256
179
     1
271
     1
274
     1
278
    44
284
     8
286
     8
340
2430
371
    -1
372
    -1
  0
DIMSTYLE
105
243C
330
A
100
AcDbSymbolTableRecord
100
AcDbDimStyleTableRecord
  2
DIM_0011
 70
     0
 42
1.0
 44
1.0
 45
0.1
 73
     0
 74
     0
 77
     1
 78
     8
 79
     2
140
0.0
146
0.4
147
0.375
172
     1
176
   256
177
   256
178
   256
179
     1
271
     1
274
     1
278
    44
284
     8
286
     8
340
2430
371
    -1
372
    -1
  0
DIMSTYLE
105
26EC
330
A
100
AcDbSymbolTableRecord
100
AcDbDimStyleTableRecord
  2
コピー ～ DimStyle
 70
     0
 40
10.0
 41
1.0
 42
1.0
 73
     0
 74
     0
 77
     1
140
10.0
147
0.5
271
     0
272
     0
340
7F
1001
ACAD_DSTYLE_DIMBREAK
1070
   391
1040
3.75
1001
ACAD_DSTYLE_DIMJAG
1070
   388
1040
1.5
1001
ACAD_DSTYLE_DIMTALN
1070
   392
1070
     0
  0
ENDTAB
  0
TABLE
  2
BLOCK_RECORD
  5
1
330
0
100
AcDbSymbolTable
 70
    59
  0
BLOCK_RECORD
  5
65
330
1
100
AcDbSymbolTableRecord
100
AcDbBlockTableRecord
  2
*Model_Space
340
68
  0
BLOCK_RECORD
  5
61
330
1
100
AcDbSymbolTableRecord
100
AcDbBlockTableRecord
  2
*Paper_Space
340
64
  0
BLOCK_RECORD
  5
69
330
1
100
AcDbSymbolTableRecord
100
AcDbBlockTableRecord
  2
*Paper_Space0
340
6C
  0
BLOCK_RECORD
  5
2142
330
1
100
AcDbSymbolTableRecord
100
AcDbBlockTableRecord
  2
*D1
340
0
  0
BLOCK_RECORD
  5
221B
330
1
100
AcDbSymbolTableRecord
100
AcDbBlockTableRecord
  2
*D2
340
0
  0
BLOCK_RECORD
  5
2228
330
1
100
AcDbSymbolTableRecord
100
AcDbBlockTableRecord
  2
*D3
340
0
  0
BLOCK_RECORD
  5
2235
330
1
100
AcDbSymbolTableRecord
100
AcDbBlockTableRecord
  2
*D4
340
0
  0
BLOCK_RECORD
  5
22A3
330
1
100
AcDbSymbolTableRecord
100
AcDbBlockTableRecord
  2
*D5
340
0
  0
BLOCK_RECORD
  5
22B0
330
1
100
AcDbSymbolTableRecord
100
AcDbBlockTableRecord
  2
*D6
340
0
  0
BLOCK_RECORD
  5
22BE
330
1
100
AcDbSymbolTableRecord
100
AcDbBlockTableRecord
  2
*D7
340
0
  0
BLOCK_RECORD
  5
22CC
330
1
100
AcDbSymbolTableRecord
100
AcDbBlockTableRecord
  2
*D8
340
0
  0
BLOCK_RECORD
  5
22DA
330
1
100
AcDbSymbolTableRecord
100
AcDbBlockTableRecord
  2
*D9
340
0
  0
BLOCK_RECORD
  5
22E8
330
1
100
AcDbSymbolTableRecord
100
AcDbBlockTableRecord
  2
*D10
340
0
  0
BLOCK_RECORD
  5
2311
330
1
100
AcDbSymbolTableRecord
100
AcDbBlockTableRecord
  2
*D11
340
0
  0
BLOCK_RECORD
  5
231F
330
1
100
AcDbSymbolTableRecord
100
AcDbBlockTableRecord
  2
*D12
340
0
  0
BLOCK_RECORD
  5
232C
330
1
100
AcDbSymbolTableRecord
100
AcDbBlockTableRecord
  2
*D13
340
0
  0
BLOCK_RECORD
  5
2339
330
1
100
AcDbSymbolTableRecord
100
AcDbBlockTableRecord
  2
*D14
340
0
  0
BLOCK_RECORD
  5
2347
330
1
100
AcDbSymbolTableRecord
100
AcDbBlockTableRecord
  2
*D15
340
0
  0
BLOCK_RECORD
  5
2355
330
1
100
AcDbSymbolTableRecord
100
AcDbBlockTableRecord
  2
*D16
340
0
  0
BLOCK_RECORD
  5
2363
330
1
100
AcDbSymbolTableRecord
100
AcDbBlockTableRecord
  2
*D17
340
0
  0
BLOCK_RECORD
  5
2371
330
1
100
AcDbSymbolTableRecord
100
AcDbBlockTableRecord
  2
*D18
340
0
  0
BLOCK_RECORD
  5
23BE
330
1
100
AcDbSymbolTableRecord
100
AcDbBlockTableRecord
  2
*G01919191919
340
0
  0
BLOCK_RECORD
  5
23C7
330
1
100
AcDbSymbolTableRecord
100
AcDbBlockTableRecord
  2
*G12020202020
340
0
  0
BLOCK_RECORD
  5
23D0
330
1
100
AcDbSymbolTableRecord
100
AcDbBlockTableRecord
  2
*G22121212121
340
0
  0
BLOCK_RECORD
  5
23D9
330
1
100
AcDbSymbolTableRecord
100
AcDbBlockTableRecord
  2
GRP_0005
340
0
  0
BLOCK_RECORD
  5
23E2
330
1
100
AcDbSymbolTableRecord
100
AcDbBlockTableRecord
  2
*G42323232323
340
0
  0
BLOCK_RECORD
  5
23EB
330
1
100
AcDbSymbolTableRecord
100
AcDbBlockTableRecord
  2
*G52424242424
340
0
  0
BLOCK_RECORD
  5
23F4
330
1
100
AcDbSymbolTableRecord
100
AcDbBlockTableRecord
  2
*G62525252525
340
0
  0
BLOCK_RECORD
  5
23FD
330
1
100
AcDbSymbolTableRecord
100
AcDbBlockTableRecord
  2
*G72626262626
340
0
  0
BLOCK_RECORD
  5
2406
330
1
100
AcDbSymbolTableRecord
100
AcDbBlockTableRecord
  2
*G82727272727
340
0
  0
BLOCK_RECORD
  5
240F
330
1
100
AcDbSymbolTableRecord
100
AcDbBlockTableRecord
  2
*G92828282828
340
0
  0
BLOCK_RECORD
  5
2418
330
1
100
AcDbSymbolTableRecord
100
AcDbBlockTableRecord
  2
*G102929292929
340
0
  0
BLOCK_RECORD
  5
2421
330
1
100
AcDbSymbolTableRecord
100
AcDbBlockTableRecord
  2
*G113030303030
340
0
  0
BLOCK_RECORD
  5
254D
330
1
100
AcDbSymbolTableRecord
100
AcDbBlockTableRecord
  2
*D31
340
0
  0
BLOCK_RECORD
  5
2559
330
1
100
AcDbSymbolTableRecord
100
AcDbBlockTableRecord
  2
*D32
340
0
  0
BLOCK_RECORD
  5
2565
330
1
100
AcDbSymbolTableRecord
100
AcDbBlockTableRecord
  2
*D33
340
0
  0
BLOCK_RECORD
  5
2571
330
1
100
AcDbSymbolTableRecord
100
AcDbBlockTableRecord
  2
*D34
340
0
  0
BLOCK_RECORD
  5
257E
330
1
100
AcDbSymbolTableRecord
100
AcDbBlockTableRecord
  2
*D35
340
0
  0
BLOCK_RECORD
  5
258A
330
1
100
AcDbSymbolTableRecord
100
AcDbBlockTableRecord
  2
*D36
340
0
  0
BLOCK_RECORD
  5
2597
330
1
100
AcDbSymbolTableRecord
100
AcDbBlockTableRecord
  2
*D37
340
0
  0
BLOCK_RECORD
  5
25A3
330
1
100
AcDbSymbolTableRecord
100
AcDbBlockTableRecord
  2
*D38
340
0
  0
BLOCK_RECORD
  5
25B0
330
1
100
AcDbSymbolTableRecord
100
AcDbBlockTableRecord
  2
*D39
340
0
  0
BLOCK_RECORD
  5
25BD
330
1
100
AcDbSymbolTableRecord
100
AcDbBlockTableRecord
  2
*D40
340
0
  0
BLOCK_RECORD
  5
25CA
330
1
100
AcDbSymbolTableRecord
100
AcDbBlockTableRecord
  2
*D41
340
0
  0
BLOCK_RECORD
  5
2641
330
1
100
AcDbSymbolTableRecord
100
AcDbBlockTableRecord
  2
*D42
340
0
  0
BLOCK_RECORD
  5
2650
330
1
100
AcDbSymbolTableRecord
100
AcDbBlockTableRecord
  2
*D43
340
0
  0
BLOCK_RECORD
  5
26B4
330
1
100
AcDbSymbolTableRecord
100
AcDbBlockTableRecord
  2
*D44
340
0
  0
BLOCK_RECORD
  5
26CC
330
1
100
AcDbSymbolTableRecord
100
AcDbBlockTableRecord
  2
*D45
340
0
  0
BLOCK_RECORD
  5
26D9
330
1
100
AcDbSymbolTableRecord
100
AcDbBlockTableRecord
  2
*D46
340
0
  0
BLOCK_RECORD
  5
2717
330
1
100
AcDbSymbolTableRecord
100
AcDbBlockTableRecord
  2
*D47
340
0
  0
BLOCK_RECORD
  5
2739
330
1
100
AcDbSymbolTableRecord
100
AcDbBlockTableRecord
  2
*D48
340
0
  0
BLOCK_RECORD
  5
2746
330
1
100
AcDbSymbolTableRecord
100
AcDbBlockTableRecord
  2
*D49
340
0
  0
BLOCK_RECORD
  5
2755
330
1
100
AcDbSymbolTableRecord
100
AcDbBlockTableRecord
  2
*D50
340
0
  0
BLOCK_RECORD
  5
2762
330
1
100
AcDbSymbolTableRecord
100
AcDbBlockTableRecord
  2
*D51
340
0
  0
BLOCK_RECORD
  5
277A
330
1
100
AcDbSymbolTableRecord
100
AcDbBlockTableRecord
  2
*D52
340
0
  0
BLOCK_RECORD
  5
2828
330
1
100
AcDbSymbolTableRecord
100
AcDbBlockTableRecord
  2
*D53
340
0
  0
BLOCK_RECORD
  5
28AC
330
1
100
AcDbSymbolTableRecord
100
AcDbBlockTableRecord
  2
*D54
340
0
  0
BLOCK_RECORD
  5
29E4
330
1
100
AcDbSymbolTableRecord
100
AcDbBlockTableRecord
  2
*D55
340
0
  0
BLOCK_RECORD
  5
2AA4
330
1
100
AcDbSymbolTableRecord
100
AcDbBlockTableRecord
  2
*D56
340
0
  0
BLOCK_RECORD
  5
2BB7
330
1
100
AcDbSymbolTableRecord
100
AcDbBlockTableRecord
  2
*D57
340
0
  0
ENDTAB
  0
ENDSEC
  0
SECTION
  2
BLOCKS
  0
BLOCK
  5
66
330
65
100
AcDbEntity
  8
0
100
AcDbBlockBegin
  2
*Model_Space
 70
     0
 10
0.0
 20
0.0
 30
0.0
  3
*Model_Space
  1

  0
ENDBLK
  5
67
330
65
100
AcDbEntity
  8
0
100
AcDbBlockEnd
  0
BLOCK
  5
62
330
61
100
AcDbEntity
 67
     1
  8
0
100
AcDbBlockBegin
  2
*Paper_Space
 70
     0
 10
0.0
 20
0.0
 30
0.0
  3
*Paper_Space
  1

  0
ENDBLK
  5
63
330
61
100
AcDbEntity
 67
     1
  8
0
100
AcDbBlockEnd
  0
BLOCK
  5
6A
330
69
100
AcDbEntity
 67
     1
  8
0
100
AcDbBlockBegin
  2
*Paper_Space0
 70
     0
 10
0.0
 20
0.0
 30
0.0
  3
*Paper_Space0
  1

  0
ENDBLK
  5
6B
330
69
100
AcDbEntity
 67
     1
  8
0
100
AcDbBlockEnd
  0
BLOCK
  5
2143
330
2142
100
AcDbEntity
  8
0
100
AcDbBlockBegin
  2
*D1
 70
     1
 10
0.0
 20
0.0
 30
0.0
  3
*D1
  1

  0
LINE
  5
2145
330
2142
100
AcDbEntity
  8
寸法線
 62
     0
370
    -2
100
AcDbLine
 10
420.0
 20
510.0
 30
0.0
 11
420.0
 21
581.7999999999996
 31
0.0
  0
LINE
  5
2146
330
2142
100
AcDbEntity
  8
寸法線
 62
     0
370
    -2
100
AcDbLine
 10
1320.0
 20
510.0
 30
0.0
 11
1320.0
 21
581.7999999999996
 31
0.0
  0
LINE
  5
2147
330
2142
100
AcDbEntity
  8
寸法線
 62
     0
370
    -2
100
AcDbLine
 10
430.0
 20
580.0
 30
0.0
 11
1310.0
 21
580.0
 31
0.0
  0
SOLID
  5
2148
330
2142
100
AcDbEntity
  8
寸法線
 62
     0
100
AcDbTrace
 10
430.0
 20
581.6666666666666
 30
0.0
 11
430.0
 21
578.3333333333334
 31
0.0
 12
420.0
 22
580.0
 32
0.0
 13
420.0
 23
580.0
 33
0.0
  0
SOLID
  5
2149
330
2142
100
AcDbEntity
  8
寸法線
 62
     0
100
AcDbTrace
 10
1310.0
 20
581.6666666666666
 30
0.0
 11
1310.0
 21
578.3333333333334
 31
0.0
 12
1320.0
 22
580.0
 32
0.0
 13
1320.0
 23
580.0
 33
0.0
  0
MTEXT
  5
214A
330
2142
100
AcDbEntity
  8
寸法線
 62
     0
100
AcDbMText
 10
870.0
 20
593.6797407912687
 30
0.0
 40
17.0
 41
0.0
 71
     5
 72
     1
  1
\A1;900
  7
Dimsmall
 73
     1
 44
1.0
1001
ACAD
1000
MTEXTBEGIN
1070
    73
1070
     1
1070
    44
1040
1.0
1070
    74
1070
     0
1000
MTEXTEND
  0
POINT
  5
214B
330
2142
100
AcDbEntity
  8
Defpoints
 62
     0
100
AcDbPoint
 10
420.0
 20
500.0
 30
0.0
  0
POINT
  5
214C
330
2142
100
AcDbEntity
  8
Defpoints
 62
     0
100
AcDbPoint
 10
1320.0
 20
500.0
 30
0.0
  0
POINT
  5
214D
330
2142
100
AcDbEntity
  8
Defpoints
 62
     0
100
AcDbPoint
 10
1320.0
 20
580.0
 30
0.0
  0
ENDBLK
  5
2144
330
2142
100
AcDbEntity
  8
0
100
AcDbBlockEnd
  0
BLOCK
  5
221C
330
221B
100
AcDbEntity
  8
0
100
AcDbBlockBegin
  2
*D2
 70
     1
 10
0.0
 20
0.0
 30
0.0
  3
*D2
  1

  0
LINE
  5
221E
330
221B
100
AcDbEntity
  8
寸法線
 62
     0
370
    -2
100
AcDbLine
 10
1660.0
 20
1680.0
 30
0.0
 11
1588.2
 21
1680.0
 31
0.0
  0
LINE
  5
221F
330
221B
100
AcDbEntity
  8
寸法線
 62
     0
370
    -2
100
AcDbLine
 10
1660.0
 20
780.0
 30
0.0
 11
1588.2
 21
780.0
 31
0.0
  0
LINE
  5
2220
330
221B
100
AcDbEntity
  8
寸法線
 62
     0
370
    -2
100
AcDbLine
 10
1590.0
 20
1670.0
 30
0.0
 11
1590.0
 21
790.0
 31
0.0
  0
SOLID
  5
2221
330
221B
100
AcDbEntity
  8
寸法線
 62
     0
100
AcDbTrace
 10
1588.333333333333
 20
1670.0
 30
0.0
 11
1591.666666666667
 21
1670.0
 31
0.0
 12
1590.0
 22
1680.0
 32
0.0
 13
1590.0
 23
1680.0
 33
0.0
  0
SOLID
  5
2222
330
221B
100
AcDbEntity
  8
寸法線
 62
     0
100
AcDbTrace
 10
1588.333333333333
 20
790.0
 30
0.0
 11
1591.666666666667
 21
790.0
 31
0.0
 12
1590.0
 22
780.0
 32
0.0
 13
1590.0
 23
780.0
 33
0.0
  0
MTEXT
  5
2223
330
221B
100
AcDbEntity
  8
寸法線
 62
     0
100
AcDbMText
 10
1576.320259208731
 20
1230.0
 30
0.0
 40
17.0
 41
0.0
 71
     5
 72
     1
  1
\A1;900
  7
Dimsmall
 11
0.0000000000000001
 21
1.0
 31
0.0
 73
     1
 44
1.0
1001
ACAD
1000
MTEXTBEGIN
1070
    73
1070
     1
1070
    44
1040
1.0
1070
    74
1070
     0
1000
MTEXTEND
  0
POINT
  5
2224
330
221B
100
AcDbEntity
  8
Defpoints
 62
     0
100
AcDbPoint
 10
1670.0
 20
1680.0
 30
0.0
  0
POINT
  5
2225
330
221B
100
AcDbEntity
  8
Defpoints
 62
     0
100
AcDbPoint
 10
1670.0
 20
780.0
 30
0.0
  0
POINT
  5
2226
330
221B
100
AcDbEntity
  8
Defpoints
 62
     0
100
AcDbPoint
 10
1590.0
 20
780.0
 30
0.0
  0
ENDBLK
  5
221D
330
221B
100
AcDbEntity
  8
0
100
AcDbBlockEnd
  0
BLOCK
  5
2229
330
2228
100
AcDbEntity
  8
0
100
AcDbBlockBegin
  2
*D3
 70
     1
 10
0.0
 20
0.0
 30
0.0
  3
*D3
  1

  0
LINE
  5
222B
330
2228
100
AcDbEntity
  8
寸法線
 62
     0
370
    -2
100
AcDbLine
 10
1670.0
 20
741.0
 30
0.0
 11
1670.0
 21
669.2
 31
0.0
  0
LINE
  5
222C
330
2228
100
AcDbEntity
  8
寸法線
 62
     0
370
    -2
100
AcDbLine
 10
1708.0
 20
741.0
 30
0.0
 11
1708.0
 21
669.2
 31
0.0
  0
LINE
  5
222D
330
2228
100
AcDbEntity
  8
寸法線
 62
     0
370
    -2
100
AcDbLine
 10
1680.0
 20
671.0
 30
0.0
 11
1698.0
 21
671.0
 31
0.0
  0
SOLID
  5
222E
330
2228
100
AcDbEntity
  8
寸法線
 62
     0
100
AcDbTrace
 10
1680.0
 20
672.6666666666666
 30
0.0
 11
1680.0
 21
669.3333333333334
 31
0.0
 12
1670.0
 22
671.0
 32
0.0
 13
1670.0
 23
671.0
 33
0.0
  0
SOLID
  5
222F
330
2228
100
AcDbEntity
  8
寸法線
 62
     0
100
AcDbTrace
 10
1698.0
 20
672.6666666666666
 30
0.0
 11
1698.0
 21
669.3333333333334
 31
0.0
 12
1708.0
 22
671.0
 32
0.0
 13
1708.0
 23
671.0
 33
0.0
  0
MTEXT
  5
2230
330
2228
100
AcDbEntity
  8
寸法線
 62
     0
100
AcDbMText
 10
1689.0
 20
684.6855388813096
 30
0.0
 40
17.0
 41
0.0
 71
     5
 72
     1
  1
\A1;38
  7
Dimsmall
 73
     1
 44
1.0
1001
ACAD
1000
MTEXTBEGIN
1070
    73
1070
     1
1070
    44
1040
1.0
1070
    74
1070
     0
1000
MTEXTEND
  0
POINT
  5
2231
330
2228
100
AcDbEntity
  8
Defpoints
 62
     0
100
AcDbPoint
 10
1670.0
 20
751.0
 30
0.0
  0
POINT
  5
2232
330
2228
100
AcDbEntity
  8
Defpoints
 62
     0
100
AcDbPoint
 10
1708.0
 20
751.0
 30
0.0
  0
POINT
  5
2233
330
2228
100
AcDbEntity
  8
Defpoints
 62
     0
100
AcDbPoint
 10
1708.0
 20
671.0
 30
0.0
  0
ENDBLK
  5
222A
330
2228
100
AcDbEntity
  8
0
100
AcDbBlockEnd
  0
BLOCK
  5
2236
330
2235
100
AcDbEntity
  8
0
100
AcDbBlockBegin
  2
*D4
 70
     1
 10
0.0
 20
0.0
 30
0.0
  3
*D4
  1

  0
LINE
  5
2238
330
2235
100
AcDbEntity
  8
寸法線
 62
     0
370
    -2
100
AcDbLine
 10
1708.0
 20
741.0
 30
0.0
 11
1708.0
 21
599.2
 31
0.0
  0
LINE
  5
2239
330
2235
100
AcDbEntity
  8
寸法線
 62
     0
370
    -2
100
AcDbLine
 10
1713.0
 20
741.0
 30
0.0
 11
1713.0
 21
599.2
 31
0.0
  0
LINE
  5
223A
330
2235
100
AcDbEntity
  8
寸法線
 62
     0
370
    -2
100
AcDbLine
 10
1723.0
 20
601.0
 30
0.0
 11
1733.0
 21
601.0
 31
0.0
  0
LINE
  5
223B
330
2235
100
AcDbEntity
  8
寸法線
 62
     0
370
    -2
100
AcDbLine
 10
1698.0
 20
601.0
 30
0.0
 11
1666.728512960436
 21
601.0
 31
0.0
  0
SOLID
  5
223C
330
2235
100
AcDbEntity
  8
寸法線
 62
     0
100
AcDbTrace
 10
1723.0
 20
602.6666666666666
 30
0.0
 11
1723.0
 21
599.3333333333334
 31
0.0
 12
1713.0
 22
601.0
 32
0.0
 13
1713.0
 23
601.0
 33
0.0
  0
SOLID
  5
223D
330
2235
100
AcDbEntity
  8
寸法線
 62
     0
100
AcDbTrace
 10
1698.0
 20
602.6666666666666
 30
0.0
 11
1698.0
 21
599.3333333333334
 31
0.0
 12
1708.0
 22
601.0
 32
0.0
 13
1708.0
 23
601.0
 33
0.0
  0
MTEXT
  5
223E
330
2235
100
AcDbEntity
  8
寸法線
 62
     0
100
AcDbMText
 10
1677.364256480218
 20
614.6449522510231
 30
0.0
 40
17.0
 41
0.0
 71
     5
 72
     1
  1
\A1;5
  7
Dimsmall
 73
     1
 44
1.0
1001
ACAD
1000
MTEXTBEGIN
1070
    73
1070
     1
1070
    44
1040
1.0
1070
    74
1070
     0
1000
MTEXTEND
  0
POINT
  5
223F
330
2235
100
AcDbEntity
  8
Defpoints
 62
     0
100
AcDbPoint
 10
1708.0
 20
751.0
 30
0.0
  0
POINT
  5
2240
330
2235
100
AcDbEntity
  8
Defpoints
 62
     0
100
AcDbPoint
 10
1713.0
 20
751.0
 30
0.0
  0
POINT
  5
2241
330
2235
100
AcDbEntity
  8
Defpoints
 62
     0
100
AcDbPoint
 10
1713.0
 20
601.0
 30
0.0
  0
ENDBLK
  5
2237
330
2235
100
AcDbEntity
  8
0
100
AcDbBlockEnd
  0
BLOCK
  5
22A4
330
22A3
100
AcDbEntity
  8
0
100
AcDbBlockBegin
  2
*D5
 70
     1
 10
0.0
 20
0.0
 30
0.0
  3
*D5
  1

  0
LINE
  5
22A6
330
22A3
100
AcDbEntity
  8
寸法線
 62
     0
370
    -2
100
AcDbLine
 10
410.0
 20
510.0
 30
0.0
 11
410.0
 21
651.7999999999997
 31
0.0
  0
LINE
  5
22A7
330
22A3
100
AcDbEntity
  8
寸法線
 62
     0
370
    -2
100
AcDbLine
 10
1330.0
 20
510.0
 30
0.0
 11
1330.0
 21
651.7999999999997
 31
0.0
  0
LINE
  5
22A8
330
22A3
100
AcDbEntity
  8
寸法線
 62
     0
370
    -2
100
AcDbLine
 10
420.0
 20
650.0
 30
0.0
 11
1320.0
 21
650.0
 31
0.0
  0
SOLID
  5
22A9
330
22A3
100
AcDbEntity
  8
寸法線
 62
     0
100
AcDbTrace
 10
420.0
 20
651.6666666666666
 30
0.0
 11
420.0
 21
648.3333333333334
 31
0.0
 12
410.0
 22
650.0
 32
0.0
 13
410.0
 23
650.0
 33
0.0
  0
SOLID
  5
22AA
330
22A3
100
AcDbEntity
  8
寸法線
 62
     0
100
AcDbTrace
 10
1320.0
 20
651.6666666666666
 30
0.0
 11
1320.0
 21
648.3333333333334
 31
0.0
 12
1330.0
 22
650.0
 32
0.0
 13
1330.0
 23
650.0
 33
0.0
  0
MTEXT
  5
22AB
330
22A3
100
AcDbEntity
  8
寸法線
 62
     0
100
AcDbMText
 10
870.0
 20
663.6797407912687
 30
0.0
 40
17.0
 41
0.0
 71
     5
 72
     1
  1
\A1;920
  7
Dimsmall
 73
     1
 44
1.0
1001
ACAD
1000
MTEXTBEGIN
1070
    73
1070
     1
1070
    44
1040
1.0
1070
    74
1070
     0
1000
MTEXTEND
  0
POINT
  5
22AC
330
22A3
100
AcDbEntity
  8
Defpoints
 62
     0
100
AcDbPoint
 10
410.0
 20
500.0
 30
0.0
  0
POINT
  5
22AD
330
22A3
100
AcDbEntity
  8
Defpoints
 62
     0
100
AcDbPoint
 10
1330.0
 20
500.0
 30
0.0
  0
POINT
  5
22AE
330
22A3
100
AcDbEntity
  8
Defpoints
 62
     0
100
AcDbPoint
 10
1330.0
 20
650.0
 30
0.0
  0
ENDBLK
  5
22A5
330
22A3
100
AcDbEntity
  8
0
100
AcDbBlockEnd
  0
BLOCK
  5
22B1
330
22B0
100
AcDbEntity
  8
0
100
AcDbBlockBegin
  2
*D6
 70
     1
 10
0.0
 20
0.0
 30
0.0
  3
*D6
  1

  0
LINE
  5
22B3
330
22B0
100
AcDbEntity
  8
寸法線
 62
     0
370
    -2
100
AcDbLine
 10
416.0
 20
510.0
 30
0.0
 11
416.0
 21
581.7999999999996
 31
0.0
  0
LINE
  5
22B4
330
22B0
100
AcDbEntity
  8
寸法線
 62
     0
370
    -2
100
AcDbLine
 10
420.0
 20
510.0
 30
0.0
 11
420.0
 21
581.7999999999996
 31
0.0
  0
LINE
  5
22B5
330
22B0
100
AcDbEntity
  8
寸法線
 62
     0
370
    -2
100
AcDbLine
 10
406.0
 20
580.0
 30
0.0
 11
396.0
 21
580.0
 31
0.0
  0
LINE
  5
22B6
330
22B0
100
AcDbEntity
  8
寸法線
 62
     0
370
    -2
100
AcDbLine
 10
430.0
 20
580.0
 30
0.0
 11
461.7585266030014
 21
580.0
 31
0.0
  0
SOLID
  5
22B7
330
22B0
100
AcDbEntity
  8
寸法線
 62
     0
100
AcDbTrace
 10
406.0
 20
581.6666666666666
 30
0.0
 11
406.0
 21
578.3333333333334
 31
0.0
 12
416.0
 22
580.0
 32
0.0
 13
416.0
 23
580.0
 33
0.0
  0
SOLID
  5
22B8
330
22B0
100
AcDbEntity
  8
寸法線
 62
     0
100
AcDbTrace
 10
430.0
 20
581.6666666666666
 30
0.0
 11
430.0
 21
578.3333333333334
 31
0.0
 12
420.0
 22
580.0
 32
0.0
 13
420.0
 23
580.0
 33
0.0
  0
MTEXT
  5
22B9
330
22B0
100
AcDbEntity
  8
寸法線
 62
     0
100
AcDbMText
 10
450.8792633015006
 20
593.5
 30
0.0
 40
17.0
 41
0.0
 71
     5
 72
     1
  1
\A1;4
  7
Dimsmall
 73
     1
 44
1.0
1001
ACAD
1000
MTEXTBEGIN
1070
    73
1070
     1
1070
    44
1040
1.0
1070
    74
1070
     0
1000
MTEXTEND
  0
POINT
  5
22BA
330
22B0
100
AcDbEntity
  8
Defpoints
 62
     0
100
AcDbPoint
 10
416.0
 20
500.0
 30
0.0
  0
POINT
  5
22BB
330
22B0
100
AcDbEntity
  8
Defpoints
 62
     0
100
AcDbPoint
 10
420.0
 20
500.0
 30
0.0
  0
POINT
  5
22BC
330
22B0
100
AcDbEntity
  8
Defpoints
 62
     0
100
AcDbPoint
 10
420.0
 20
580.0
 30
0.0
  0
ENDBLK
  5
22B2
330
22B0
100
AcDbEntity
  8
0
100
AcDbBlockEnd
  0
BLOCK
  5
22BF
330
22BE
100
AcDbEntity
  8
0
100
AcDbBlockBegin
  2
*D7
 70
     1
 10
0.0
 20
0.0
 30
0.0
  3
*D7
  1

  0
LINE
  5
22C1
330
22BE
100
AcDbEntity
  8
寸法線
 62
     0
370
    -2
100
AcDbLine
 10
1320.0
 20
510.0
 30
0.0
 11
1320.0
 21
581.7999999999996
 31
0.0
  0
LINE
  5
22C2
330
22BE
100
AcDbEntity
  8
寸法線
 62
     0
370
    -2
100
AcDbLine
 10
1324.0
 20
510.0
 30
0.0
 11
1324.0
 21
581.7999999999996
 31
0.0
  0
LINE
  5
22C3
330
22BE
100
AcDbEntity
  8
寸法線
 62
     0
370
    -2
100
AcDbLine
 10
1334.0
 20
580.0
 30
0.0
 11
1344.0
 21
580.0
 31
0.0
  0
LINE
  5
22C4
330
22BE
100
AcDbEntity
  8
寸法線
 62
     0
370
    -2
100
AcDbLine
 10
1310.0
 20
580.0
 30
0.0
 11
1269.120736698499
 21
580.0
 31
0.0
  0
SOLID
  5
22C5
330
22BE
100
AcDbEntity
  8
寸法線
 62
     0
100
AcDbTrace
 10
1334.0
 20
581.6666666666666
 30
0.0
 11
1334.0
 21
578.3333333333334
 31
0.0
 12
1324.0
 22
580.0
 32
0.0
 13
1324.0
 23
580.0
 33
0.0
  0
SOLID
  5
22C6
330
22BE
100
AcDbEntity
  8
寸法線
 62
     0
100
AcDbTrace
 10
1310.0
 20
581.6666666666666
 30
0.0
 11
1310.0
 21
578.3333333333334
 31
0.0
 12
1320.0
 22
580.0
 32
0.0
 13
1320.0
 23
580.0
 33
0.0
  0
MTEXT
  5
22C7
330
22BE
100
AcDbEntity
  8
寸法線
 62
     0
100
AcDbMText
 10
1280.0
 20
593.5
 30
0.0
 40
17.0
 41
0.0
 71
     5
 72
     1
  1
\A1;4
  7
Dimsmall
 73
     1
 44
1.0
1001
ACAD
1000
MTEXTBEGIN
1070
    73
1070
     1
1070
    44
1040
1.0
1070
    74
1070
     0
1000
MTEXTEND
  0
POINT
  5
22C8
330
22BE
100
AcDbEntity
  8
Defpoints
 62
     0
100
AcDbPoint
 10
1320.0
 20
500.0
 30
0.0
  0
POINT
  5
22C9
330
22BE
100
AcDbEntity
  8
Defpoints
 62
     0
100
AcDbPoint
 10
1324.0
 20
500.0
 30
0.0
  0
POINT
  5
22CA
330
22BE
100
AcDbEntity
  8
Defpoints
 62
     0
100
AcDbPoint
 10
1324.0
 20
580.0
 30
0.0
  0
ENDBLK
  5
22C0
330
22BE
100
AcDbEntity
  8
0
100
AcDbBlockEnd
  0
BLOCK
  5
22CD
330
22CC
100
AcDbEntity
  8
0
100
AcDbBlockBegin
  2
*D8
 70
     1
 10
0.0
 20
0.0
 30
0.0
  3
*D8
  1

  0
LINE
  5
22CF
330
22CC
100
AcDbEntity
  8
寸法線
 62
     0
370
    -2
100
AcDbLine
 10
410.0
 20
510.0
 30
0.0
 11
410.0
 21
581.7999999999996
 31
0.0
  0
LINE
  5
22D0
330
22CC
100
AcDbEntity
  8
寸法線
 62
     0
370
    -2
100
AcDbLine
 10
416.0
 20
510.0
 30
0.0
 11
416.0
 21
581.7999999999996
 31
0.0
  0
LINE
  5
22D1
330
22CC
100
AcDbEntity
  8
寸法線
 62
     0
370
    -2
100
AcDbLine
 10
426.0
 20
580.0
 30
0.0
 11
436.0
 21
580.0
 31
0.0
  0
LINE
  5
22D2
330
22CC
100
AcDbEntity
  8
寸法線
 62
     0
370
    -2
100
AcDbLine
 10
400.0
 20
580.0
 30
0.0
 11
359.387448840382
 21
580.0
 31
0.0
  0
SOLID
  5
22D3
330
22CC
100
AcDbEntity
  8
寸法線
 62
     0
100
AcDbTrace
 10
426.0
 20
581.6666666666666
 30
0.0
 11
426.0
 21
578.3333333333334
 31
0.0
 12
416.0
 22
580.0
 32
0.0
 13
416.0
 23
580.0
 33
0.0
  0
SOLID
  5
22D4
330
22CC
100
AcDbEntity
  8
寸法線
 62
     0
100
AcDbTrace
 10
400.0
 20
581.6666666666666
 30
0.0
 11
400.0
 21
578.3333333333334
 31
0.0
 12
410.0
 22
580.0
 32
0.0
 13
410.0
 23
580.0
 33
0.0
  0
MTEXT
  5
22D5
330
22CC
100
AcDbEntity
  8
寸法線
 62
     0
100
AcDbMText
 10
370.0
 20
593.6797407912687
 30
0.0
 40
17.0
 41
0.0
 71
     5
 72
     1
  1
\A1;6
  7
Dimsmall
 73
     1
 44
1.0
1001
ACAD
1000
MTEXTBEGIN
1070
    73
1070
     1
1070
    44
1040
1.0
1070
    74
1070
     0
1000
MTEXTEND
  0
POINT
  5
22D6
330
22CC
100
AcDbEntity
  8
Defpoints
 62
     0
100
AcDbPoint
 10
410.0
 20
500.0
 30
0.0
  0
POINT
  5
22D7
330
22CC
100
AcDbEntity
  8
Defpoints
 62
     0
100
AcDbPoint
 10
416.0
 20
500.0
 30
0.0
  0
POINT
  5
22D8
330
22CC
100
AcDbEntity
  8
Defpoints
 62
     0
100
AcDbPoint
 10
416.0
 20
580.0
 30
0.0
  0
ENDBLK
  5
22CE
330
22CC
100
AcDbEntity
  8
0
100
AcDbBlockEnd
  0
BLOCK
  5
22DB
330
22DA
100
AcDbEntity
  8
0
100
AcDbBlockBegin
  2
*D9
 70
     1
 10
0.0
 20
0.0
 30
0.0
  3
*D9
  1

  0
LINE
  5
22DD
330
22DA
100
AcDbEntity
  8
寸法線
 62
     0
370
    -2
100
AcDbLine
 10
1324.0
 20
510.0
 30
0.0
 11
1324.0
 21
581.7999999999996
 31
0.0
  0
LINE
  5
22DE
330
22DA
100
AcDbEntity
  8
寸法線
 62
     0
370
    -2
100
AcDbLine
 10
1330.0
 20
510.0
 30
0.0
 11
1330.0
 21
581.7999999999996
 31
0.0
  0
LINE
  5
22DF
330
22DA
100
AcDbEntity
  8
寸法線
 62
     0
370
    -2
100
AcDbLine
 10
1314.0
 20
580.0
 30
0.0
 11
1304.0
 21
580.0
 31
0.0
  0
LINE
  5
22E0
330
22DA
100
AcDbEntity
  8
寸法線
 62
     0
370
    -2
100
AcDbLine
 10
1340.0
 20
580.0
 30
0.0
 11
1371.225102319236
 21
580.0
 31
0.0
  0
SOLID
  5
22E1
330
22DA
100
AcDbEntity
  8
寸法線
 62
     0
100
AcDbTrace
 10
1314.0
 20
581.6666666666666
 30
0.0
 11
1314.0
 21
578.3333333333334
 31
0.0
 12
1324.0
 22
580.0
 32
0.0
 13
1324.0
 23
580.0
 33
0.0
  0
SOLID
  5
22E2
330
22DA
100
AcDbEntity
  8
寸法線
 62
     0
100
AcDbTrace
 10
1340.0
 20
581.6666666666666
 30
0.0
 11
1340.0
 21
578.3333333333334
 31
0.0
 12
1330.0
 22
580.0
 32
0.0
 13
1330.0
 23
580.0
 33
0.0
  0
MTEXT
  5
22E3
330
22DA
100
AcDbEntity
  8
寸法線
 62
     0
100
AcDbMText
 10
1360.612551159618
 20
593.6797407912687
 30
0.0
 40
17.0
 41
0.0
 71
     5
 72
     1
  1
\A1;6
  7
Dimsmall
 73
     1
 44
1.0
1001
ACAD
1000
MTEXTBEGIN
1070
    73
1070
     1
1070
    44
1040
1.0
1070
    74
1070
     0
1000
MTEXTEND
  0
POINT
  5
22E4
330
22DA
100
AcDbEntity
  8
Defpoints
 62
     0
100
AcDbPoint
 10
1324.0
 20
500.0
 30
0.0
  0
POINT
  5
22E5
330
22DA
100
AcDbEntity
  8
Defpoints
 62
     0
100
AcDbPoint
 10
1330.0
 20
500.0
 30
0.0
  0
POINT
  5
22E6
330
22DA
100
AcDbEntity
  8
Defpoints
 62
     0
100
AcDbPoint
 10
1330.0
 20
580.0
 30
0.0
  0
ENDBLK
  5
22DC
330
22DA
100
AcDbEntity
  8
0
100
AcDbBlockEnd
  0
BLOCK
  5
22E9
330
22E8
100
AcDbEntity
  8
0
100
AcDbBlockBegin
  2
*D10
 70
     1
 10
0.0
 20
0.0
 30
0.0
  3
*D10
  1

  0
LINE
  5
22EB
330
22E8
100
AcDbEntity
  8
寸法線
 62
     0
370
    -2
100
AcDbLine
 10
470.0
 20
452.0
 30
0.0
 11
470.0
 21
380.2
 31
0.0
  0
LINE
  5
22EC
330
22E8
100
AcDbEntity
  8
寸法線
 62
     0
370
    -2
100
AcDbLine
 10
1270.0
 20
452.0
 30
0.0
 11
1270.0
 21
380.2
 31
0.0
  0
LINE
  5
22ED
330
22E8
100
AcDbEntity
  8
寸法線
 62
     0
370
    -2
100
AcDbLine
 10
480.0
 20
382.0
 30
0.0
 11
1260.0
 21
382.0
 31
0.0
  0
SOLID
  5
22EE
330
22E8
100
AcDbEntity
  8
寸法線
 62
     0
100
AcDbTrace
 10
480.0
 20
383.6666666666667
 30
0.0
 11
480.0
 21
380.3333333333333
 31
0.0
 12
470.0
 22
382.0
 32
0.0
 13
470.0
 23
382.0
 33
0.0
  0
SOLID
  5
22EF
330
22E8
100
AcDbEntity
  8
寸法線
 62
     0
100
AcDbTrace
 10
1260.0
 20
383.6666666666667
 30
0.0
 11
1260.0
 21
380.3333333333333
 31
0.0
 12
1270.0
 22
382.0
 32
0.0
 13
1270.0
 23
382.0
 33
0.0
  0
MTEXT
  5
22F0
330
22E8
100
AcDbEntity
  8
寸法線
 62
     0
100
AcDbMText
 10
870.0
 20
395.6797407912688
 30
0.0
 40
17.0
 41
0.0
 71
     5
 72
     1
  1
\A1;800
  7
Dimsmall
 73
     1
 44
1.0
1001
ACAD
1000
MTEXTBEGIN
1070
    73
1070
     1
1070
    44
1040
1.0
1070
    74
1070
     0
1000
MTEXTEND
  0
POINT
  5
22F1
330
22E8
100
AcDbEntity
  8
Defpoints
 62
     0
100
AcDbPoint
 10
470.0
 20
462.0
 30
0.0
  0
POINT
  5
22F2
330
22E8
100
AcDbEntity
  8
Defpoints
 62
     0
100
AcDbPoint
 10
1270.0
 20
462.0
 30
0.0
  0
POINT
  5
22F3
330
22E8
100
AcDbEntity
  8
Defpoints
 62
     0
100
AcDbPoint
 10
1270.0
 20
382.0
 30
0.0
  0
ENDBLK
  5
22EA
330
22E8
100
AcDbEntity
  8
0
100
AcDbBlockEnd
  0
BLOCK
  5
2312
330
2311
100
AcDbEntity
  8
0
100
AcDbBlockBegin
  2
*D11
 70
     1
 10
0.0
 20
0.0
 30
0.0
  3
*D11
  1

  0
LINE
  5
2314
330
2311
100
AcDbEntity
  8
寸法線
 62
     0
370
    -2
100
AcDbLine
 10
1714.0
 20
741.0
 30
0.0
 11
1714.0
 21
529.2
 31
0.0
  0
LINE
  5
2315
330
2311
100
AcDbEntity
  8
寸法線
 62
     0
370
    -2
100
AcDbLine
 10
1720.0
 20
741.0
 30
0.0
 11
1720.0
 21
529.2
 31
0.0
  0
LINE
  5
2316
330
2311
100
AcDbEntity
  8
寸法線
 62
     0
370
    -2
100
AcDbLine
 10
1704.0
 20
531.0
 30
0.0
 11
1694.0
 21
531.0
 31
0.0
  0
LINE
  5
2317
330
2311
100
AcDbEntity
  8
寸法線
 62
     0
370
    -2
100
AcDbLine
 10
1730.0
 20
531.0
 30
0.0
 11
1761.225102319236
 21
531.0
 31
0.0
  0
SOLID
  5
2318
330
2311
100
AcDbEntity
  8
寸法線
 62
     0
100
AcDbTrace
 10
1704.0
 20
532.6666666666666
 30
0.0
 11
1704.0
 21
529.3333333333333
 31
0.0
 12
1714.0
 22
531.0
 32
0.0
 13
1714.0
 23
531.0
 33
0.0
  0
SOLID
  5
2319
330
2311
100
AcDbEntity
  8
寸法線
 62
     0
100
AcDbTrace
 10
1730.0
 20
532.6666666666666
 30
0.0
 11
1730.0
 21
529.3333333333333
 31
0.0
 12
1720.0
 22
531.0
 32
0.0
 13
1720.0
 23
531.0
 33
0.0
  0
MTEXT
  5
231A
330
2311
100
AcDbEntity
  8
寸法線
 62
     0
100
AcDbMText
 10
1750.612551159617
 20
544.6797407912687
 30
0.0
 40
17.0
 41
0.0
 71
     5
 72
     1
  1
\A1;6
  7
Dimsmall
 73
     1
 44
1.0
1001
ACAD
1000
MTEXTBEGIN
1070
    73
1070
     1
1070
    44
1040
1.0
1070
    74
1070
     0
1000
MTEXTEND
  0
POINT
  5
231B
330
2311
100
AcDbEntity
  8
Defpoints
 62
     0
100
AcDbPoint
 10
1714.0
 20
751.0
 30
0.0
  0
POINT
  5
231C
330
2311
100
AcDbEntity
  8
Defpoints
 62
     0
100
AcDbPoint
 10
1720.0
 20
751.0
 30
0.0
  0
POINT
  5
231D
330
2311
100
AcDbEntity
  8
Defpoints
 62
     0
100
AcDbPoint
 10
1720.0
 20
531.0
 30
0.0
  0
ENDBLK
  5
2313
330
2311
100
AcDbEntity
  8
0
100
AcDbBlockEnd
  0
BLOCK
  5
2320
330
231F
100
AcDbEntity
  8
0
100
AcDbBlockBegin
  2
*D12
 70
     1
 10
0.0
 20
0.0
 30
0.0
  3
*D12
  1

  0
LINE
  5
2322
330
231F
100
AcDbEntity
  8
寸法線
 62
     0
370
    -2
100
AcDbLine
 10
1670.0
 20
741.0
 30
0.0
 11
1670.0
 21
459.1999999999998
 31
0.0
  0
LINE
  5
2323
330
231F
100
AcDbEntity
  8
寸法線
 62
     0
370
    -2
100
AcDbLine
 10
1720.0
 20
741.0
 30
0.0
 11
1720.0
 21
459.1999999999998
 31
0.0
  0
LINE
  5
2324
330
231F
100
AcDbEntity
  8
寸法線
 62
     0
370
    -2
100
AcDbLine
 10
1680.0
 20
461.0
 30
0.0
 11
1710.0
 21
461.0
 31
0.0
  0
SOLID
  5
2325
330
231F
100
AcDbEntity
  8
寸法線
 62
     0
100
AcDbTrace
 10
1680.0
 20
462.6666666666666
 30
0.0
 11
1680.0
 21
459.3333333333331
 31
0.0
 12
1670.0
 22
461.0
 32
0.0
 13
1670.0
 23
461.0
 33
0.0
  0
SOLID
  5
2326
330
231F
100
AcDbEntity
  8
寸法線
 62
     0
100
AcDbTrace
 10
1710.0
 20
462.6666666666666
 30
0.0
 11
1710.0
 21
459.3333333333331
 31
0.0
 12
1720.0
 22
461.0
 32
0.0
 13
1720.0
 23
461.0
 33
0.0
  0
MTEXT
  5
2327
330
231F
100
AcDbEntity
  8
寸法線
 62
     0
100
AcDbMText
 10
1695.0
 20
474.6797407912686
 30
0.0
 40
17.0
 41
0.0
 71
     5
 72
     1
  1
\A1;50
  7
Dimsmall
 73
     1
 44
1.0
1001
ACAD
1000
MTEXTBEGIN
1070
    73
1070
     1
1070
    44
1040
1.0
1070
    74
1070
     0
1000
MTEXTEND
  0
POINT
  5
2328
330
231F
100
AcDbEntity
  8
Defpoints
 62
     0
100
AcDbPoint
 10
1670.0
 20
751.0
 30
0.0
  0
POINT
  5
2329
330
231F
100
AcDbEntity
  8
Defpoints
 62
     0
100
AcDbPoint
 10
1720.0
 20
751.0
 30
0.0
  0
POINT
  5
232A
330
231F
100
AcDbEntity
  8
Defpoints
 62
     0
100
AcDbPoint
 10
1720.0
 20
461.0
 30
0.0
  0
ENDBLK
  5
2321
330
231F
100
AcDbEntity
  8
0
100
AcDbBlockEnd
  0
BLOCK
  5
232D
330
232C
100
AcDbEntity
  8
0
100
AcDbBlockBegin
  2
*D13
 70
     1
 10
0.0
 20
0.0
 30
0.0
  3
*D13
  1

  0
LINE
  5
232F
330
232C
100
AcDbEntity
  8
寸法線
 62
     0
370
    -2
100
AcDbLine
 10
1660.0
 20
1690.0
 30
0.0
 11
1518.2
 21
1690.0
 31
0.0
  0
LINE
  5
2330
330
232C
100
AcDbEntity
  8
寸法線
 62
     0
370
    -2
100
AcDbLine
 10
1660.0
 20
770.0
 30
0.0
 11
1518.2
 21
770.0
 31
0.0
  0
LINE
  5
2331
330
232C
100
AcDbEntity
  8
寸法線
 62
     0
370
    -2
100
AcDbLine
 10
1520.0
 20
1680.0
 30
0.0
 11
1520.0
 21
780.0
 31
0.0
  0
SOLID
  5
2332
330
232C
100
AcDbEntity
  8
寸法線
 62
     0
100
AcDbTrace
 10
1518.333333333333
 20
1680.0
 30
0.0
 11
1521.666666666667
 21
1680.0
 31
0.0
 12
1520.0
 22
1690.0
 32
0.0
 13
1520.0
 23
1690.0
 33
0.0
  0
SOLID
  5
2333
330
232C
100
AcDbEntity
  8
寸法線
 62
     0
100
AcDbTrace
 10
1518.333333333333
 20
780.0
 30
0.0
 11
1521.666666666667
 21
780.0
 31
0.0
 12
1520.0
 22
770.0
 32
0.0
 13
1520.0
 23
770.0
 33
0.0
  0
MTEXT
  5
2334
330
232C
100
AcDbEntity
  8
寸法線
 62
     0
100
AcDbMText
 10
1506.320259208731
 20
1230.0
 30
0.0
 40
17.0
 41
0.0
 71
     5
 72
     1
  1
\A1;920
  7
Dimsmall
 11
0.0000000000000001
 21
1.0
 31
0.0
 73
     1
 44
1.0
1001
ACAD
1000
MTEXTBEGIN
1070
    73
1070
     1
1070
    44
1040
1.0
1070
    74
1070
     0
1000
MTEXTEND
  0
POINT
  5
2335
330
232C
100
AcDbEntity
  8
Defpoints
 62
     0
100
AcDbPoint
 10
1670.0
 20
1690.0
 30
0.0
  0
POINT
  5
2336
330
232C
100
AcDbEntity
  8
Defpoints
 62
     0
100
AcDbPoint
 10
1670.0
 20
770.0
 30
0.0
  0
POINT
  5
2337
330
232C
100
AcDbEntity
  8
Defpoints
 62
     0
100
AcDbPoint
 10
1520.0
 20
770.0
 30
0.0
  0
ENDBLK
  5
232E
330
232C
100
AcDbEntity
  8
0
100
AcDbBlockEnd
  0
BLOCK
  5
233A
330
2339
100
AcDbEntity
  8
0
100
AcDbBlockBegin
  2
*D14
 70
     1
 10
0.0
 20
0.0
 30
0.0
  3
*D14
  1

  0
LINE
  5
233C
330
2339
100
AcDbEntity
  8
寸法線
 62
     0
370
    -2
100
AcDbLine
 10
1660.0
 20
1690.0
 30
0.0
 11
1588.2
 21
1690.0
 31
0.0
  0
LINE
  5
233D
330
2339
100
AcDbEntity
  8
寸法線
 62
     0
370
    -2
100
AcDbLine
 10
1660.0
 20
1684.0
 30
0.0
 11
1588.2
 21
1684.0
 31
0.0
  0
LINE
  5
233E
330
2339
100
AcDbEntity
  8
寸法線
 62
     0
370
    -2
100
AcDbLine
 10
1590.0
 20
1674.0
 30
0.0
 11
1590.0
 21
1664.0
 31
0.0
  0
LINE
  5
233F
330
2339
100
AcDbEntity
  8
寸法線
 62
     0
370
    -2
100
AcDbLine
 10
1590.0
 20
1700.0
 30
0.0
 11
1590.0
 21
1740.612551159617
 31
0.0
  0
SOLID
  5
2340
330
2339
100
AcDbEntity
  8
寸法線
 62
     0
100
AcDbTrace
 10
1588.333333333333
 20
1674.0
 30
0.0
 11
1591.666666666667
 21
1674.0
 31
0.0
 12
1590.0
 22
1684.0
 32
0.0
 13
1590.0
 23
1684.0
 33
0.0
  0
SOLID
  5
2341
330
2339
100
AcDbEntity
  8
寸法線
 62
     0
100
AcDbTrace
 10
1588.333333333333
 20
1700.0
 30
0.0
 11
1591.666666666667
 21
1700.0
 31
0.0
 12
1590.0
 22
1690.0
 32
0.0
 13
1590.0
 23
1690.0
 33
0.0
  0
MTEXT
  5
2342
330
2339
100
AcDbEntity
  8
寸法線
 62
     0
100
AcDbMText
 10
1576.320259208731
 20
1730.0
 30
0.0
 40
17.0
 41
0.0
 71
     5
 72
     1
  1
\A1;6
  7
Dimsmall
 11
0.0000000000000001
 21
1.0
 31
0.0
 73
     1
 44
1.0
1001
ACAD
1000
MTEXTBEGIN
1070
    73
1070
     1
1070
    44
1040
1.0
1070
    74
1070
     0
1000
MTEXTEND
  0
POINT
  5
2343
330
2339
100
AcDbEntity
  8
Defpoints
 62
     0
100
AcDbPoint
 10
1670.0
 20
1690.0
 30
0.0
  0
POINT
  5
2344
330
2339
100
AcDbEntity
  8
Defpoints
 62
     0
100
AcDbPoint
 10
1670.0
 20
1684.0
 30
0.0
  0
POINT
  5
2345
330
2339
100
AcDbEntity
  8
Defpoints
 62
     0
100
AcDbPoint
 10
1590.0
 20
1684.0
 30
0.0
  0
ENDBLK
  5
233B
330
2339
100
AcDbEntity
  8
0
100
AcDbBlockEnd
  0
BLOCK
  5
2348
330
2347
100
AcDbEntity
  8
0
100
AcDbBlockBegin
  2
*D15
 70
     1
 10
0.0
 20
0.0
 30
0.0
  3
*D15
  1

  0
LINE
  5
234A
330
2347
100
AcDbEntity
  8
寸法線
 62
     0
370
    -2
100
AcDbLine
 10
1660.0
 20
1684.0
 30
0.0
 11
1588.2
 21
1684.0
 31
0.0
  0
LINE
  5
234B
330
2347
100
AcDbEntity
  8
寸法線
 62
     0
370
    -2
100
AcDbLine
 10
1660.0
 20
1680.0
 30
0.0
 11
1588.2
 21
1680.0
 31
0.0
  0
LINE
  5
234C
330
2347
100
AcDbEntity
  8
寸法線
 62
     0
370
    -2
100
AcDbLine
 10
1590.0
 20
1694.0
 30
0.0
 11
1590.0
 21
1704.0
 31
0.0
  0
LINE
  5
234D
330
2347
100
AcDbEntity
  8
寸法線
 62
     0
370
    -2
100
AcDbLine
 10
1590.0
 20
1670.0
 30
0.0
 11
1590.0
 21
1638.241473396998
 31
0.0
  0
SOLID
  5
234E
330
2347
100
AcDbEntity
  8
寸法線
 62
     0
100
AcDbTrace
 10
1588.333333333333
 20
1694.0
 30
0.0
 11
1591.666666666667
 21
1694.0
 31
0.0
 12
1590.0
 22
1684.0
 32
0.0
 13
1590.0
 23
1684.0
 33
0.0
  0
SOLID
  5
234F
330
2347
100
AcDbEntity
  8
寸法線
 62
     0
100
AcDbTrace
 10
1588.333333333333
 20
1670.0
 30
0.0
 11
1591.666666666667
 21
1670.0
 31
0.0
 12
1590.0
 22
1680.0
 32
0.0
 13
1590.0
 23
1680.0
 33
0.0
  0
MTEXT
  5
2350
330
2347
100
AcDbEntity
  8
寸法線
 62
     0
100
AcDbMText
 10
1576.5
 20
1649.1207366985
 30
0.0
 40
17.0
 41
0.0
 71
     5
 72
     1
  1
\A1;4
  7
Dimsmall
 11
0.0000000000000001
 21
1.0
 31
0.0
 73
     1
 44
1.0
1001
ACAD
1000
MTEXTBEGIN
1070
    73
1070
     1
1070
    44
1040
1.0
1070
    74
1070
     0
1000
MTEXTEND
  0
POINT
  5
2351
330
2347
100
AcDbEntity
  8
Defpoints
 62
     0
100
AcDbPoint
 10
1670.0
 20
1684.0
 30
0.0
  0
POINT
  5
2352
330
2347
100
AcDbEntity
  8
Defpoints
 62
     0
100
AcDbPoint
 10
1670.0
 20
1680.0
 30
0.0
  0
POINT
  5
2353
330
2347
100
AcDbEntity
  8
Defpoints
 62
     0
100
AcDbPoint
 10
1590.0
 20
1680.0
 30
0.0
  0
ENDBLK
  5
2349
330
2347
100
AcDbEntity
  8
0
100
AcDbBlockEnd
  0
BLOCK
  5
2356
330
2355
100
AcDbEntity
  8
0
100
AcDbBlockBegin
  2
*D16
 70
     1
 10
0.0
 20
0.0
 30
0.0
  3
*D16
  1

  0
LINE
  5
2358
330
2355
100
AcDbEntity
  8
寸法線
 62
     0
370
    -2
100
AcDbLine
 10
1660.0
 20
780.0
 30
0.0
 11
1588.2
 21
780.0
 31
0.0
  0
LINE
  5
2359
330
2355
100
AcDbEntity
  8
寸法線
 62
     0
370
    -2
100
AcDbLine
 10
1660.0
 20
776.0
 30
0.0
 11
1588.2
 21
776.0
 31
0.0
  0
LINE
  5
235A
330
2355
100
AcDbEntity
  8
寸法線
 62
     0
370
    -2
100
AcDbLine
 10
1590.0
 20
766.0
 30
0.0
 11
1590.0
 21
756.0
 31
0.0
  0
LINE
  5
235B
330
2355
100
AcDbEntity
  8
寸法線
 62
     0
370
    -2
100
AcDbLine
 10
1590.0
 20
790.0
 30
0.0
 11
1590.0
 21
830.8792633015004
 31
0.0
  0
SOLID
  5
235C
330
2355
100
AcDbEntity
  8
寸法線
 62
     0
100
AcDbTrace
 10
1588.333333333333
 20
766.0
 30
0.0
 11
1591.666666666667
 21
766.0
 31
0.0
 12
1590.0
 22
776.0
 32
0.0
 13
1590.0
 23
776.0
 33
0.0
  0
SOLID
  5
235D
330
2355
100
AcDbEntity
  8
寸法線
 62
     0
100
AcDbTrace
 10
1588.333333333333
 20
790.0
 30
0.0
 11
1591.666666666667
 21
790.0
 31
0.0
 12
1590.0
 22
780.0
 32
0.0
 13
1590.0
 23
780.0
 33
0.0
  0
MTEXT
  5
235E
330
2355
100
AcDbEntity
  8
寸法線
 62
     0
100
AcDbMText
 10
1576.5
 20
820.0
 30
0.0
 40
17.0
 41
0.0
 71
     5
 72
     1
  1
\A1;4
  7
Dimsmall
 11
0.0000000000000001
 21
1.0
 31
0.0
 73
     1
 44
1.0
1001
ACAD
1000
MTEXTBEGIN
1070
    73
1070
     1
1070
    44
1040
1.0
1070
    74
1070
     0
1000
MTEXTEND
  0
POINT
  5
235F
330
2355
100
AcDbEntity
  8
Defpoints
 62
     0
100
AcDbPoint
 10
1670.0
 20
780.0
 30
0.0
  0
POINT
  5
2360
330
2355
100
AcDbEntity
  8
Defpoints
 62
     0
100
AcDbPoint
 10
1670.0
 20
776.0
 30
0.0
  0
POINT
  5
2361
330
2355
100
AcDbEntity
  8
Defpoints
 62
     0
100
AcDbPoint
 10
1590.0
 20
776.0
 30
0.0
  0
ENDBLK
  5
2357
330
2355
100
AcDbEntity
  8
0
100
AcDbBlockEnd
  0
BLOCK
  5
2364
330
2363
100
AcDbEntity
  8
0
100
AcDbBlockBegin
  2
*D17
 70
     1
 10
0.0
 20
0.0
 30
0.0
  3
*D17
  1

  0
LINE
  5
2366
330
2363
100
AcDbEntity
  8
寸法線
 62
     0
370
    -2
100
AcDbLine
 10
1660.0
 20
776.0
 30
0.0
 11
1588.2
 21
776.0
 31
0.0
  0
LINE
  5
2367
330
2363
100
AcDbEntity
  8
寸法線
 62
     0
370
    -2
100
AcDbLine
 10
1660.0
 20
770.0
 30
0.0
 11
1588.2
 21
770.0
 31
0.0
  0
LINE
  5
2368
330
2363
100
AcDbEntity
  8
寸法線
 62
     0
370
    -2
100
AcDbLine
 10
1590.0
 20
786.0
 30
0.0
 11
1590.0
 21
796.0
 31
0.0
  0
LINE
  5
2369
330
2363
100
AcDbEntity
  8
寸法線
 62
     0
370
    -2
100
AcDbLine
 10
1590.0
 20
760.0
 30
0.0
 11
1590.0
 21
725.3874488403813
 31
0.0
  0
SOLID
  5
236A
330
2363
100
AcDbEntity
  8
寸法線
 62
     0
100
AcDbTrace
 10
1588.333333333333
 20
786.0
 30
0.0
 11
1591.666666666667
 21
786.0
 31
0.0
 12
1590.0
 22
776.0
 32
0.0
 13
1590.0
 23
776.0
 33
0.0
  0
SOLID
  5
236B
330
2363
100
AcDbEntity
  8
寸法線
 62
     0
100
AcDbTrace
 10
1588.333333333333
 20
760.0
 30
0.0
 11
1591.666666666667
 21
760.0
 31
0.0
 12
1590.0
 22
770.0
 32
0.0
 13
1590.0
 23
770.0
 33
0.0
  0
MTEXT
  5
236C
330
2363
100
AcDbEntity
  8
寸法線
 62
     0
100
AcDbMText
 10
1576.320259208731
 20
736.0
 30
0.0
 40
17.0
 41
0.0
 71
     5
 72
     1
  1
\A1;6
  7
Dimsmall
 11
0.0000000000000001
 21
1.0
 31
0.0
 73
     1
 44
1.0
1001
ACAD
1000
MTEXTBEGIN
1070
    73
1070
     1
1070
    44
1040
1.0
1070
    74
1070
     0
1000
MTEXTEND
  0
POINT
  5
236D
330
2363
100
AcDbEntity
  8
Defpoints
 62
     0
100
AcDbPoint
 10
1670.0
 20
776.0
 30
0.0
  0
POINT
  5
236E
330
2363
100
AcDbEntity
  8
Defpoints
 62
     0
100
AcDbPoint
 10
1670.0
 20
770.0
 30
0.0
  0
POINT
  5
236F
330
2363
100
AcDbEntity
  8
Defpoints
 62
     0
100
AcDbPoint
 10
1590.0
 20
770.0
 30
0.0
  0
ENDBLK
  5
2365
330
2363
100
AcDbEntity
  8
0
100
AcDbBlockEnd
  0
BLOCK
  5
2372
330
2371
100
AcDbEntity
  8
0
100
AcDbBlockBegin
  2
*D18
 70
     1
 10
0.0
 20
0.0
 30
0.0
  3
*D18
  1

  0
LINE
  5
2374
330
2371
100
AcDbEntity
  8
寸法線
 62
     0
370
    -2
100
AcDbLine
 10
1718.0
 20
1630.0
 30
0.0
 11
1789.8
 21
1630.0
 31
0.0
  0
LINE
  5
2375
330
2371
100
AcDbEntity
  8
寸法線
 62
     0
370
    -2
100
AcDbLine
 10
1718.0
 20
830.0
 30
0.0
 11
1789.8
 21
830.0
 31
0.0
  0
LINE
  5
2376
330
2371
100
AcDbEntity
  8
寸法線
 62
     0
370
    -2
100
AcDbLine
 10
1788.0
 20
1620.0
 30
0.0
 11
1788.0
 21
840.0
 31
0.0
  0
SOLID
  5
2377
330
2371
100
AcDbEntity
  8
寸法線
 62
     0
100
AcDbTrace
 10
1786.333333333334
 20
1620.0
 30
0.0
 11
1789.666666666667
 21
1620.0
 31
0.0
 12
1788.0
 22
1630.0
 32
0.0
 13
1788.0
 23
1630.0
 33
0.0
  0
SOLID
  5
2378
330
2371
100
AcDbEntity
  8
寸法線
 62
     0
100
AcDbTrace
 10
1786.333333333334
 20
840.0
 30
0.0
 11
1789.666666666667
 21
840.0
 31
0.0
 12
1788.0
 22
830.0
 32
0.0
 13
1788.0
 23
830.0
 33
0.0
  0
MTEXT
  5
2379
330
2371
100
AcDbEntity
  8
寸法線
 62
     0
100
AcDbMText
 10
1774.320259208731
 20
1230.0
 30
0.0
 40
17.0
 41
0.0
 71
     5
 72
     1
  1
\A1;800
  7
Dimsmall
 11
0.0000000000000001
 21
1.0
 31
0.0
 73
     1
 44
1.0
1001
ACAD
1000
MTEXTBEGIN
1070
    73
1070
     1
1070
    44
1040
1.0
1070
    74
1070
     0
1000
MTEXTEND
  0
POINT
  5
237A
330
2371
100
AcDbEntity
  8
Defpoints
 62
     0
100
AcDbPoint
 10
1708.0
 20
1630.0
 30
0.0
  0
POINT
  5
237B
330
2371
100
AcDbEntity
  8
Defpoints
 62
     0
100
AcDbPoint
 10
1708.0
 20
830.0
 30
0.0
  0
POINT
  5
237C
330
2371
100
AcDbEntity
  8
Defpoints
 62
     0
100
AcDbPoint
 10
1788.0
 20
830.0
 30
0.0
  0
ENDBLK
  5
2373
330
2371
100
AcDbEntity
  8
0
100
AcDbBlockEnd
  0
BLOCK
  5
23BF
330
23BE
100
AcDbEntity
  8
0
100
AcDbBlockBegin
  2
*G01919191919
 70
     1
 10
0.0
 20
0.0
 30
0.0
  3
*G01919191919
  1

  0
LINE
  5
23C0
330
23BE
100
AcDbEntity
  8
寸法
  6
ByBlock
 62
     0
370
    -2
100
AcDbLine
 10
312.5
 20
290.0
 30
0.0
 11
312.5
 21
260.0
 31
0.0
  0
LINE
  5
23C1
330
23BE
100
AcDbEntity
  8
寸法
  6
ByBlock
 62
     0
370
    -2
100
AcDbLine
 10
212.5
 20
282.5
 30
0.0
 11
212.5
 21
260.0
 31
0.0
  0
LINE
  5
23C2
330
23BE
100
AcDbEntity
  8
寸法
  6
ByBlock
 62
     0
370
    -2
100
AcDbLine
 10
312.5
 20
265.0
 30
0.0
 11
212.5
 21
265.0
 31
0.0
  0
POINT
  5
23C3
330
23BE
100
AcDbEntity
  8
寸法
  6
ByBlock
 62
     0
370
    -2
100
AcDbPoint
 10
312.5
 20
265.0
 30
0.0
 50
180.0
  0
POINT
  5
23C4
330
23BE
100
AcDbEntity
  8
寸法
  6
ByBlock
 62
     0
370
    -2
100
AcDbPoint
 10
212.5
 20
265.0
 30
0.0
  0
TEXT
  5
23C5
330
23BE
100
AcDbEntity
  8
寸法
  6
Continuous
 62
     0
370
    -2
100
AcDbText
 10
250.3125
 20
266.875
 30
0.0
 40
15.0
  1
100
 41
0.609375
  7
TextStyle01
 72
     5
 11
274.6875
 21
266.875
 31
0.0
100
AcDbText
  0
ENDBLK
  5
23C6
330
23BE
100
AcDbEntity
  8
0
100
AcDbBlockEnd
  0
BLOCK
  5
23C8
330
23C7
100
AcDbEntity
  8
0
100
AcDbBlockBegin
  2
*G12020202020
 70
     1
 10
0.0
 20
0.0
 30
0.0
  3
*G12020202020
  1

  0
LINE
  5
23C9
330
23C7
100
AcDbEntity
  8
寸法
  6
ByBlock
 62
     0
370
    -2
100
AcDbLine
 10
-687.5
 20
435.0
 30
0.0
 11
-687.5
 21
475.0
 31
0.0
  0
LINE
  5
23CA
330
23C7
100
AcDbEntity
  8
寸法
  6
ByBlock
 62
     0
370
    -2
100
AcDbLine
 10
312.5
 20
435.0
 30
0.0
 11
312.5
 21
475.0
 31
0.0
  0
LINE
  5
23CB
330
23C7
100
AcDbEntity
  8
寸法
  6
ByBlock
 62
     0
370
    -2
100
AcDbLine
 10
-687.5
 20
470.0
 30
0.0
 11
312.5
 21
470.0
 31
0.0
  0
POINT
  5
23CC
330
23C7
100
AcDbEntity
  8
寸法
  6
ByBlock
 62
     0
370
    -2
100
AcDbPoint
 10
-687.5
 20
470.0
 30
0.0
  0
POINT
  5
23CD
330
23C7
100
AcDbEntity
  8
寸法
  6
ByBlock
 62
     0
370
    -2
100
AcDbPoint
 10
312.5
 20
470.0
 30
0.0
 50
180.0
  0
TEXT
  5
23CE
330
23C7
100
AcDbEntity
  8
寸法
  6
Continuous
 62
     0
370
    -2
100
AcDbText
 10
-203.90625
 20
471.875
 30
0.0
 40
15.0
  1
1000
 41
0.5965909090909091
  7
TextStyle01
 72
     5
 11
-171.09375
 21
471.875
 31
0.0
100
AcDbText
  0
ENDBLK
  5
23CF
330
23C7
100
AcDbEntity
  8
0
100
AcDbBlockEnd
  0
BLOCK
  5
23D1
330
23D0
100
AcDbEntity
  8
0
100
AcDbBlockBegin
  2
*G22121212121
 70
     1
 10
0.0
 20
0.0
 30
0.0
  3
*G22121212121
  1

  0
LINE
  5
23D2
330
23D0
100
AcDbEntity
  8
寸法
  6
ByBlock
 62
     0
370
    -2
100
AcDbLine
 10
312.5
 20
435.0
 30
0.0
 11
312.5
 21
475.0
 31
0.0
  0
LINE
  5
23D3
330
23D0
100
AcDbEntity
  8
寸法
  6
ByBlock
 62
     0
370
    -2
100
AcDbLine
 10
319.5
 20
435.0
 30
0.0
 11
319.5
 21
475.0
 31
0.0
  0
LINE
  5
23D4
330
23D0
100
AcDbEntity
  8
寸法
  6
ByBlock
 62
     0
370
    -2
100
AcDbLine
 10
312.5
 20
470.0
 30
0.0
 11
319.5
 21
470.0
 31
0.0
  0
POINT
  5
23D5
330
23D0
100
AcDbEntity
  8
寸法
  6
ByBlock
 62
     0
370
    -2
100
AcDbPoint
 10
312.5
 20
470.0
 30
0.0
  0
POINT
  5
23D6
330
23D0
100
AcDbEntity
  8
寸法
  6
ByBlock
 62
     0
370
    -2
100
AcDbPoint
 10
319.5
 20
470.0
 30
0.0
 50
180.0
  0
TEXT
  5
23D7
330
23D0
100
AcDbEntity
  8
寸法
  6
Continuous
 62
     0
370
    -2
100
AcDbText
 10
312.25
 20
471.875
 30
0.0
 40
15.0
  1
7
 41
0.75
  7
TextStyle01
 72
     5
 11
319.75
 21
471.875
 31
0.0
100
AcDbText
  0
ENDBLK
  5
23D8
330
23D0
100
AcDbEntity
  8
0
100
AcDbBlockEnd
  0
BLOCK
  5
23DA
330
23D9
100
AcDbEntity
  8
0
100
AcDbBlockBegin
  2
GRP_0005
 70
     0
 10
0.0
 20
0.0
 30
0.0
  3
GRP_0005
  1

  0
LINE
  5
23DB
330
23D9
100
AcDbEntity
  8
寸法
  6
ByBlock
 62
     0
370
    -2
100
AcDbLine
 10
251.390873
 20
323.609127
 30
0.0
 11
341.367513
 21
248.109761
 31
0.0
  0
POLYLINE
  5
23DC
330
23D9
100
AcDbEntity
  8
寸法
  6
ByBlock
 62
     0
370
    -2
100
AcDb2dPolyline
 66
     1
 10
0.0
 20
0.0
 30
0.0
  0
VERTEX
  5
23DD
330
23DC
100
AcDbEntity
  8
寸法
  6
ByBlock
 62
     0
370
    -2
100
AcDbVertex
100
AcDb2dVertex
 10
259.987167
 20
318.499947
 30
0.0
  0
VERTEX
  5
23DE
330
23DC
100
AcDbEntity
  8
寸法
  6
ByBlock
 62
     0
370
    -2
100
AcDbVertex
100
AcDb2dVertex
 10
251.390873
 20
323.609127
 30
0.0
  0
VERTEX
  5
23DF
330
23DC
100
AcDbEntity
  8
寸法
  6
ByBlock
 62
     0
370
    -2
100
AcDbVertex
100
AcDb2dVertex
 10
257.915164
 20
316.03063
 30
0.0
  0
SEQEND
  5
23E0
330
23DC
100
AcDbEntity
  8
寸法
  6
ByBlock
 62
     0
370
    -2
  0
ENDBLK
  5
23E1
330
23D9
100
AcDbEntity
  8
0
100
AcDbBlockEnd
  0
BLOCK
  5
23E3
330
23E2
100
AcDbEntity
  8
0
100
AcDbBlockBegin
  2
*G42323232323
 70
     1
 10
0.0
 20
0.0
 30
0.0
  3
*G42323232323
  1

  0
LINE
  5
23E4
330
23E2
100
AcDbEntity
  8
寸法
  6
ByBlock
 62
     0
370
    -2
100
AcDbLine
 10
324.5
 20
295.0
 30
0.0
 11
363.5
 21
295.0
 31
0.0
  0
LINE
  5
23E5
330
23E2
100
AcDbEntity
  8
寸法
  6
ByBlock
 62
     0
370
    -2
100
AcDbLine
 10
324.5
 20
430.0
 30
0.0
 11
363.5
 21
430.0
 31
0.0
  0
LINE
  5
23E6
330
23E2
100
AcDbEntity
  8
寸法
  6
ByBlock
 62
     0
370
    -2
100
AcDbLine
 10
358.5
 20
295.0
 30
0.0
 11
358.5
 21
430.0
 31
0.0
  0
POINT
  5
23E7
330
23E2
100
AcDbEntity
  8
寸法
  6
ByBlock
 62
     0
370
    -2
100
AcDbPoint
 10
358.5
 20
295.0
 30
0.0
 50
90.0
  0
POINT
  5
23E8
330
23E2
100
AcDbEntity
  8
寸法
  6
ByBlock
 62
     0
370
    -2
100
AcDbPoint
 10
358.5
 20
430.0
 30
0.0
 50
270.0
  0
TEXT
  5
23E9
330
23E2
100
AcDbEntity
  8
寸法
  6
Continuous
 62
     0
370
    -2
100
AcDbText
 10
356.625
 20
350.3125
 30
0.0
 40
15.0
  1
135
 50
90.0
 41
0.609375
  7
TextStyle01
 72
     5
 11
356.625
 21
374.6875
 31
0.0
100
AcDbText
  0
ENDBLK
  5
23EA
330
23E2
100
AcDbEntity
  8
0
100
AcDbBlockEnd
  0
BLOCK
  5
23EC
330
23EB
100
AcDbEntity
  8
0
100
AcDbBlockBegin
  2
*G52424242424
 70
     1
 10
0.0
 20
0.0
 30
0.0
  3
*G52424242424
  1

  0
LINE
  5
23ED
330
23EB
100
AcDbEntity
  8
寸法
  6
ByBlock
 62
     0
370
    -2
100
AcDbLine
 10
-687.5
 20
395.0
 30
0.0
 11
-687.5
 21
435.0
 31
0.0
  0
LINE
  5
23EE
330
23EB
100
AcDbEntity
  8
寸法
  6
ByBlock
 62
     0
370
    -2
100
AcDbLine
 10
312.5
 20
395.0
 30
0.0
 11
312.5
 21
435.0
 31
0.0
  0
LINE
  5
23EF
330
23EB
100
AcDbEntity
  8
寸法
  6
ByBlock
 62
     0
370
    -2
100
AcDbLine
 10
-687.5
 20
430.0
 30
0.0
 11
312.5
 21
430.0
 31
0.0
  0
POINT
  5
23F0
330
23EB
100
AcDbEntity
  8
寸法
  6
ByBlock
 62
     0
370
    -2
100
AcDbPoint
 10
-687.5
 20
430.0
 30
0.0
  0
POINT
  5
23F1
330
23EB
100
AcDbEntity
  8
寸法
  6
ByBlock
 62
     0
370
    -2
100
AcDbPoint
 10
312.5
 20
430.0
 30
0.0
 50
180.0
  0
TEXT
  5
23F2
330
23EB
100
AcDbEntity
  8
寸法
  6
Continuous
 62
     0
370
    -2
100
AcDbText
 10
-203.90625
 20
431.875
 30
0.0
 40
15.0
  1
1000
 41
0.5965909090909091
  7
TextStyle01
 72
     5
 11
-171.09375
 21
431.875
 31
0.0
100
AcDbText
  0
ENDBLK
  5
23F3
330
23EB
100
AcDbEntity
  8
0
100
AcDbBlockEnd
  0
BLOCK
  5
23F5
330
23F4
100
AcDbEntity
  8
0
100
AcDbBlockBegin
  2
*G62525252525
 70
     1
 10
0.0
 20
0.0
 30
0.0
  3
*G62525252525
  1

  0
LINE
  5
23F6
330
23F4
100
AcDbEntity
  8
寸法
  6
ByBlock
 62
     0
370
    -2
100
AcDbLine
 10
325.5
 20
-10.0
 30
0.0
 11
364.5
 21
-10.0
 31
0.0
  0
LINE
  5
23F7
330
23F4
100
AcDbEntity
  8
寸法
  6
ByBlock
 62
     0
370
    -2
100
AcDbLine
 10
325.5
 20
70.0
 30
0.0
 11
364.5
 21
70.0
 31
0.0
  0
LINE
  5
23F8
330
23F4
100
AcDbEntity
  8
寸法
  6
ByBlock
 62
     0
370
    -2
100
AcDbLine
 10
359.5
 20
-10.0
 30
0.0
 11
359.5
 21
70.0
 31
0.0
  0
POINT
  5
23F9
330
23F4
100
AcDbEntity
  8
寸法
  6
ByBlock
 62
     0
370
    -2
100
AcDbPoint
 10
359.5
 20
-10.0
 30
0.0
 50
90.0
  0
POINT
  5
23FA
330
23F4
100
AcDbEntity
  8
寸法
  6
ByBlock
 62
     0
370
    -2
100
AcDbPoint
 10
359.5
 20
70.0
 30
0.0
 50
270.0
  0
TEXT
  5
23FB
330
23F4
100
AcDbEntity
  8
寸法
  6
Continuous
 62
     0
370
    -2
100
AcDbText
 10
357.625
 20
22.03125
 30
0.0
 40
15.0
  1
80
 50
90.0
 41
0.6375
  7
TextStyle01
 72
     5
 11
357.625
 21
37.96875
 31
0.0
100
AcDbText
  0
ENDBLK
  5
23FC
330
23F4
100
AcDbEntity
  8
0
100
AcDbBlockEnd
  0
BLOCK
  5
23FE
330
23FD
100
AcDbEntity
  8
0
100
AcDbBlockBegin
  2
*G72626262626
 70
     1
 10
0.0
 20
0.0
 30
0.0
  3
*G72626262626
  1

  0
LINE
  5
23FF
330
23FD
100
AcDbEntity
  8
寸法
  6
ByBlock
 62
     0
370
    -2
100
AcDbLine
 10
519.5
 20
75.0
 30
0.0
 11
519.5
 21
115.0
 31
0.0
  0
LINE
  5
2400
330
23FD
100
AcDbEntity
  8
寸法
  6
ByBlock
 62
     0
370
    -2
100
AcDbLine
 10
654.4999999999999
 20
75.0
 30
0.0
 11
654.4999999999999
 21
115.0
 31
0.0
  0
LINE
  5
2401
330
23FD
100
AcDbEntity
  8
寸法
  6
ByBlock
 62
     0
370
    -2
100
AcDbLine
 10
519.5
 20
110.0
 30
0.0
 11
654.4999999999999
 21
110.0
 31
0.0
  0
POINT
  5
2402
330
23FD
100
AcDbEntity
  8
寸法
  6
ByBlock
 62
     0
370
    -2
100
AcDbPoint
 10
519.5
 20
110.0
 30
0.0
  0
POINT
  5
2403
330
23FD
100
AcDbEntity
  8
寸法
  6
ByBlock
 62
     0
370
    -2
100
AcDbPoint
 10
654.4999999999999
 20
110.0
 30
0.0
 50
180.0
  0
TEXT
  5
2404
330
23FD
100
AcDbEntity
  8
寸法
  6
Continuous
 62
     0
370
    -2
100
AcDbText
 10
574.8124999999999
 20
111.875
 30
0.0
 40
15.0
  1
135
 41
0.6093750000000029
  7
TextStyle01
 72
     5
 11
599.1875
 21
111.875
 31
0.0
100
AcDbText
  0
ENDBLK
  5
2405
330
23FD
100
AcDbEntity
  8
0
100
AcDbBlockEnd
  0
BLOCK
  5
2407
330
2406
100
AcDbEntity
  8
0
100
AcDbBlockBegin
  2
*G82727272727
 70
     1
 10
0.0
 20
0.0
 30
0.0
  3
*G82727272727
  1

  0
LINE
  5
2408
330
2406
100
AcDbEntity
  8
寸法
  6
ByBlock
 62
     0
370
    -2
100
AcDbLine
 10
659.4999999999997
 20
70.0
 30
0.0
 11
719.5
 21
70.0
 31
0.0
  0
LINE
  5
2409
330
2406
100
AcDbEntity
  8
寸法
  6
ByBlock
 62
     0
370
    -2
100
AcDbLine
 10
659.4999999999997
 20
-10.0
 30
0.0
 11
719.5
 21
-10.0
 31
0.0
  0
LINE
  5
240A
330
2406
100
AcDbEntity
  8
寸法
  6
ByBlock
 62
     0
370
    -2
100
AcDbLine
 10
714.5
 20
70.0
 30
0.0
 11
714.5
 21
-10.0
 31
0.0
  0
POINT
  5
240B
330
2406
100
AcDbEntity
  8
寸法
  6
ByBlock
 62
     0
370
    -2
100
AcDbPoint
 10
714.5
 20
70.0
 30
0.0
 50
270.0
  0
POINT
  5
240C
330
2406
100
AcDbEntity
  8
寸法
  6
ByBlock
 62
     0
370
    -2
100
AcDbPoint
 10
714.5
 20
-10.0
 30
0.0
 50
90.0
  0
TEXT
  5
240D
330
2406
100
AcDbEntity
  8
寸法
  6
Continuous
 62
     0
370
    -2
100
AcDbText
 10
712.6249999999997
 20
22.03125
 30
0.0
 40
15.0
  1
80
 50
90.0
 41
0.6375
  7
TextStyle01
 72
     5
 11
712.6249999999997
 21
37.96875
 31
0.0
100
AcDbText
  0
ENDBLK
  5
240E
330
2406
100
AcDbEntity
  8
0
100
AcDbBlockEnd
  0
BLOCK
  5
2410
330
240F
100
AcDbEntity
  8
0
100
AcDbBlockBegin
  2
*G92828282828
 70
     1
 10
0.0
 20
0.0
 30
0.0
  3
*G92828282828
  1

  0
LINE
  5
2411
330
240F
100
AcDbEntity
  8
寸法
  6
ByBlock
 62
     0
370
    -2
100
AcDbLine
 10
659.4999999999997
 20
70.0
 30
0.0
 11
699.5
 21
70.0
 31
0.0
  0
LINE
  5
2412
330
240F
100
AcDbEntity
  8
寸法
  6
ByBlock
 62
     0
370
    -2
100
AcDbLine
 10
659.4999999999997
 20
49.0
 30
0.0
 11
699.5
 21
49.0
 31
0.0
  0
LINE
  5
2413
330
240F
100
AcDbEntity
  8
寸法
  6
ByBlock
 62
     0
370
    -2
100
AcDbLine
 10
694.5
 20
70.0
 30
0.0
 11
694.5
 21
49.0
 31
0.0
  0
POINT
  5
2414
330
240F
100
AcDbEntity
  8
寸法
  6
ByBlock
 62
     0
370
    -2
100
AcDbPoint
 10
694.5
 20
70.0
 30
0.0
 50
270.0
  0
POINT
  5
2415
330
240F
100
AcDbEntity
  8
寸法
  6
ByBlock
 62
     0
370
    -2
100
AcDbPoint
 10
694.5
 20
49.0
 30
0.0
 50
90.0
  0
TEXT
  5
2416
330
240F
100
AcDbEntity
  8
寸法
  6
Continuous
 62
     0
370
    -2
100
AcDbText
 10
692.625
 20
51.53125
 30
0.0
 40
15.0
  1
21
 50
90.0
 41
0.7083333333333334
  7
TextStyle01
 72
     5
 11
692.625
 21
67.46875
 31
0.0
100
AcDbText
  0
ENDBLK
  5
2417
330
240F
100
AcDbEntity
  8
0
100
AcDbBlockEnd
  0
BLOCK
  5
2419
330
2418
100
AcDbEntity
  8
0
100
AcDbBlockBegin
  2
*G102929292929
 70
     1
 10
0.0
 20
0.0
 30
0.0
  3
*G102929292929
  1

  0
LINE
  5
241A
330
2418
100
AcDbEntity
  8
寸法
  6
ByBlock
 62
     0
370
    -2
100
AcDbLine
 10
659.4999999999997
 20
49.0
 30
0.0
 11
699.5
 21
49.0
 31
0.0
  0
LINE
  5
241B
330
2418
100
AcDbEntity
  8
寸法
  6
ByBlock
 62
     0
370
    -2
100
AcDbLine
 10
659.4999999999997
 20
7.0
 30
0.0
 11
699.5
 21
7.0
 31
0.0
  0
LINE
  5
241C
330
2418
100
AcDbEntity
  8
寸法
  6
ByBlock
 62
     0
370
    -2
100
AcDbLine
 10
694.5
 20
49.0
 30
0.0
 11
694.5
 21
7.0
 31
0.0
  0
POINT
  5
241D
330
2418
100
AcDbEntity
  8
寸法
  6
ByBlock
 62
     0
370
    -2
100
AcDbPoint
 10
694.5
 20
49.0
 30
0.0
 50
270.0
  0
POINT
  5
241E
330
2418
100
AcDbEntity
  8
寸法
  6
ByBlock
 62
     0
370
    -2
100
AcDbPoint
 10
694.5
 20
7.0
 30
0.0
 50
90.0
  0
TEXT
  5
241F
330
2418
100
AcDbEntity
  8
寸法
  6
Continuous
 62
     0
370
    -2
100
AcDbText
 10
692.625
 20
20.03125
 30
0.0
 40
15.0
  1
42
 50
90.0
 41
0.6375
  7
TextStyle01
 72
     5
 11
692.625
 21
35.96875
 31
0.0
100
AcDbText
  0
ENDBLK
  5
2420
330
2418
100
AcDbEntity
  8
0
100
AcDbBlockEnd
  0
BLOCK
  5
2422
330
2421
100
AcDbEntity
  8
0
100
AcDbBlockBegin
  2
*G113030303030
 70
     1
 10
0.0
 20
0.0
 30
0.0
  3
*G113030303030
  1

  0
LINE
  5
2423
330
2421
100
AcDbEntity
  8
寸法
  6
ByBlock
 62
     0
370
    -2
100
AcDbLine
 10
659.4999999999997
 20
7.0
 30
0.0
 11
699.5
 21
7.0
 31
0.0
  0
LINE
  5
2424
330
2421
100
AcDbEntity
  8
寸法
  6
ByBlock
 62
     0
370
    -2
100
AcDbLine
 10
659.4999999999997
 20
-10.0
 30
0.0
 11
699.5
 21
-10.0
 31
0.0
  0
LINE
  5
2425
330
2421
100
AcDbEntity
  8
寸法
  6
ByBlock
 62
     0
370
    -2
100
AcDbLine
 10
694.5
 20
7.0
 30
0.0
 11
694.5
 21
-10.0
 31
0.0
  0
POINT
  5
2426
330
2421
100
AcDbEntity
  8
寸法
  6
ByBlock
 62
     0
370
    -2
100
AcDbPoint
 10
694.5
 20
7.0
 30
0.0
 50
270.0
  0
POINT
  5
2427
330
2421
100
AcDbEntity
  8
寸法
  6
ByBlock
 62
     0
370
    -2
100
AcDbPoint
 10
694.5
 20
-10.0
 30
0.0
 50
90.0
  0
TEXT
  5
2428
330
2421
100
AcDbEntity
  8
寸法
  6
Continuous
 62
     0
370
    -2
100
AcDbText
 10
692.625
 20
-9.46875
 30
0.0
 40
15.0
  1
17
 50
90.0
 41
0.6375
  7
TextStyle01
 72
     5
 11
692.625
 21
6.46875
 31
0.0
100
AcDbText
  0
ENDBLK
  5
2429
330
2421
100
AcDbEntity
  8
0
100
AcDbBlockEnd
  0
BLOCK
  5
254E
330
254D
100
AcDbEntity
  8
0
100
AcDbBlockBegin
  2
*D31
 70
     1
 10
0.0
 20
0.0
 30
0.0
  3
*D31
  1

  0
LINE
  5
286E
330
254D
100
AcDbEntity
  8
図面枠
 62
     0
370
    -2
100
AcDbLine
 10
1723.645406854205
 20
1268.344595517758
 30
0.0
 11
1723.645406854205
 21
1211.670806589788
 31
0.0
  0
LINE
  5
286F
330
254D
100
AcDbEntity
  8
図面枠
 62
     0
370
    -2
100
AcDbLine
 10
1623.645406854205
 20
1260.844595517758
 30
0.0
 11
1623.645406854205
 21
1211.670806589788
 31
0.0
  0
LINE
  5
2870
330
254D
100
AcDbEntity
  8
図面枠
 62
     0
370
    -2
100
AcDbLine
 10
1713.645406854205
 20
1213.470806589788
 30
0.0
 11
1633.645406854205
 21
1213.470806589788
 31
0.0
  0
SOLID
  5
2871
330
254D
100
AcDbEntity
  8
図面枠
 62
     0
100
AcDbTrace
 10
1713.645406854205
 20
1215.137473256455
 30
0.0
 11
1713.645406854205
 21
1211.804139923122
 31
0.0
 12
1723.645406854205
 22
1213.470806589788
 32
0.0
 13
1723.645406854205
 23
1213.470806589788
 33
0.0
  0
SOLID
  5
2872
330
254D
100
AcDbEntity
  8
図面枠
 62
     0
100
AcDbTrace
 10
1633.645406854205
 20
1215.137473256455
 30
0.0
 11
1633.645406854205
 21
1211.804139923122
 31
0.0
 12
1623.645406854205
 22
1213.470806589788
 32
0.0
 13
1623.645406854205
 23
1213.470806589788
 33
0.0
  0
MTEXT
  5
2873
330
254D
100
AcDbEntity
  8
図面枠
 62
     0
100
AcDbMText
 10
1670.825155057001
 20
1223.576536467005
 30
0.0
 40
10.0
 41
0.0
 71
     5
 72
     1
  1
\A1;100
  7
Dimsmall
 73
     1
 44
1.0
1001
ACAD
1000
MTEXTBEGIN
1070
    73
1070
     1
1070
    44
1040
1.0
1070
    74
1070
     0
1000
MTEXTEND
  0
POINT
  5
2874
330
254D
100
AcDbEntity
  8
Defpoints
 62
     0
100
AcDbPoint
 10
1723.645406854205
 20
1278.344595517758
 30
0.0
  0
POINT
  5
2875
330
254D
100
AcDbEntity
  8
Defpoints
 62
     0
100
AcDbPoint
 10
1623.645406854205
 20
1270.844595517758
 30
0.0
  0
POINT
  5
2876
330
254D
100
AcDbEntity
  8
Defpoints
 62
     0
100
AcDbPoint
 10
1623.645406854205
 20
1213.470806589788
 30
0.0
  0
ENDBLK
  5
254F
330
254D
100
AcDbEntity
  8
0
100
AcDbBlockEnd
  0
BLOCK
  5
255A
330
2559
100
AcDbEntity
  8
0
100
AcDbBlockBegin
  2
*D32
 70
     1
 10
0.0
 20
0.0
 30
0.0
  3
*D32
  1

  0
LINE
  5
25E0
330
2559
100
AcDbEntity
  8
寸法
100
AcDbLine
 10
723.6454068542053
 20
1414.344595517758
 30
0.0
 11
723.6454068542053
 21
1454.344595517758
 31
0.0
  0
LINE
  5
25E1
330
2559
100
AcDbEntity
  8
寸法
100
AcDbLine
 10
1723.645406854205
 20
1414.344595517758
 30
0.0
 11
1723.645406854205
 21
1454.344595517758
 31
0.0
  0
LINE
  5
25E2
330
2559
100
AcDbEntity
  8
寸法
100
AcDbLine
 10
723.8254068542053
 20
1453.344595517758
 30
0.0
 11
1723.465406854205
 21
1453.344595517758
 31
0.0
  0
SOLID
  5
25E3
330
2559
100
AcDbEntity
  8
寸法
100
AcDbTrace
 10
723.8254068542053
 20
1453.374595517758
 30
0.0
 11
723.8254068542053
 21
1453.314595517758
 31
0.0
 12
723.6454068542053
 22
1453.344595517758
 32
0.0
 13
723.6454068542053
 23
1453.344595517758
 33
0.0
  0
SOLID
  5
25E4
330
2559
100
AcDbEntity
  8
寸法
100
AcDbTrace
 10
1723.465406854205
 20
1453.374595517758
 30
0.0
 11
1723.465406854205
 21
1453.314595517758
 31
0.0
 12
1723.645406854205
 22
1453.344595517758
 32
0.0
 13
1723.645406854205
 23
1453.344595517758
 33
0.0
  0
MTEXT
  5
25E5
330
2559
100
AcDbEntity
  8
寸法
100
AcDbMText
 10
1223.645406854205
 20
1456.219595517758
 30
0.0
 40
5.0
 41
0.0
 71
     5
 72
     1
  1
\A1;1000
  7
文字ｽﾀｲﾙ1
 73
     1
 44
1.0
1001
ACAD
1000
MTEXTBEGIN
1070
    73
1070
     1
1070
    44
1040
1.0
1070
    74
1070
     0
1000
MTEXTEND
  0
POINT
  5
25E6
330
2559
100
AcDbEntity
  8
Defpoints
 62
     0
100
AcDbPoint
 10
723.6454068542053
 20
1413.344595517758
 30
0.0
  0
POINT
  5
25E7
330
2559
100
AcDbEntity
  8
Defpoints
 62
     0
100
AcDbPoint
 10
1723.645406854205
 20
1413.344595517758
 30
0.0
  0
POINT
  5
25E8
330
2559
100
AcDbEntity
  8
Defpoints
 62
     0
100
AcDbPoint
 10
1723.645406854205
 20
1453.344595517758
 30
0.0
  0
ENDBLK
  5
255B
330
2559
100
AcDbEntity
  8
0
100
AcDbBlockEnd
  0
BLOCK
  5
2566
330
2565
100
AcDbEntity
  8
0
100
AcDbBlockBegin
  2
*D33
 70
     1
 10
0.0
 20
0.0
 30
0.0
  3
*D33
  1

  0
LINE
  5
25E9
330
2565
100
AcDbEntity
  8
寸法
100
AcDbLine
 10
1723.645406854205
 20
1414.344595517758
 30
0.0
 11
1723.645406854205
 21
1454.344595517758
 31
0.0
  0
LINE
  5
25EA
330
2565
100
AcDbEntity
  8
寸法
100
AcDbLine
 10
1730.645406854205
 20
1414.344595517758
 30
0.0
 11
1730.645406854205
 21
1454.344595517758
 31
0.0
  0
LINE
  5
25EB
330
2565
100
AcDbEntity
  8
寸法
100
AcDbLine
 10
1723.825406854205
 20
1453.344595517758
 30
0.0
 11
1730.465406854205
 21
1453.344595517758
 31
0.0
  0
SOLID
  5
25EC
330
2565
100
AcDbEntity
  8
寸法
100
AcDbTrace
 10
1723.825406854205
 20
1453.374595517758
 30
0.0
 11
1723.825406854205
 21
1453.314595517758
 31
0.0
 12
1723.645406854205
 22
1453.344595517758
 32
0.0
 13
1723.645406854205
 23
1453.344595517758
 33
0.0
  0
SOLID
  5
25ED
330
2565
100
AcDbEntity
  8
寸法
100
AcDbTrace
 10
1730.465406854205
 20
1453.374595517758
 30
0.0
 11
1730.465406854205
 21
1453.314595517758
 31
0.0
 12
1730.645406854205
 22
1453.344595517758
 32
0.0
 13
1730.645406854205
 23
1453.344595517758
 33
0.0
  0
MTEXT
  5
25EE
330
2565
100
AcDbEntity
  8
寸法
100
AcDbMText
 10
1727.145406854205
 20
1456.219595517758
 30
0.0
 40
5.0
 41
0.0
 71
     5
 72
     1
  1
\A1;7
  7
文字ｽﾀｲﾙ1
 73
     1
 44
1.0
1001
ACAD
1000
MTEXTBEGIN
1070
    73
1070
     1
1070
    44
1040
1.0
1070
    74
1070
     0
1000
MTEXTEND
  0
POINT
  5
25EF
330
2565
100
AcDbEntity
  8
Defpoints
 62
     0
100
AcDbPoint
 10
1723.645406854205
 20
1413.344595517758
 30
0.0
  0
POINT
  5
25F0
330
2565
100
AcDbEntity
  8
Defpoints
 62
     0
100
AcDbPoint
 10
1730.645406854205
 20
1413.344595517758
 30
0.0
  0
POINT
  5
25F1
330
2565
100
AcDbEntity
  8
Defpoints
 62
     0
100
AcDbPoint
 10
1730.645406854205
 20
1453.344595517758
 30
0.0
  0
ENDBLK
  5
2567
330
2565
100
AcDbEntity
  8
0
100
AcDbBlockEnd
  0
BLOCK
  5
2572
330
2571
100
AcDbEntity
  8
0
100
AcDbBlockBegin
  2
*D34
 70
     1
 10
0.0
 20
0.0
 30
0.0
  3
*D34
  1

  0
LINE
  5
2A3C
330
2571
100
AcDbEntity
  8
0
 62
     0
370
    -2
100
AcDbLine
 10
1733.645406854205
 20
1200.581174450011
 30
0.0
 11
1770.745316758499
 21
1200.581174450011
 31
0.0
  0
LINE
  5
2A3D
330
2571
100
AcDbEntity
  8
0
 62
     0
370
    -2
100
AcDbLine
 10
1733.645406854205
 20
1335.581174450011
 30
0.0
 11
1770.745316758499
 21
1335.581174450011
 31
0.0
  0
LINE
  5
2A3E
330
2571
100
AcDbEntity
  8
0
 62
     0
370
    -2
100
AcDbLine
 10
1768.945316758499
 20
1210.581174450011
 30
0.0
 11
1768.945316758499
 21
1236.546385909765
 31
0.0
  0
LINE
  5
2A3F
330
2571
100
AcDbEntity
  8
0
 62
     0
370
    -2
100
AcDbLine
 10
1768.945316758499
 20
1325.581174450011
 30
0.0
 11
1768.945316758499
 21
1299.615962990256
 31
0.0
  0
SOLID
  5
2A40
330
2571
100
AcDbEntity
  8
0
 62
     0
100
AcDbTrace
 10
1767.278650091832
 20
1210.581174450011
 30
0.0
 11
1770.611983425165
 21
1210.581174450011
 31
0.0
 12
1768.945316758499
 22
1200.581174450011
 32
0.0
 13
1768.945316758499
 23
1200.581174450011
 33
0.0
  0
SOLID
  5
2A41
330
2571
100
AcDbEntity
  8
0
 62
     0
100
AcDbTrace
 10
1767.278650091832
 20
1325.581174450011
 30
0.0
 11
1770.611983425165
 21
1325.581174450011
 31
0.0
 12
1768.945316758499
 22
1335.581174450011
 32
0.0
 13
1768.945316758499
 23
1335.581174450011
 33
0.0
  0
MTEXT
  5
2A42
330
2571
100
AcDbEntity
  8
0
 62
     0
100
AcDbMText
 10
1768.945316758498
 20
1268.081174450011
 30
0.0
 40
25.0
 41
0.0
 71
     5
 72
     1
  1
\A1;135
  7
Dimsmall
 11
0.0000000000000001
 21
1.0
 31
0.0
 73
     1
 44
1.0
1001
ACAD
1000
MTEXTBEGIN
1070
    73
1070
     1
1070
    44
1040
1.0
1070
    74
1070
     0
1000
MTEXTEND
  0
POINT
  5
2A43
330
2571
100
AcDbEntity
  8
Defpoints
 62
     0
100
AcDbPoint
 10
1723.645406854205
 20
1200.581174450011
 30
0.0
  0
POINT
  5
2A44
330
2571
100
AcDbEntity
  8
Defpoints
 62
     0
100
AcDbPoint
 10
1723.645406854205
 20
1335.581174450011
 30
0.0
  0
POINT
  5
2A45
330
2571
100
AcDbEntity
  8
Defpoints
 62
     0
100
AcDbPoint
 10
1768.945316758499
 20
1335.581174450011
 30
0.0
  0
ENDBLK
  5
2573
330
2571
100
AcDbEntity
  8
0
100
AcDbBlockEnd
  0
BLOCK
  5
257F
330
257E
100
AcDbEntity
  8
0
100
AcDbBlockBegin
  2
*D35
 70
     1
 10
0.0
 20
0.0
 30
0.0
  3
*D35
  1

  0
LINE
  5
25FC
330
257E
100
AcDbEntity
  8
寸法
100
AcDbLine
 10
723.6454068542053
 20
1374.344595517758
 30
0.0
 11
723.6454068542053
 21
1414.344595517758
 31
0.0
  0
LINE
  5
25FD
330
257E
100
AcDbEntity
  8
寸法
100
AcDbLine
 10
1723.645406854205
 20
1374.344595517758
 30
0.0
 11
1723.645406854205
 21
1414.344595517758
 31
0.0
  0
LINE
  5
25FE
330
257E
100
AcDbEntity
  8
寸法
100
AcDbLine
 10
723.8254068542053
 20
1413.344595517758
 30
0.0
 11
1723.465406854205
 21
1413.344595517758
 31
0.0
  0
SOLID
  5
25FF
330
257E
100
AcDbEntity
  8
寸法
100
AcDbTrace
 10
723.8254068542053
 20
1413.374595517758
 30
0.0
 11
723.8254068542053
 21
1413.314595517758
 31
0.0
 12
723.6454068542053
 22
1413.344595517758
 32
0.0
 13
723.6454068542053
 23
1413.344595517758
 33
0.0
  0
SOLID
  5
2600
330
257E
100
AcDbEntity
  8
寸法
100
AcDbTrace
 10
1723.465406854205
 20
1413.374595517758
 30
0.0
 11
1723.465406854205
 21
1413.314595517758
 31
0.0
 12
1723.645406854205
 22
1413.344595517758
 32
0.0
 13
1723.645406854205
 23
1413.344595517758
 33
0.0
  0
MTEXT
  5
2601
330
257E
100
AcDbEntity
  8
寸法
100
AcDbMText
 10
1223.645406854205
 20
1416.219595517758
 30
0.0
 40
5.0
 41
0.0
 71
     5
 72
     1
  1
\A1;1000
  7
文字ｽﾀｲﾙ1
 73
     1
 44
1.0
1001
ACAD
1000
MTEXTBEGIN
1070
    73
1070
     1
1070
    44
1040
1.0
1070
    74
1070
     0
1000
MTEXTEND
  0
POINT
  5
2602
330
257E
100
AcDbEntity
  8
Defpoints
 62
     0
100
AcDbPoint
 10
723.6454068542053
 20
1373.344595517759
 30
0.0
  0
POINT
  5
2603
330
257E
100
AcDbEntity
  8
Defpoints
 62
     0
100
AcDbPoint
 10
1723.645406854205
 20
1373.344595517759
 30
0.0
  0
POINT
  5
2604
330
257E
100
AcDbEntity
  8
Defpoints
 62
     0
100
AcDbPoint
 10
1723.645406854205
 20
1413.344595517758
 30
0.0
  0
ENDBLK
  5
2580
330
257E
100
AcDbEntity
  8
0
100
AcDbBlockEnd
  0
BLOCK
  5
258B
330
258A
100
AcDbEntity
  8
0
100
AcDbBlockBegin
  2
*D36
 70
     1
 10
0.0
 20
0.0
 30
0.0
  3
*D36
  1

  0
LINE
  5
2605
330
258A
100
AcDbEntity
  8
寸法
100
AcDbLine
 10
1732.645406854205
 20
973.3445955177582
 30
0.0
 11
1771.645406854205
 21
973.3445955177582
 31
0.0
  0
LINE
  5
2606
330
258A
100
AcDbEntity
  8
寸法
100
AcDbLine
 10
1732.645406854205
 20
1053.344595517758
 30
0.0
 11
1771.645406854205
 21
1053.344595517758
 31
0.0
  0
LINE
  5
2607
330
258A
100
AcDbEntity
  8
寸法
100
AcDbLine
 10
1770.645406854205
 20
973.5245955177584
 30
0.0
 11
1770.645406854205
 21
1008.802928851092
 31
0.0
  0
LINE
  5
2608
330
258A
100
AcDbEntity
  8
寸法
100
AcDbLine
 10
1770.645406854205
 20
1053.164595517758
 30
0.0
 11
1770.645406854205
 21
1017.886262184425
 31
0.0
  0
SOLID
  5
2609
330
258A
100
AcDbEntity
  8
寸法
100
AcDbTrace
 10
1770.615406854205
 20
973.5245955177584
 30
0.0
 11
1770.675406854205
 21
973.5245955177584
 31
0.0
 12
1770.645406854205
 22
973.3445955177582
 32
0.0
 13
1770.645406854205
 23
973.3445955177582
 33
0.0
  0
SOLID
  5
260A
330
258A
100
AcDbEntity
  8
寸法
100
AcDbTrace
 10
1770.615406854205
 20
1053.164595517758
 30
0.0
 11
1770.675406854205
 21
1053.164595517758
 31
0.0
 12
1770.645406854205
 22
1053.344595517758
 32
0.0
 13
1770.645406854205
 23
1053.344595517758
 33
0.0
  0
MTEXT
  5
260B
330
258A
100
AcDbEntity
  8
寸法
100
AcDbMText
 10
1770.645406854205
 20
1013.344595517759
 30
0.0
 40
5.0
 41
0.0
 71
     5
 72
     1
  1
\A1;80
  7
文字ｽﾀｲﾙ1
 11
0.0000000000000001
 21
1.0
 31
0.0
 73
     1
 44
1.0
1001
ACAD
1000
MTEXTBEGIN
1070
    73
1070
     1
1070
    44
1040
1.0
1070
    74
1070
     0
1000
MTEXTEND
  0
POINT
  5
260C
330
258A
100
AcDbEntity
  8
Defpoints
 62
     0
100
AcDbPoint
 10
1731.645406854205
 20
973.3445955177582
 30
0.0
  0
POINT
  5
260D
330
258A
100
AcDbEntity
  8
Defpoints
 62
     0
100
AcDbPoint
 10
1731.645406854205
 20
1053.344595517758
 30
0.0
  0
POINT
  5
260E
330
258A
100
AcDbEntity
  8
Defpoints
 62
     0
100
AcDbPoint
 10
1770.645406854205
 20
1053.344595517758
 30
0.0
  0
ENDBLK
  5
258C
330
258A
100
AcDbEntity
  8
0
100
AcDbBlockEnd
  0
BLOCK
  5
2598
330
2597
100
AcDbEntity
  8
0
100
AcDbBlockBegin
  2
*D37
 70
     1
 10
0.0
 20
0.0
 30
0.0
  3
*D37
  1

  0
LINE
  5
260F
330
2597
100
AcDbEntity
  8
寸法
100
AcDbLine
 10
1930.645406854205
 20
1054.344595517758
 30
0.0
 11
1930.645406854205
 21
1094.344595517758
 31
0.0
  0
LINE
  5
2610
330
2597
100
AcDbEntity
  8
寸法
100
AcDbLine
 10
2065.645406854205
 20
1054.344595517758
 30
0.0
 11
2065.645406854205
 21
1094.344595517758
 31
0.0
  0
LINE
  5
2611
330
2597
100
AcDbEntity
  8
寸法
100
AcDbLine
 10
1930.825406854205
 20
1093.344595517758
 30
0.0
 11
2065.465406854205
 21
1093.344595517758
 31
0.0
  0
SOLID
  5
2612
330
2597
100
AcDbEntity
  8
寸法
100
AcDbTrace
 10
1930.825406854205
 20
1093.374595517758
 30
0.0
 11
1930.825406854205
 21
1093.314595517759
 31
0.0
 12
1930.645406854205
 22
1093.344595517758
 32
0.0
 13
1930.645406854205
 23
1093.344595517758
 33
0.0
  0
SOLID
  5
2613
330
2597
100
AcDbEntity
  8
寸法
100
AcDbTrace
 10
2065.465406854205
 20
1093.374595517758
 30
0.0
 11
2065.465406854205
 21
1093.314595517759
 31
0.0
 12
2065.645406854205
 22
1093.344595517758
 32
0.0
 13
2065.645406854205
 23
1093.344595517758
 33
0.0
  0
MTEXT
  5
2614
330
2597
100
AcDbEntity
  8
寸法
100
AcDbMText
 10
1998.145406854205
 20
1096.219595517758
 30
0.0
 40
5.0
 41
0.0
 71
     5
 72
     1
  1
\A1;135
  7
文字ｽﾀｲﾙ1
 73
     1
 44
1.0
1001
ACAD
1000
MTEXTBEGIN
1070
    73
1070
     1
1070
    44
1040
1.0
1070
    74
1070
     0
1000
MTEXTEND
  0
POINT
  5
2615
330
2597
100
AcDbEntity
  8
Defpoints
 62
     0
100
AcDbPoint
 10
1930.645406854205
 20
1053.344595517758
 30
0.0
  0
POINT
  5
2616
330
2597
100
AcDbEntity
  8
Defpoints
 62
     0
100
AcDbPoint
 10
2065.645406854205
 20
1053.344595517758
 30
0.0
  0
POINT
  5
2617
330
2597
100
AcDbEntity
  8
Defpoints
 62
     0
100
AcDbPoint
 10
2065.645406854205
 20
1093.344595517758
 30
0.0
  0
ENDBLK
  5
2599
330
2597
100
AcDbEntity
  8
0
100
AcDbBlockEnd
  0
BLOCK
  5
25A4
330
25A3
100
AcDbEntity
  8
0
100
AcDbBlockBegin
  2
*D38
 70
     1
 10
0.0
 20
0.0
 30
0.0
  3
*D38
  1

  0
LINE
  5
2618
330
25A3
100
AcDbEntity
  8
寸法
100
AcDbLine
 10
2066.645406854205
 20
1053.344595517758
 30
0.0
 11
2126.645406854206
 21
1053.344595517758
 31
0.0
  0
LINE
  5
2619
330
25A3
100
AcDbEntity
  8
寸法
100
AcDbLine
 10
2066.645406854205
 20
973.3445955177582
 30
0.0
 11
2126.645406854205
 21
973.3445955177582
 31
0.0
  0
LINE
  5
261A
330
25A3
100
AcDbEntity
  8
寸法
100
AcDbLine
 10
2125.645406854206
 20
1053.164595517758
 30
0.0
 11
2125.645406854205
 21
1017.886262184425
 31
0.0
  0
LINE
  5
261B
330
25A3
100
AcDbEntity
  8
寸法
100
AcDbLine
 10
2125.645406854205
 20
973.5245955177584
 30
0.0
 11
2125.645406854205
 21
1008.802928851092
 31
0.0
  0
SOLID
  5
261C
330
25A3
100
AcDbEntity
  8
寸法
100
AcDbTrace
 10
2125.615406854206
 20
1053.164595517758
 30
0.0
 11
2125.675406854206
 21
1053.164595517758
 31
0.0
 12
2125.645406854206
 22
1053.344595517758
 32
0.0
 13
2125.645406854206
 23
1053.344595517758
 33
0.0
  0
SOLID
  5
261D
330
25A3
100
AcDbEntity
  8
寸法
100
AcDbTrace
 10
2125.615406854205
 20
973.5245955177584
 30
0.0
 11
2125.675406854206
 21
973.5245955177584
 31
0.0
 12
2125.645406854205
 22
973.3445955177582
 32
0.0
 13
2125.645406854205
 23
973.3445955177582
 33
0.0
  0
MTEXT
  5
261E
330
25A3
100
AcDbEntity
  8
寸法
100
AcDbMText
 10
2125.645406854205
 20
1013.344595517759
 30
0.0
 40
5.0
 41
0.0
 71
     5
 72
     1
  1
\A1;80
  7
文字ｽﾀｲﾙ1
 11
0.0000000000000001
 21
1.0
 31
0.0
 73
     1
 44
1.0
1001
ACAD
1000
MTEXTBEGIN
1070
    73
1070
     1
1070
    44
1040
1.0
1070
    74
1070
     0
1000
MTEXTEND
  0
POINT
  5
261F
330
25A3
100
AcDbEntity
  8
Defpoints
 62
     0
100
AcDbPoint
 10
2065.645406854205
 20
1053.344595517758
 30
0.0
  0
POINT
  5
2620
330
25A3
100
AcDbEntity
  8
Defpoints
 62
     0
100
AcDbPoint
 10
2065.645406854205
 20
973.3445955177582
 30
0.0
  0
POINT
  5
2621
330
25A3
100
AcDbEntity
  8
Defpoints
 62
     0
100
AcDbPoint
 10
2125.645406854205
 20
973.3445955177582
 30
0.0
  0
ENDBLK
  5
25A5
330
25A3
100
AcDbEntity
  8
0
100
AcDbBlockEnd
  0
BLOCK
  5
25B1
330
25B0
100
AcDbEntity
  8
0
100
AcDbBlockBegin
  2
*D39
 70
     1
 10
0.0
 20
0.0
 30
0.0
  3
*D39
  1

  0
LINE
  5
2622
330
25B0
100
AcDbEntity
  8
寸法
100
AcDbLine
 10
2066.645406854205
 20
1053.344595517758
 30
0.0
 11
2106.645406854205
 21
1053.344595517758
 31
0.0
  0
LINE
  5
2623
330
25B0
100
AcDbEntity
  8
寸法
100
AcDbLine
 10
2066.645406854205
 20
1032.344595517758
 30
0.0
 11
2106.645406854205
 21
1032.344595517758
 31
0.0
  0
LINE
  5
2624
330
25B0
100
AcDbEntity
  8
寸法
100
AcDbLine
 10
2105.645406854205
 20
1053.164595517758
 30
0.0
 11
2105.645406854205
 21
1046.969595517758
 31
0.0
  0
LINE
  5
2625
330
25B0
100
AcDbEntity
  8
寸法
100
AcDbLine
 10
2105.645406854205
 20
1032.524595517758
 30
0.0
 11
2105.645406854205
 21
1038.719595517758
 31
0.0
  0
SOLID
  5
2626
330
25B0
100
AcDbEntity
  8
寸法
100
AcDbTrace
 10
2105.615406854205
 20
1053.164595517758
 30
0.0
 11
2105.675406854206
 21
1053.164595517758
 31
0.0
 12
2105.645406854205
 22
1053.344595517758
 32
0.0
 13
2105.645406854205
 23
1053.344595517758
 33
0.0
  0
SOLID
  5
2627
330
25B0
100
AcDbEntity
  8
寸法
100
AcDbTrace
 10
2105.615406854205
 20
1032.524595517758
 30
0.0
 11
2105.675406854206
 21
1032.524595517758
 31
0.0
 12
2105.645406854205
 22
1032.344595517758
 32
0.0
 13
2105.645406854205
 23
1032.344595517758
 33
0.0
  0
MTEXT
  5
2628
330
25B0
100
AcDbEntity
  8
寸法
100
AcDbMText
 10
2105.645406854205
 20
1042.844595517759
 30
0.0
 40
5.0
 41
0.0
 71
     5
 72
     1
  1
\A1;21
  7
文字ｽﾀｲﾙ1
 11
0.0000000000000001
 21
1.0
 31
0.0
 73
     1
 44
1.0
1001
ACAD
1000
MTEXTBEGIN
1070
    73
1070
     1
1070
    44
1040
1.0
1070
    74
1070
     0
1000
MTEXTEND
  0
POINT
  5
2629
330
25B0
100
AcDbEntity
  8
Defpoints
 62
     0
100
AcDbPoint
 10
2065.645406854205
 20
1053.344595517758
 30
0.0
  0
POINT
  5
262A
330
25B0
100
AcDbEntity
  8
Defpoints
 62
     0
100
AcDbPoint
 10
2065.645406854205
 20
1032.344595517758
 30
0.0
  0
POINT
  5
262B
330
25B0
100
AcDbEntity
  8
Defpoints
 62
     0
100
AcDbPoint
 10
2105.645406854205
 20
1032.344595517758
 30
0.0
  0
ENDBLK
  5
25B2
330
25B0
100
AcDbEntity
  8
0
100
AcDbBlockEnd
  0
BLOCK
  5
25BE
330
25BD
100
AcDbEntity
  8
0
100
AcDbBlockBegin
  2
*D40
 70
     1
 10
0.0
 20
0.0
 30
0.0
  3
*D40
  1

  0
LINE
  5
262C
330
25BD
100
AcDbEntity
  8
寸法
100
AcDbLine
 10
2066.645406854205
 20
1032.344595517758
 30
0.0
 11
2106.645406854206
 21
1032.344595517758
 31
0.0
  0
LINE
  5
262D
330
25BD
100
AcDbEntity
  8
寸法
100
AcDbLine
 10
2066.645406854205
 20
990.3445955177586
 30
0.0
 11
2106.645406854205
 21
990.3445955177586
 31
0.0
  0
LINE
  5
262E
330
25BD
100
AcDbEntity
  8
寸法
100
AcDbLine
 10
2105.645406854206
 20
1032.164595517758
 30
0.0
 11
2105.645406854205
 21
1015.886262184425
 31
0.0
  0
LINE
  5
262F
330
25BD
100
AcDbEntity
  8
寸法
100
AcDbLine
 10
2105.645406854205
 20
990.5245955177583
 30
0.0
 11
2105.645406854205
 21
1006.802928851092
 31
0.0
  0
SOLID
  5
2630
330
25BD
100
AcDbEntity
  8
寸法
100
AcDbTrace
 10
2105.615406854206
 20
1032.164595517758
 30
0.0
 11
2105.675406854206
 21
1032.164595517758
 31
0.0
 12
2105.645406854206
 22
1032.344595517758
 32
0.0
 13
2105.645406854206
 23
1032.344595517758
 33
0.0
  0
SOLID
  5
2631
330
25BD
100
AcDbEntity
  8
寸法
100
AcDbTrace
 10
2105.615406854205
 20
990.5245955177583
 30
0.0
 11
2105.675406854206
 21
990.5245955177583
 31
0.0
 12
2105.645406854205
 22
990.3445955177586
 32
0.0
 13
2105.645406854205
 23
990.3445955177586
 33
0.0
  0
MTEXT
  5
2632
330
25BD
100
AcDbEntity
  8
寸法
100
AcDbMText
 10
2105.645406854205
 20
1011.344595517759
 30
0.0
 40
5.0
 41
0.0
 71
     5
 72
     1
  1
\A1;42
  7
文字ｽﾀｲﾙ1
 11
0.0000000000000001
 21
1.0
 31
0.0
 73
     1
 44
1.0
1001
ACAD
1000
MTEXTBEGIN
1070
    73
1070
     1
1070
    44
1040
1.0
1070
    74
1070
     0
1000
MTEXTEND
  0
POINT
  5
2633
330
25BD
100
AcDbEntity
  8
Defpoints
 62
     0
100
AcDbPoint
 10
2065.645406854205
 20
1032.344595517758
 30
0.0
  0
POINT
  5
2634
330
25BD
100
AcDbEntity
  8
Defpoints
 62
     0
100
AcDbPoint
 10
2065.645406854205
 20
990.3445955177586
 30
0.0
  0
POINT
  5
2635
330
25BD
100
AcDbEntity
  8
Defpoints
 62
     0
100
AcDbPoint
 10
2105.645406854205
 20
990.3445955177586
 30
0.0
  0
ENDBLK
  5
25BF
330
25BD
100
AcDbEntity
  8
0
100
AcDbBlockEnd
  0
BLOCK
  5
25CB
330
25CA
100
AcDbEntity
  8
0
100
AcDbBlockBegin
  2
*D41
 70
     1
 10
0.0
 20
0.0
 30
0.0
  3
*D41
  1

  0
LINE
  5
2636
330
25CA
100
AcDbEntity
  8
寸法
100
AcDbLine
 10
2066.645406854205
 20
990.3445955177586
 30
0.0
 11
2106.645406854205
 21
990.3445955177586
 31
0.0
  0
LINE
  5
2637
330
25CA
100
AcDbEntity
  8
寸法
100
AcDbLine
 10
2066.645406854205
 20
973.3445955177582
 30
0.0
 11
2106.645406854205
 21
973.3445955177582
 31
0.0
  0
LINE
  5
2638
330
25CA
100
AcDbEntity
  8
寸法
100
AcDbLine
 10
2105.645406854205
 20
990.1645955177583
 30
0.0
 11
2105.645406854205
 21
986.3862621844251
 31
0.0
  0
LINE
  5
2639
330
25CA
100
AcDbEntity
  8
寸法
100
AcDbLine
 10
2105.645406854205
 20
973.5245955177584
 30
0.0
 11
2105.645406854205
 21
977.3029288510921
 31
0.0
  0
SOLID
  5
263A
330
25CA
100
AcDbEntity
  8
寸法
100
AcDbTrace
 10
2105.615406854205
 20
990.1645955177583
 30
0.0
 11
2105.675406854206
 21
990.1645955177583
 31
0.0
 12
2105.645406854205
 22
990.3445955177586
 32
0.0
 13
2105.645406854205
 23
990.3445955177586
 33
0.0
  0
SOLID
  5
263B
330
25CA
100
AcDbEntity
  8
寸法
100
AcDbTrace
 10
2105.615406854205
 20
973.5245955177584
 30
0.0
 11
2105.675406854206
 21
973.5245955177584
 31
0.0
 12
2105.645406854205
 22
973.3445955177582
 32
0.0
 13
2105.645406854205
 23
973.3445955177582
 33
0.0
  0
MTEXT
  5
263C
330
25CA
100
AcDbEntity
  8
寸法
100
AcDbMText
 10
2105.645406854205
 20
981.8445955177587
 30
0.0
 40
5.0
 41
0.0
 71
     5
 72
     1
  1
\A1;17
  7
文字ｽﾀｲﾙ1
 11
0.0000000000000001
 21
1.0
 31
0.0
 73
     1
 44
1.0
1001
ACAD
1000
MTEXTBEGIN
1070
    73
1070
     1
1070
    44
1040
1.0
1070
    74
1070
     0
1000
MTEXTEND
  0
POINT
  5
263D
330
25CA
100
AcDbEntity
  8
Defpoints
 62
     0
100
AcDbPoint
 10
2065.645406854205
 20
990.3445955177586
 30
0.0
  0
POINT
  5
263E
330
25CA
100
AcDbEntity
  8
Defpoints
 62
     0
100
AcDbPoint
 10
2065.645406854205
 20
973.3445955177582
 30
0.0
  0
POINT
  5
263F
330
25CA
100
AcDbEntity
  8
Defpoints
 62
     0
100
AcDbPoint
 10
2105.645406854205
 20
973.3445955177582
 30
0.0
  0
ENDBLK
  5
25CC
330
25CA
100
AcDbEntity
  8
0
100
AcDbBlockEnd
  0
BLOCK
  5
2642
330
2641
100
AcDbEntity
  8
0
100
AcDbBlockBegin
  2
*D42
 70
     1
 10
0.0
 20
0.0
 30
0.0
  3
*D42
  1

  0
LINE
  5
2C33
330
2641
100
AcDbEntity
  8
0
 62
     0
370
    -2
100
AcDbLine
 10
723.6454068542053
 20
1371.08892952346
 30
0.0
 11
723.6454068542053
 21
1407.888929523459
 31
0.0
  0
LINE
  5
2C34
330
2641
100
AcDbEntity
  8
0
 62
     0
370
    -2
100
AcDbLine
 10
1723.645406854205
 20
1371.08892952346
 30
0.0
 11
1723.645406854205
 21
1407.888929523459
 31
0.0
  0
LINE
  5
2C35
330
2641
100
AcDbEntity
  8
0
 62
     0
370
    -2
100
AcDbLine
 10
733.6454068542053
 20
1406.088929523459
 30
0.0
 11
1713.645406854205
 21
1406.088929523459
 31
0.0
  0
SOLID
  5
2C36
330
2641
100
AcDbEntity
  8
0
 62
     0
100
AcDbTrace
 10
733.6454068542053
 20
1407.755596190126
 30
0.0
 11
733.6454068542053
 21
1404.422262856793
 31
0.0
 12
723.6454068542053
 22
1406.088929523459
 32
0.0
 13
723.6454068542053
 23
1406.088929523459
 33
0.0
  0
SOLID
  5
2C37
330
2641
100
AcDbEntity
  8
0
 62
     0
100
AcDbTrace
 10
1713.645406854205
 20
1407.755596190126
 30
0.0
 11
1713.645406854205
 21
1404.422262856793
 31
0.0
 12
1723.645406854205
 22
1406.088929523459
 32
0.0
 13
1723.645406854205
 23
1406.088929523459
 33
0.0
  0
MTEXT
  5
2C38
330
2641
100
AcDbEntity
  8
0
 62
     0
100
AcDbMText
 10
1223.645406854205
 20
1419.768670314728
 30
0.0
 40
17.0
 41
0.0
 71
     5
 72
     1
  1
\A1;1000
  7
Dimsmall
 73
     1
 44
1.0
1001
ACAD
1000
MTEXTBEGIN
1070
    73
1070
     1
1070
    44
1040
1.0
1070
    74
1070
     0
1000
MTEXTEND
  0
POINT
  5
2C39
330
2641
100
AcDbEntity
  8
Defpoints
 62
     0
100
AcDbPoint
 10
723.6454068542053
 20
1361.08892952346
 30
0.0
  0
POINT
  5
2C3A
330
2641
100
AcDbEntity
  8
Defpoints
 62
     0
100
AcDbPoint
 10
1723.645406854205
 20
1361.08892952346
 30
0.0
  0
POINT
  5
2C3B
330
2641
100
AcDbEntity
  8
Defpoints
 62
     0
100
AcDbPoint
 10
1723.645406854205
 20
1406.088929523459
 30
0.0
  0
ENDBLK
  5
2643
330
2641
100
AcDbEntity
  8
0
100
AcDbBlockEnd
  0
BLOCK
  5
2651
330
2650
100
AcDbEntity
  8
0
100
AcDbBlockBegin
  2
*D43
 70
     1
 10
0.0
 20
0.0
 30
0.0
  3
*D43
  1

  0
LINE
  5
2C3C
330
2650
100
AcDbEntity
  8
0
 62
     0
370
    -2
100
AcDbLine
 10
1723.645406854205
 20
1371.08892952346
 30
0.0
 11
1723.645406854205
 21
1407.885270845132
 31
0.0
  0
LINE
  5
2C3D
330
2650
100
AcDbEntity
  8
0
 62
     0
370
    -2
100
AcDbLine
 10
1730.645406854205
 20
1371.08892952346
 30
0.0
 11
1730.645406854205
 21
1407.885270845132
 31
0.0
  0
LINE
  5
2C3E
330
2650
100
AcDbEntity
  8
0
 62
     0
370
    -2
100
AcDbLine
 10
1713.645406854205
 20
1406.085270845132
 30
0.0
 11
1703.645406854205
 21
1406.085270845132
 31
0.0
  0
LINE
  5
2C3F
330
2650
100
AcDbEntity
  8
0
 62
     0
370
    -2
100
AcDbLine
 10
1740.645406854205
 20
1406.085270845132
 30
0.0
 11
1750.645406854205
 21
1406.085270845132
 31
0.0
  0
SOLID
  5
2C40
330
2650
100
AcDbEntity
  8
0
 62
     0
100
AcDbTrace
 10
1713.645406854205
 20
1407.751937511799
 30
0.0
 11
1713.645406854205
 21
1404.418604178466
 31
0.0
 12
1723.645406854205
 22
1406.085270845132
 32
0.0
 13
1723.645406854205
 23
1406.085270845132
 33
0.0
  0
SOLID
  5
2C41
330
2650
100
AcDbEntity
  8
0
 62
     0
100
AcDbTrace
 10
1740.645406854205
 20
1407.751937511799
 30
0.0
 11
1740.645406854205
 21
1404.418604178466
 31
0.0
 12
1730.645406854205
 22
1406.085270845132
 32
0.0
 13
1730.645406854205
 23
1406.085270845132
 33
0.0
  0
MTEXT
  5
2C42
330
2650
100
AcDbEntity
  8
0
 62
     0
100
AcDbMText
 10
1727.145406854205
 20
1419.585270845132
 30
0.0
 40
17.0
 41
0.0
 71
     5
 72
     1
  1
\A1;7
  7
Dimsmall
 73
     1
 44
1.0
1001
ACAD
1000
MTEXTBEGIN
1070
    73
1070
     1
1070
    44
1040
1.0
1070
    74
1070
     0
1000
MTEXTEND
  0
POINT
  5
2C43
330
2650
100
AcDbEntity
  8
Defpoints
 62
     0
100
AcDbPoint
 10
1723.645406854205
 20
1361.08892952346
 30
0.0
  0
POINT
  5
2C44
330
2650
100
AcDbEntity
  8
Defpoints
 62
     0
100
AcDbPoint
 10
1730.645406854205
 20
1361.08892952346
 30
0.0
  0
POINT
  5
2C45
330
2650
100
AcDbEntity
  8
Defpoints
 62
     0
100
AcDbPoint
 10
1730.645406854205
 20
1406.085270845132
 30
0.0
  0
ENDBLK
  5
2652
330
2650
100
AcDbEntity
  8
0
100
AcDbBlockEnd
  0
BLOCK
  5
26B5
330
26B4
100
AcDbEntity
  8
0
100
AcDbBlockBegin
  2
*D44
 70
     1
 10
0.0
 20
0.0
 30
0.0
  3
*D44
  1

  0
LINE
  5
2C46
330
26B4
100
AcDbEntity
  8
0
 62
     0
370
    -2
100
AcDbLine
 10
1733.645406854205
 20
881.4987295234601
 30
0.0
 11
1785.082073520872
 21
881.4987295234601
 31
0.0
  0
LINE
  5
2C47
330
26B4
100
AcDbEntity
  8
0
 62
     0
370
    -2
100
AcDbLine
 10
1733.645406854205
 20
801.49872952346
 30
0.0
 11
1785.082073520872
 21
801.49872952346
 31
0.0
  0
LINE
  5
2C48
330
26B4
100
AcDbEntity
  8
0
 62
     0
370
    -2
100
AcDbLine
 10
1783.282073520872
 20
871.4987295234601
 30
0.0
 11
1783.282073520872
 21
811.4987295234602
 31
0.0
  0
SOLID
  5
2C49
330
26B4
100
AcDbEntity
  8
0
 62
     0
100
AcDbTrace
 10
1781.615406854205
 20
871.4987295234601
 30
0.0
 11
1784.948740187538
 21
871.4987295234601
 31
0.0
 12
1783.282073520872
 22
881.4987295234601
 32
0.0
 13
1783.282073520872
 23
881.4987295234601
 33
0.0
  0
SOLID
  5
2C4A
330
26B4
100
AcDbEntity
  8
0
 62
     0
100
AcDbTrace
 10
1781.615406854205
 20
811.4987295234602
 30
0.0
 11
1784.948740187538
 21
811.4987295234602
 31
0.0
 12
1783.282073520872
 22
801.49872952346
 32
0.0
 13
1783.282073520872
 23
801.49872952346
 33
0.0
  0
MTEXT
  5
2C4B
330
26B4
100
AcDbEntity
  8
0
 62
     0
100
AcDbMText
 10
1769.602332729603
 20
841.4987295234604
 30
0.0
 40
17.0
 41
0.0
 71
     5
 72
     1
  1
\A1;80
  7
Dimsmall
 11
0.0000000000000001
 21
1.0
 31
0.0
 73
     1
 44
1.0
1001
ACAD
1000
MTEXTBEGIN
1070
    73
1070
     1
1070
    44
1040
1.0
1070
    74
1070
     0
1000
MTEXTEND
  0
POINT
  5
2C4C
330
26B4
100
AcDbEntity
  8
Defpoints
 62
     0
100
AcDbPoint
 10
1723.645406854205
 20
881.4987295234601
 30
0.0
  0
POINT
  5
2C4D
330
26B4
100
AcDbEntity
  8
Defpoints
 62
     0
100
AcDbPoint
 10
1723.645406854205
 20
801.49872952346
 30
0.0
  0
POINT
  5
2C4E
330
26B4
100
AcDbEntity
  8
Defpoints
 62
     0
100
AcDbPoint
 10
1783.282073520872
 20
801.49872952346
 30
0.0
  0
ENDBLK
  5
26B6
330
26B4
100
AcDbEntity
  8
0
100
AcDbBlockEnd
  0
BLOCK
  5
26CD
330
26CC
100
AcDbEntity
  8
0
100
AcDbBlockBegin
  2
*D45
 70
     1
 10
0.0
 20
0.0
 30
0.0
  3
*D45
  1

  0
LINE
  5
2C4F
330
26CC
100
AcDbEntity
  8
0
 62
     0
370
    -2
100
AcDbLine
 10
1930.645406854205
 20
891.4987295234601
 30
0.0
 11
1930.645406854205
 21
985.4812040816032
 31
0.0
  0
LINE
  5
2C50
330
26CC
100
AcDbEntity
  8
0
 62
     0
370
    -2
100
AcDbLine
 10
2065.645406854205
 20
891.4987295234601
 30
0.0
 11
2065.645406854205
 21
985.4812040816032
 31
0.0
  0
LINE
  5
2C51
330
26CC
100
AcDbEntity
  8
0
 62
     0
370
    -2
100
AcDbLine
 10
1940.645406854205
 20
983.6812040816033
 30
0.0
 11
2055.645406854205
 21
983.6812040816033
 31
0.0
  0
SOLID
  5
2C52
330
26CC
100
AcDbEntity
  8
0
 62
     0
100
AcDbTrace
 10
1940.645406854205
 20
985.3478707482699
 30
0.0
 11
1940.645406854205
 21
982.0145374149365
 31
0.0
 12
1930.645406854205
 22
983.6812040816033
 32
0.0
 13
1930.645406854205
 23
983.6812040816033
 33
0.0
  0
SOLID
  5
2C53
330
26CC
100
AcDbEntity
  8
0
 62
     0
100
AcDbTrace
 10
2055.645406854205
 20
985.3478707482699
 30
0.0
 11
2055.645406854205
 21
982.0145374149365
 31
0.0
 12
2065.645406854205
 22
983.6812040816033
 32
0.0
 13
2065.645406854205
 23
983.6812040816033
 33
0.0
  0
MTEXT
  5
2C54
330
26CC
100
AcDbEntity
  8
0
 62
     0
100
AcDbMText
 10
1998.145406854205
 20
997.3667429629129
 30
0.0
 40
17.0
 41
0.0
 71
     5
 72
     1
  1
\A1;135
  7
Dimsmall
 73
     1
 44
1.0
1001
ACAD
1000
MTEXTBEGIN
1070
    73
1070
     1
1070
    44
1040
1.0
1070
    74
1070
     0
1000
MTEXTEND
  0
POINT
  5
2C55
330
26CC
100
AcDbEntity
  8
Defpoints
 62
     0
100
AcDbPoint
 10
1930.645406854205
 20
881.4987295234601
 30
0.0
  0
POINT
  5
2C56
330
26CC
100
AcDbEntity
  8
Defpoints
 62
     0
100
AcDbPoint
 10
2065.645406854205
 20
881.4987295234601
 30
0.0
  0
POINT
  5
2C57
330
26CC
100
AcDbEntity
  8
Defpoints
 62
     0
100
AcDbPoint
 10
2065.645406854205
 20
983.6812040816033
 30
0.0
  0
ENDBLK
  5
26CE
330
26CC
100
AcDbEntity
  8
0
100
AcDbBlockEnd
  0
BLOCK
  5
26DA
330
26D9
100
AcDbEntity
  8
0
100
AcDbBlockBegin
  2
*D46
 70
     1
 10
0.0
 20
0.0
 30
0.0
  3
*D46
  1

  0
LINE
  5
2C58
330
26D9
100
AcDbEntity
  8
0
 62
     0
370
    -2
100
AcDbLine
 10
2075.645406854205
 20
860.4987295234602
 30
0.0
 11
2157.325672621809
 21
860.4987295234602
 31
0.0
  0
LINE
  5
2C59
330
26D9
100
AcDbEntity
  8
0
 62
     0
370
    -2
100
AcDbLine
 10
2075.645406854205
 20
881.4987295234601
 30
0.0
 11
2157.325672621809
 21
881.4987295234601
 31
0.0
  0
LINE
  5
2C5A
330
26D9
100
AcDbEntity
  8
0
 62
     0
370
    -2
100
AcDbLine
 10
2155.525672621809
 20
850.4987295234601
 30
0.0
 11
2155.525672621809
 21
840.4987295234601
 31
0.0
  0
LINE
  5
2C5B
330
26D9
100
AcDbEntity
  8
0
 62
     0
370
    -2
100
AcDbLine
 10
2155.525672621809
 20
891.4987295234601
 30
0.0
 11
2155.525672621809
 21
937.8848141073619
 31
0.0
  0
SOLID
  5
2C5C
330
26D9
100
AcDbEntity
  8
0
 62
     0
100
AcDbTrace
 10
2153.859005955142
 20
850.4987295234601
 30
0.0
 11
2157.192339288476
 21
850.4987295234601
 31
0.0
 12
2155.525672621809
 22
860.4987295234602
 32
0.0
 13
2155.525672621809
 23
860.4987295234602
 33
0.0
  0
SOLID
  5
2C5D
330
26D9
100
AcDbEntity
  8
0
 62
     0
100
AcDbTrace
 10
2153.859005955142
 20
891.4987295234601
 30
0.0
 11
2157.192339288476
 21
891.4987295234601
 31
0.0
 12
2155.525672621809
 22
881.4987295234601
 32
0.0
 13
2155.525672621809
 23
881.4987295234601
 33
0.0
  0
MTEXT
  5
2C5E
330
26D9
100
AcDbEntity
  8
0
 62
     0
100
AcDbMText
 10
2141.990884081563
 20
922.2047322519735
 30
0.0
 40
17.0
 41
0.0
 71
     5
 72
     1
  1
\A1;21
  7
Dimsmall
 11
0.0000000000000001
 21
1.0
 31
0.0
 73
     1
 44
1.0
1001
ACAD
1000
MTEXTBEGIN
1070
    73
1070
     1
1070
    44
1040
1.0
1070
    74
1070
     0
1000
MTEXTEND
  0
POINT
  5
2C5F
330
26D9
100
AcDbEntity
  8
Defpoints
 62
     0
100
AcDbPoint
 10
2065.645406854205
 20
860.4987295234602
 30
0.0
  0
POINT
  5
2C60
330
26D9
100
AcDbEntity
  8
Defpoints
 62
     0
100
AcDbPoint
 10
2065.645406854205
 20
881.4987295234601
 30
0.0
  0
POINT
  5
2C61
330
26D9
100
AcDbEntity
  8
Defpoints
 62
     0
100
AcDbPoint
 10
2155.525672621809
 20
881.4987295234601
 30
0.0
  0
ENDBLK
  5
26DB
330
26D9
100
AcDbEntity
  8
0
100
AcDbBlockEnd
  0
BLOCK
  5
2718
330
2717
100
AcDbEntity
  8
0
100
AcDbBlockBegin
  2
*D47
 70
     1
 10
0.0
 20
0.0
 30
0.0
  3
*D47
  1

  0
LINE
  5
271A
330
2717
100
AcDbEntity
  8
0
 62
     0
370
    -2
100
AcDbLine
 10
2075.645406854205
 20
1032.344595517758
 30
0.0
 11
2107.445406854205
 21
1032.344595517758
 31
0.0
  0
LINE
  5
271B
330
2717
100
AcDbEntity
  8
0
 62
     0
370
    -2
100
AcDbLine
 10
2075.645406854205
 20
1053.344595517758
 30
0.0
 11
2107.445406854205
 21
1053.344595517758
 31
0.0
  0
LINE
  5
271C
330
2717
100
AcDbEntity
  8
0
 62
     0
370
    -2
100
AcDbLine
 10
2105.645406854205
 20
1022.344595517758
 30
0.0
 11
2105.645406854205
 21
1012.344595517758
 31
0.0
  0
LINE
  5
271D
330
2717
100
AcDbEntity
  8
0
 62
     0
370
    -2
100
AcDbLine
 10
2105.645406854205
 20
1063.344595517758
 30
0.0
 11
2105.645406854205
 21
1095.909397700569
 31
0.0
  0
SOLID
  5
271E
330
2717
100
AcDbEntity
  8
0
 62
     0
100
AcDbTrace
 10
2103.978740187538
 20
1022.344595517758
 30
0.0
 11
2107.312073520871
 21
1022.344595517758
 31
0.0
 12
2105.645406854205
 22
1032.344595517758
 32
0.0
 13
2105.645406854205
 23
1032.344595517758
 33
0.0
  0
SOLID
  5
271F
330
2717
100
AcDbEntity
  8
0
 62
     0
100
AcDbTrace
 10
2103.978740187539
 20
1063.344595517758
 30
0.0
 11
2107.312073520872
 21
1063.344595517758
 31
0.0
 12
2105.645406854205
 22
1053.344595517758
 32
0.0
 13
2105.645406854205
 23
1053.344595517758
 33
0.0
  0
MTEXT
  5
2720
330
2717
100
AcDbEntity
  8
0
 62
     0
100
AcDbMText
 10
2095.624943007002
 20
1084.626996609164
 30
0.0
 40
10.0
 41
0.0
 71
     5
 72
     1
  1
\A1;21
  7
Dimsmall
 11
0.0000000000000001
 21
1.0
 31
0.0
 73
     1
 44
1.0
1001
ACAD
1000
MTEXTBEGIN
1070
    73
1070
     1
1070
    44
1040
1.0
1070
    74
1070
     0
1000
MTEXTEND
  0
POINT
  5
2721
330
2717
100
AcDbEntity
  8
Defpoints
 62
     0
100
AcDbPoint
 10
2065.645406854205
 20
1032.344595517758
 30
0.0
  0
POINT
  5
2722
330
2717
100
AcDbEntity
  8
Defpoints
 62
     0
100
AcDbPoint
 10
2065.645406854205
 20
1053.344595517758
 30
0.0
  0
POINT
  5
2723
330
2717
100
AcDbEntity
  8
Defpoints
 62
     0
100
AcDbPoint
 10
2105.645406854205
 20
1053.344595517758
 30
0.0
  0
ENDBLK
  5
2719
330
2717
100
AcDbEntity
  8
0
100
AcDbBlockEnd
  0
BLOCK
  5
273A
330
2739
100
AcDbEntity
  8
0
100
AcDbBlockBegin
  2
*D48
 70
     1
 10
0.0
 20
0.0
 30
0.0
  3
*D48
  1

  0
LINE
  5
2C62
330
2739
100
AcDbEntity
  8
0
 62
     0
370
    -2
100
AcDbLine
 10
2076.645406854205
 20
860.4987295234602
 30
0.0
 11
2157.325672621809
 21
860.4987295234602
 31
0.0
  0
LINE
  5
2C63
330
2739
100
AcDbEntity
  8
0
 62
     0
370
    -2
100
AcDbLine
 10
2076.645406854205
 20
818.4987295234602
 30
0.0
 11
2157.325672621809
 21
818.4987295234602
 31
0.0
  0
LINE
  5
2C64
330
2739
100
AcDbEntity
  8
0
 62
     0
370
    -2
100
AcDbLine
 10
2155.525672621809
 20
850.4987295234601
 30
0.0
 11
2155.525672621809
 21
828.4987295234602
 31
0.0
  0
SOLID
  5
2C65
330
2739
100
AcDbEntity
  8
0
 62
     0
100
AcDbTrace
 10
2153.859005955142
 20
850.4987295234601
 30
0.0
 11
2157.192339288476
 21
850.4987295234601
 31
0.0
 12
2155.525672621809
 22
860.4987295234602
 32
0.0
 13
2155.525672621809
 23
860.4987295234602
 33
0.0
  0
SOLID
  5
2C66
330
2739
100
AcDbEntity
  8
0
 62
     0
100
AcDbTrace
 10
2153.859005955142
 20
828.4987295234602
 30
0.0
 11
2157.192339288476
 21
828.4987295234602
 31
0.0
 12
2155.525672621809
 22
818.4987295234602
 32
0.0
 13
2155.525672621809
 23
818.4987295234602
 33
0.0
  0
MTEXT
  5
2C67
330
2739
100
AcDbEntity
  8
0
 62
     0
100
AcDbMText
 10
2141.990884081563
 20
839.4987295234605
 30
0.0
 40
17.0
 41
0.0
 71
     5
 72
     1
  1
\A1;42
  7
Dimsmall
 11
0.0000000000000001
 21
1.0
 31
0.0
 73
     1
 44
1.0
1001
ACAD
1000
MTEXTBEGIN
1070
    73
1070
     1
1070
    44
1040
1.0
1070
    74
1070
     0
1000
MTEXTEND
  0
POINT
  5
2C68
330
2739
100
AcDbEntity
  8
Defpoints
 62
     0
100
AcDbPoint
 10
2066.645406854205
 20
860.4987295234602
 30
0.0
  0
POINT
  5
2C69
330
2739
100
AcDbEntity
  8
Defpoints
 62
     0
100
AcDbPoint
 10
2066.645406854205
 20
818.4987295234602
 30
0.0
  0
POINT
  5
2C6A
330
2739
100
AcDbEntity
  8
Defpoints
 62
     0
100
AcDbPoint
 10
2155.525672621809
 20
818.4987295234602
 30
0.0
  0
ENDBLK
  5
273B
330
2739
100
AcDbEntity
  8
0
100
AcDbBlockEnd
  0
BLOCK
  5
2747
330
2746
100
AcDbEntity
  8
0
100
AcDbBlockBegin
  2
*D49
 70
     1
 10
0.0
 20
0.0
 30
0.0
  3
*D49
  1

  0
LINE
  5
27F8
330
2746
100
AcDbEntity
  8
0
 62
     0
370
    -2
100
AcDbLine
 10
2076.645406854205
 20
990.3445955177586
 30
0.0
 11
2107.415406854205
 21
990.3445955177586
 31
0.0
  0
LINE
  5
27F9
330
2746
100
AcDbEntity
  8
0
 62
     0
370
    -2
100
AcDbLine
 10
2076.645406854205
 20
973.3445955177582
 30
0.0
 11
2107.415406854205
 21
973.3445955177582
 31
0.0
  0
LINE
  5
27FA
330
2746
100
AcDbEntity
  8
0
 62
     0
370
    -2
100
AcDbLine
 10
2105.615406854205
 20
1000.344595517758
 30
0.0
 11
2105.615406854205
 21
1010.344595517758
 31
0.0
  0
LINE
  5
27FB
330
2746
100
AcDbEntity
  8
0
 62
     0
370
    -2
100
AcDbLine
 10
2105.615406854205
 20
963.3445955177583
 30
0.0
 11
2105.615406854205
 21
953.3445955177583
 31
0.0
  0
SOLID
  5
27FC
330
2746
100
AcDbEntity
  8
0
 62
     0
100
AcDbTrace
 10
2103.948740187539
 20
1000.344595517758
 30
0.0
 11
2107.282073520872
 21
1000.344595517758
 31
0.0
 12
2105.615406854205
 22
990.3445955177586
 32
0.0
 13
2105.615406854205
 23
990.3445955177586
 33
0.0
  0
SOLID
  5
27FD
330
2746
100
AcDbEntity
  8
0
 62
     0
100
AcDbTrace
 10
2103.948740187539
 20
963.3445955177583
 30
0.0
 11
2107.282073520872
 21
963.3445955177583
 31
0.0
 12
2105.615406854205
 22
973.3445955177582
 32
0.0
 13
2105.615406854205
 23
973.3445955177582
 33
0.0
  0
MTEXT
  5
27FE
330
2746
100
AcDbEntity
  8
0
 62
     0
100
AcDbMText
 10
2088.064247236197
 20
981.8445955177587
 30
0.0
 40
25.0
 41
0.0
 71
     5
 72
     1
  1
\A1;17
  7
Dimsmall
 11
0.0000000000000001
 21
1.0
 31
0.0
 73
     1
 44
1.0
1001
ACAD
1000
MTEXTBEGIN
1070
    73
1070
     1
1070
    44
1040
1.0
1070
    74
1070
     0
1000
MTEXTEND
  0
POINT
  5
27FF
330
2746
100
AcDbEntity
  8
Defpoints
 62
     0
100
AcDbPoint
 10
2066.645406854205
 20
990.3445955177586
 30
0.0
  0
POINT
  5
2800
330
2746
100
AcDbEntity
  8
Defpoints
 62
     0
100
AcDbPoint
 10
2066.645406854205
 20
973.3445955177582
 30
0.0
  0
POINT
  5
2801
330
2746
100
AcDbEntity
  8
Defpoints
 62
     0
100
AcDbPoint
 10
2105.615406854205
 20
973.3445955177582
 30
0.0
  0
ENDBLK
  5
2748
330
2746
100
AcDbEntity
  8
0
100
AcDbBlockEnd
  0
BLOCK
  5
2756
330
2755
100
AcDbEntity
  8
0
100
AcDbBlockBegin
  2
*D50
 70
     1
 10
0.0
 20
0.0
 30
0.0
  3
*D50
  1

  0
LINE
  5
2C6B
330
2755
100
AcDbEntity
  8
0
 62
     0
370
    -2
100
AcDbLine
 10
2075.645406854205
 20
881.4987295234601
 30
0.0
 11
2237.238119700097
 21
881.4987295234601
 31
0.0
  0
LINE
  5
2C6C
330
2755
100
AcDbEntity
  8
0
 62
     0
370
    -2
100
AcDbLine
 10
2076.645406854205
 20
801.49872952346
 30
0.0
 11
2237.238119700097
 21
801.49872952346
 31
0.0
  0
LINE
  5
2C6D
330
2755
100
AcDbEntity
  8
0
 62
     0
370
    -2
100
AcDbLine
 10
2235.438119700097
 20
871.4987295234601
 30
0.0
 11
2235.438119700097
 21
811.4987295234602
 31
0.0
  0
SOLID
  5
2C6E
330
2755
100
AcDbEntity
  8
0
 62
     0
100
AcDbTrace
 10
2233.771453033431
 20
871.4987295234601
 30
0.0
 11
2237.104786366764
 21
871.4987295234601
 31
0.0
 12
2235.438119700097
 22
881.4987295234601
 32
0.0
 13
2235.438119700097
 23
881.4987295234601
 33
0.0
  0
SOLID
  5
2C6F
330
2755
100
AcDbEntity
  8
0
 62
     0
100
AcDbTrace
 10
2233.771453033431
 20
811.4987295234602
 30
0.0
 11
2237.104786366764
 21
811.4987295234602
 31
0.0
 12
2235.438119700097
 22
801.49872952346
 32
0.0
 13
2235.438119700097
 23
801.49872952346
 33
0.0
  0
MTEXT
  5
2C70
330
2755
100
AcDbEntity
  8
0
 62
     0
100
AcDbMText
 10
2221.758378908829
 20
841.4987295234604
 30
0.0
 40
17.0
 41
0.0
 71
     5
 72
     1
  1
\A1;80
  7
Dimsmall
 11
0.0000000000000001
 21
1.0
 31
0.0
 73
     1
 44
1.0
1001
ACAD
1000
MTEXTBEGIN
1070
    73
1070
     1
1070
    44
1040
1.0
1070
    74
1070
     0
1000
MTEXTEND
  0
POINT
  5
2C71
330
2755
100
AcDbEntity
  8
Defpoints
 62
     0
100
AcDbPoint
 10
2065.645406854205
 20
881.4987295234601
 30
0.0
  0
POINT
  5
2C72
330
2755
100
AcDbEntity
  8
Defpoints
 62
     0
100
AcDbPoint
 10
2066.645406854205
 20
801.49872952346
 30
0.0
  0
POINT
  5
2C73
330
2755
100
AcDbEntity
  8
Defpoints
 62
     0
100
AcDbPoint
 10
2235.438119700097
 20
801.49872952346
 30
0.0
  0
ENDBLK
  5
2757
330
2755
100
AcDbEntity
  8
0
100
AcDbBlockEnd
  0
BLOCK
  5
2763
330
2762
100
AcDbEntity
  8
0
100
AcDbBlockBegin
  2
*D51
 70
     1
 10
0.0
 20
0.0
 30
0.0
  3
*D51
  1

  0
LINE
  5
276F
330
2762
100
AcDbEntity
  8
0
 62
     0
370
    -2
100
AcDbLine
 10
723.6454068542053
 20
1063.344595517758
 30
0.0
 11
723.6454068542053
 21
1107.561489952692
 31
0.0
  0
LINE
  5
2770
330
2762
100
AcDbEntity
  8
0
 62
     0
370
    -2
100
AcDbLine
 10
1723.645406854205
 20
1063.344595517758
 30
0.0
 11
1723.645406854205
 21
1107.561489952692
 31
0.0
  0
LINE
  5
2771
330
2762
100
AcDbEntity
  8
0
 62
     0
370
    -2
100
AcDbLine
 10
733.6454068542053
 20
1105.761489952692
 30
0.0
 11
1713.645406854205
 21
1105.761489952692
 31
0.0
  0
SOLID
  5
2772
330
2762
100
AcDbEntity
  8
0
 62
     0
100
AcDbTrace
 10
733.6454068542053
 20
1107.428156619359
 30
0.0
 11
733.6454068542053
 21
1104.094823286025
 31
0.0
 12
723.6454068542053
 22
1105.761489952692
 32
0.0
 13
723.6454068542053
 23
1105.761489952692
 33
0.0
  0
SOLID
  5
2773
330
2762
100
AcDbEntity
  8
0
 62
     0
100
AcDbTrace
 10
1713.645406854205
 20
1107.428156619359
 30
0.0
 11
1713.645406854205
 21
1104.094823286025
 31
0.0
 12
1723.645406854205
 22
1105.761489952692
 32
0.0
 13
1723.645406854205
 23
1105.761489952692
 33
0.0
  0
MTEXT
  5
2774
330
2762
100
AcDbEntity
  8
0
 62
     0
100
AcDbMText
 10
1223.645406854205
 20
1115.867219829909
 30
0.0
 40
10.0
 41
0.0
 71
     5
 72
     1
  1
\A1;1000
  7
Dimsmall
 73
     1
 44
1.0
1001
ACAD
1000
MTEXTBEGIN
1070
    73
1070
     1
1070
    44
1040
1.0
1070
    74
1070
     0
1000
MTEXTEND
  0
POINT
  5
2775
330
2762
100
AcDbEntity
  8
Defpoints
 62
     0
100
AcDbPoint
 10
723.6454068542053
 20
1053.344595517758
 30
0.0
  0
POINT
  5
2776
330
2762
100
AcDbEntity
  8
Defpoints
 62
     0
100
AcDbPoint
 10
1723.645406854205
 20
1053.344595517758
 30
0.0
  0
POINT
  5
2777
330
2762
100
AcDbEntity
  8
Defpoints
 62
     0
100
AcDbPoint
 10
1723.645406854205
 20
1105.761489952692
 30
0.0
  0
ENDBLK
  5
2764
330
2762
100
AcDbEntity
  8
0
100
AcDbBlockEnd
  0
BLOCK
  5
277B
330
277A
100
AcDbEntity
  8
0
100
AcDbBlockBegin
  2
*D52
 70
     1
 10
0.0
 20
0.0
 30
0.0
  3
*D52
  1

  0
LINE
  5
2C74
330
277A
100
AcDbEntity
  8
0
 62
     0
370
    -2
100
AcDbLine
 10
723.6454068542053
 20
891.4987295234601
 30
0.0
 11
723.6454068542053
 21
927.8888863572447
 31
0.0
  0
LINE
  5
2C75
330
277A
100
AcDbEntity
  8
0
 62
     0
370
    -2
100
AcDbLine
 10
1723.645406854205
 20
891.4987295234601
 30
0.0
 11
1723.645406854205
 21
927.8888863572447
 31
0.0
  0
LINE
  5
2C76
330
277A
100
AcDbEntity
  8
0
 62
     0
370
    -2
100
AcDbLine
 10
733.6454068542053
 20
926.0888863572448
 30
0.0
 11
1713.645406854205
 21
926.0888863572448
 31
0.0
  0
SOLID
  5
2C77
330
277A
100
AcDbEntity
  8
0
 62
     0
100
AcDbTrace
 10
733.6454068542053
 20
927.7555530239114
 30
0.0
 11
733.6454068542053
 21
924.4222196905782
 31
0.0
 12
723.6454068542053
 22
926.0888863572448
 32
0.0
 13
723.6454068542053
 23
926.0888863572448
 33
0.0
  0
SOLID
  5
2C78
330
277A
100
AcDbEntity
  8
0
 62
     0
100
AcDbTrace
 10
1713.645406854205
 20
927.7555530239114
 30
0.0
 11
1713.645406854205
 21
924.4222196905782
 31
0.0
 12
1723.645406854205
 22
926.0888863572448
 32
0.0
 13
1723.645406854205
 23
926.0888863572448
 33
0.0
  0
MTEXT
  5
2C79
330
277A
100
AcDbEntity
  8
0
 62
     0
100
AcDbMText
 10
1223.645406854205
 20
939.7686271485136
 30
0.0
 40
17.0
 41
0.0
 71
     5
 72
     1
  1
\A1;1000
  7
Dimsmall
 73
     1
 44
1.0
1001
ACAD
1000
MTEXTBEGIN
1070
    73
1070
     1
1070
    44
1040
1.0
1070
    74
1070
     0
1000
MTEXTEND
  0
POINT
  5
2C7A
330
277A
100
AcDbEntity
  8
Defpoints
 62
     0
100
AcDbPoint
 10
723.6454068542053
 20
881.4987295234601
 30
0.0
  0
POINT
  5
2C7B
330
277A
100
AcDbEntity
  8
Defpoints
 62
     0
100
AcDbPoint
 10
1723.645406854205
 20
881.4987295234601
 30
0.0
  0
POINT
  5
2C7C
330
277A
100
AcDbEntity
  8
Defpoints
 62
     0
100
AcDbPoint
 10
1723.645406854205
 20
926.0888863572448
 30
0.0
  0
ENDBLK
  5
277C
330
277A
100
AcDbEntity
  8
0
100
AcDbBlockEnd
  0
BLOCK
  5
2829
330
2828
100
AcDbEntity
  8
0
100
AcDbBlockBegin
  2
*D53
 70
     1
 10
0.0
 20
0.0
 30
0.0
  3
*D53
  1

  0
LINE
  5
2C7D
330
2828
100
AcDbEntity
  8
0
 62
     0
370
    -2
100
AcDbLine
 10
2076.645406854205
 20
818.4987295234602
 30
0.0
 11
2157.325672621809
 21
818.4987295234602
 31
0.0
  0
LINE
  5
2C7E
330
2828
100
AcDbEntity
  8
0
 62
     0
370
    -2
100
AcDbLine
 10
2076.645406854205
 20
801.49872952346
 30
0.0
 11
2157.325672621809
 21
801.49872952346
 31
0.0
  0
LINE
  5
2C7F
330
2828
100
AcDbEntity
  8
0
 62
     0
370
    -2
100
AcDbLine
 10
2155.525672621809
 20
828.4987295234602
 30
0.0
 11
2155.525672621809
 21
838.4987295234601
 31
0.0
  0
LINE
  5
2C80
330
2828
100
AcDbEntity
  8
0
 62
     0
370
    -2
100
AcDbLine
 10
2155.525672621809
 20
791.4987295234602
 30
0.0
 11
2155.525672621809
 21
743.3936817744831
 31
0.0
  0
SOLID
  5
2C81
330
2828
100
AcDbEntity
  8
0
 62
     0
100
AcDbTrace
 10
2153.859005955142
 20
828.4987295234602
 30
0.0
 11
2157.192339288476
 21
828.4987295234602
 31
0.0
 12
2155.525672621809
 22
818.4987295234602
 32
0.0
 13
2155.525672621809
 23
818.4987295234602
 33
0.0
  0
SOLID
  5
2C82
330
2828
100
AcDbEntity
  8
0
 62
     0
100
AcDbTrace
 10
2153.859005955142
 20
791.4987295234602
 30
0.0
 11
2157.192339288476
 21
791.4987295234602
 31
0.0
 12
2155.525672621809
 22
801.49872952346
 32
0.0
 13
2155.525672621809
 23
801.49872952346
 33
0.0
  0
MTEXT
  5
2C83
330
2828
100
AcDbEntity
  8
0
 62
     0
100
AcDbMText
 10
2141.990884081563
 20
759.7695344347837
 30
0.0
 40
17.0
 41
0.0
 71
     5
 72
     1
  1
\A1;17
  7
Dimsmall
 11
0.0000000000000001
 21
1.0
 31
0.0
 73
     1
 44
1.0
1001
ACAD
1000
MTEXTBEGIN
1070
    73
1070
     1
1070
    44
1040
1.0
1070
    74
1070
     0
1000
MTEXTEND
  0
POINT
  5
2C84
330
2828
100
AcDbEntity
  8
Defpoints
 62
     0
100
AcDbPoint
 10
2066.645406854205
 20
818.4987295234602
 30
0.0
  0
POINT
  5
2C85
330
2828
100
AcDbEntity
  8
Defpoints
 62
     0
100
AcDbPoint
 10
2066.645406854205
 20
801.49872952346
 30
0.0
  0
POINT
  5
2C86
330
2828
100
AcDbEntity
  8
Defpoints
 62
     0
100
AcDbPoint
 10
2155.525672621809
 20
801.49872952346
 30
0.0
  0
ENDBLK
  5
282A
330
2828
100
AcDbEntity
  8
0
100
AcDbBlockEnd
  0
BLOCK
  5
28AD
330
28AC
100
AcDbEntity
  8
0
100
AcDbBlockBegin
  2
*D54
 70
     1
 10
0.0
 20
0.0
 30
0.0
  3
*D54
  1

  0
LINE
  5
2C87
330
28AC
100
AcDbEntity
  8
0
 62
     0
370
    -2
100
AcDbLine
 10
1623.645406854205
 20
1208.588929523459
 30
0.0
 11
1623.645406854205
 21
1152.15020494438
 31
0.0
  0
LINE
  5
2C88
330
28AC
100
AcDbEntity
  8
0
 62
     0
370
    -2
100
AcDbLine
 10
1723.645406854205
 20
1216.08892952346
 30
0.0
 11
1723.645406854205
 21
1152.15020494438
 31
0.0
  0
LINE
  5
2C89
330
28AC
100
AcDbEntity
  8
0
 62
     0
370
    -2
100
AcDbLine
 10
1633.645406854205
 20
1153.95020494438
 30
0.0
 11
1713.645406854205
 21
1153.95020494438
 31
0.0
  0
SOLID
  5
2C8A
330
28AC
100
AcDbEntity
  8
0
 62
     0
100
AcDbTrace
 10
1633.645406854205
 20
1155.616871611047
 30
0.0
 11
1633.645406854205
 21
1152.283538277713
 31
0.0
 12
1623.645406854205
 22
1153.95020494438
 32
0.0
 13
1623.645406854205
 23
1153.95020494438
 33
0.0
  0
SOLID
  5
2C8B
330
28AC
100
AcDbEntity
  8
0
 62
     0
100
AcDbTrace
 10
1713.645406854205
 20
1155.616871611047
 30
0.0
 11
1713.645406854205
 21
1152.283538277713
 31
0.0
 12
1723.645406854205
 22
1153.95020494438
 32
0.0
 13
1723.645406854205
 23
1153.95020494438
 33
0.0
  0
MTEXT
  5
2C8C
330
28AC
100
AcDbEntity
  8
0
 62
     0
100
AcDbMText
 10
1673.645406854205
 20
1167.629945735649
 30
0.0
 40
17.0
 41
0.0
 71
     5
 72
     1
  1
\A1;100
  7
Dimsmall
 73
     1
 44
1.0
1001
ACAD
1000
MTEXTBEGIN
1070
    73
1070
     1
1070
    44
1040
1.0
1070
    74
1070
     0
1000
MTEXTEND
  0
POINT
  5
2C8D
330
28AC
100
AcDbEntity
  8
Defpoints
 62
     0
100
AcDbPoint
 10
1623.645406854205
 20
1218.588929523459
 30
0.0
  0
POINT
  5
2C8E
330
28AC
100
AcDbEntity
  8
Defpoints
 62
     0
100
AcDbPoint
 10
1723.645406854205
 20
1226.08892952346
 30
0.0
  0
POINT
  5
2C8F
330
28AC
100
AcDbEntity
  8
Defpoints
 62
     0
100
AcDbPoint
 10
1723.645406854205
 20
1153.95020494438
 30
0.0
  0
ENDBLK
  5
28AE
330
28AC
100
AcDbEntity
  8
0
100
AcDbBlockEnd
  0
BLOCK
  5
29E5
330
29E4
100
AcDbEntity
  8
0
100
AcDbBlockBegin
  2
*D55
 70
     1
 10
0.0
 20
0.0
 30
0.0
  3
*D55
  1

  0
LINE
  5
29F1
330
29E4
100
AcDbEntity
  8
点線２
 62
     0
370
    -2
100
AcDbLine
 10
966.9042053155244
 20
1097.934752351543
 30
0.0
 11
794.0761616777684
 21
1097.934752351543
 31
0.0
  0
LINE
  5
29F2
330
29E4
100
AcDbEntity
  8
点線２
 62
     0
370
    -2
100
AcDbLine
 10
966.9042053155244
 20
1278.344595517758
 30
0.0
 11
794.0761616777684
 21
1278.344595517758
 31
0.0
  0
LINE
  5
29F3
330
29E4
100
AcDbEntity
  8
点線２
 62
     0
370
    -2
100
AcDbLine
 10
795.8761616777682
 20
1107.934752351543
 30
0.0
 11
795.8761616777682
 21
1268.344595517758
 31
0.0
  0
SOLID
  5
29F4
330
29E4
100
AcDbEntity
  8
点線２
 62
     0
100
AcDbTrace
 10
794.2094950111017
 20
1107.934752351543
 30
0.0
 11
797.5428283444348
 21
1107.934752351543
 31
0.0
 12
795.8761616777682
 22
1097.934752351543
 32
0.0
 13
795.8761616777682
 23
1097.934752351543
 33
0.0
  0
SOLID
  5
29F5
330
29E4
100
AcDbEntity
  8
点線２
 62
     0
100
AcDbTrace
 10
794.2094950111017
 20
1268.344595517758
 30
0.0
 11
797.5428283444348
 21
1268.344595517758
 31
0.0
 12
795.8761616777682
 22
1278.344595517758
 32
0.0
 13
795.8761616777682
 23
1278.344595517758
 33
0.0
  0
MTEXT
  5
29F6
330
29E4
100
AcDbEntity
  8
点線２
 62
     0
100
AcDbMText
 10
785.7704318005512
 20
1188.139673934651
 30
0.0
 40
10.0
 41
0.0
 71
     5
 72
     1
  1
\A1;180
  7
DimClipsmall
 11
0.0000000000000001
 21
1.0
 31
0.0
 73
     1
 44
1.0
1001
ACAD
1000
MTEXTBEGIN
1070
    73
1070
     1
1070
    44
1040
1.0
1070
    74
1070
     0
1000
MTEXTEND
  0
POINT
  5
29F7
330
29E4
100
AcDbEntity
  8
Defpoints
 62
     0
100
AcDbPoint
 10
976.9042053155244
 20
1097.934752351543
 30
0.0
  0
POINT
  5
29F8
330
29E4
100
AcDbEntity
  8
Defpoints
 62
     0
100
AcDbPoint
 10
976.9042053155244
 20
1278.344595517758
 30
0.0
  0
POINT
  5
29F9
330
29E4
100
AcDbEntity
  8
Defpoints
 62
     0
100
AcDbPoint
 10
795.8761616777682
 20
1278.344595517758
 30
0.0
  0
ENDBLK
  5
29E6
330
29E4
100
AcDbEntity
  8
0
100
AcDbBlockEnd
  0
BLOCK
  5
2AA5
330
2AA4
100
AcDbEntity
  8
0
100
AcDbBlockBegin
  2
*D56
 70
     1
 10
0.0
 20
0.0
 30
0.0
  3
*D56
  1

  0
LINE
  5
2C90
330
2AA4
100
AcDbEntity
  8
寸法線
 62
     0
370
    -2
100
AcDbLine
 10
1733.645406854205
 20
1361.08892952346
 30
0.0
 11
1785.33019689295
 21
1361.08892952346
 31
0.0
  0
LINE
  5
2C91
330
2AA4
100
AcDbEntity
  8
寸法線
 62
     0
370
    -2
100
AcDbLine
 10
1733.645406854205
 20
1226.08892952346
 30
0.0
 11
1785.33019689295
 21
1226.08892952346
 31
0.0
  0
LINE
  5
2C92
330
2AA4
100
AcDbEntity
  8
寸法線
 62
     0
370
    -2
100
AcDbLine
 10
1783.53019689295
 20
1351.08892952346
 30
0.0
 11
1783.53019689295
 21
1236.08892952346
 31
0.0
  0
SOLID
  5
2C93
330
2AA4
100
AcDbEntity
  8
寸法線
 62
     0
100
AcDbTrace
 10
1781.863530226283
 20
1351.08892952346
 30
0.0
 11
1785.196863559617
 21
1351.08892952346
 31
0.0
 12
1783.53019689295
 22
1361.08892952346
 32
0.0
 13
1783.53019689295
 23
1361.08892952346
 33
0.0
  0
SOLID
  5
2C94
330
2AA4
100
AcDbEntity
  8
寸法線
 62
     0
100
AcDbTrace
 10
1781.863530226283
 20
1236.08892952346
 30
0.0
 11
1785.196863559617
 21
1236.08892952346
 31
0.0
 12
1783.53019689295
 22
1226.08892952346
 32
0.0
 13
1783.53019689295
 23
1226.08892952346
 33
0.0
  0
MTEXT
  5
2C95
330
2AA4
100
AcDbEntity
  8
寸法線
 62
     0
100
AcDbMText
 10
1769.84465801164
 20
1293.58892952346
 30
0.0
 40
17.0
 41
0.0
 71
     5
 72
     1
  1
\A1;135
  7
Dimsmall
 11
0.0000000000000001
 21
1.0
 31
0.0
 73
     1
 44
1.0
1001
ACAD
1000
MTEXTBEGIN
1070
    73
1070
     1
1070
    44
1040
1.0
1070
    74
1070
     0
1000
MTEXTEND
  0
POINT
  5
2C96
330
2AA4
100
AcDbEntity
  8
Defpoints
 62
     0
100
AcDbPoint
 10
1723.645406854205
 20
1361.08892952346
 30
0.0
  0
POINT
  5
2C97
330
2AA4
100
AcDbEntity
  8
Defpoints
 62
     0
100
AcDbPoint
 10
1723.645406854205
 20
1226.08892952346
 30
0.0
  0
POINT
  5
2C98
330
2AA4
100
AcDbEntity
  8
Defpoints
 62
     0
100
AcDbPoint
 10
1783.53019689295
 20
1226.08892952346
 30
0.0
  0
ENDBLK
  5
2AA6
330
2AA4
100
AcDbEntity
  8
0
100
AcDbBlockEnd
  0
BLOCK
  5
2BB8
330
2BB7
100
AcDbEntity
  8
0
100
AcDbBlockBegin
  2
*D57
 70
     1
 10
0.0
 20
0.0
 30
0.0
  3
*D57
  1

  0
LINE
  5
2C99
330
2BB7
100
AcDbEntity
  8
0
 62
     0
370
    -2
100
AcDbLine
 10
1948.145406854205
 20
868.0987295234601
 30
0.0
 11
1948.145406854205
 21
927.8888863572447
 31
0.0
  0
LINE
  5
2C9A
330
2BB7
100
AcDbEntity
  8
0
 62
     0
370
    -2
100
AcDbLine
 10
2048.145406854205
 20
868.0987295234601
 30
0.0
 11
2048.145406854205
 21
927.8888863572447
 31
0.0
  0
LINE
  5
2C9B
330
2BB7
100
AcDbEntity
  8
0
 62
     0
370
    -2
100
AcDbLine
 10
1958.145406854205
 20
926.0888863572448
 30
0.0
 11
2038.145406854205
 21
926.0888863572448
 31
0.0
  0
SOLID
  5
2C9C
330
2BB7
100
AcDbEntity
  8
0
 62
     0
100
AcDbTrace
 10
1958.145406854205
 20
927.7555530239114
 30
0.0
 11
1958.145406854205
 21
924.4222196905782
 31
0.0
 12
1948.145406854205
 22
926.0888863572448
 32
0.0
 13
1948.145406854205
 23
926.0888863572448
 33
0.0
  0
SOLID
  5
2C9D
330
2BB7
100
AcDbEntity
  8
0
 62
     0
100
AcDbTrace
 10
2038.145406854205
 20
927.7555530239114
 30
0.0
 11
2038.145406854205
 21
924.4222196905782
 31
0.0
 12
2048.145406854205
 22
926.0888863572448
 32
0.0
 13
2048.145406854205
 23
926.0888863572448
 33
0.0
  0
MTEXT
  5
2C9E
330
2BB7
100
AcDbEntity
  8
0
 62
     0
100
AcDbMText
 10
1998.145406854205
 20
939.7686271485136
 30
0.0
 40
17.0
 41
0.0
 71
     5
 72
     1
  1
\A1;100
  7
Dimsmall
 73
     1
 44
1.0
1001
ACAD
1000
MTEXTBEGIN
1070
    73
1070
     1
1070
    44
1040
1.0
1070
    74
1070
     0
1000
MTEXTEND
  0
POINT
  5
2C9F
330
2BB7
100
AcDbEntity
  8
Defpoints
 62
     0
100
AcDbPoint
 10
1948.145406854205
 20
858.0987295234601
 30
0.0
  0
POINT
  5
2CA0
330
2BB7
100
AcDbEntity
  8
Defpoints
 62
     0
100
AcDbPoint
 10
2048.145406854205
 20
858.0987295234601
 30
0.0
  0
POINT
  5
2CA1
330
2BB7
100
AcDbEntity
  8
Defpoints
 62
     0
100
AcDbPoint
 10
2048.145406854205
 20
926.0888863572448
 30
0.0
  0
ENDBLK
  5
2BB9
330
2BB7
100
AcDbEntity
  8
0
100
AcDbBlockEnd
  0
ENDSEC
  0
SECTION
  2
ENTITIES
  0
LINE
  5
88
330
65
100
AcDbEntity
  8
用紙枠
100
AcDbLine
 10
0.0
 20
25.50775507344952
 30
0.0
 11
2970.0
 21
25.50775507344952
 31
0.0
  0
LINE
  5
89
330
65
100
AcDbEntity
  8
用紙枠
100
AcDbLine
 10
2970.0
 20
25.50775507344952
 30
0.0
 11
2970.0
 21
2125.507755073449
 31
0.0
  0
LINE
  5
8A
330
65
100
AcDbEntity
  8
用紙枠
100
AcDbLine
 10
2970.0
 20
2125.507755073449
 30
0.0
 11
0.0
 21
2125.507755073449
 31
0.0
  0
LINE
  5
8B
330
65
100
AcDbEntity
  8
用紙枠
100
AcDbLine
 10
0.0
 20
2125.507755073449
 30
0.0
 11
0.0
 21
25.50775507344952
 31
0.0
  0
LINE
  5
8C
330
65
100
AcDbEntity
  8
図面枠
370
    30
100
AcDbLine
 10
150.0
 20
175.5077550734495
 30
0.0
 11
2820.0
 21
175.5077550734495
 31
0.0
  0
LINE
  5
8D
330
65
100
AcDbEntity
  8
図面枠
370
    30
100
AcDbLine
 10
2820.0
 20
175.5077550734495
 30
0.0
 11
2820.0
 21
1975.507755073449
 31
0.0
  0
LINE
  5
8E
330
65
100
AcDbEntity
  8
図面枠
370
    30
100
AcDbLine
 10
2820.0
 20
1975.507755073449
 30
0.0
 11
150.0
 21
1975.507755073449
 31
0.0
  0
LINE
  5
8F
330
65
100
AcDbEntity
  8
図面枠
370
    30
100
AcDbLine
 10
150.0
 20
1975.507755073449
 30
0.0
 11
150.0
 21
175.5077550734495
 31
0.0
  0
LINE
  5
90
330
65
100
AcDbEntity
  8
図面枠
370
    30
100
AcDbLine
 10
1970.0
 20
255.5077550734495
 30
0.0
 11
2820.0
 21
255.5077550734495
 31
0.0
  0
LINE
  5
91
330
65
100
AcDbEntity
  8
図面枠
100
AcDbLine
 10
1970.0
 20
295.5077550734495
 30
0.0
 11
2320.0
 21
295.5077550734495
 31
0.0
  0
LINE
  5
92
330
65
100
AcDbEntity
  8
図面枠
370
    30
100
AcDbLine
 10
2320.0
 20
345.5077550734495
 30
0.0
 11
2820.0
 21
345.5077550734495
 31
0.0
  0
LINE
  5
93
330
65
100
AcDbEntity
  8
図面枠
100
AcDbLine
 10
2320.0
 20
385.5077550734495
 30
0.0
 11
2820.0
 21
385.5077550734495
 31
0.0
  0
LINE
  5
94
330
65
100
AcDbEntity
  8
図面枠
100
AcDbLine
 10
1970.0
 20
425.5077550734495
 30
0.0
 11
2820.0
 21
425.5077550734495
 31
0.0
  0
LINE
  5
95
330
65
100
AcDbEntity
  8
図面枠
100
AcDbLine
 10
2320.0
 20
465.5077550734495
 30
0.0
 11
2820.0
 21
465.5077550734495
 31
0.0
  0
LINE
  5
96
330
65
100
AcDbEntity
  8
図面枠
100
AcDbLine
 10
1970.0
 20
505.5077550734495
 30
0.0
 11
2820.0
 21
505.5077550734495
 31
0.0
  0
LINE
  5
97
330
65
100
AcDbEntity
  8
図面枠
370
    30
100
AcDbLine
 10
1970.0
 20
175.5077550734495
 30
0.0
 11
1970.0
 21
505.5077550734495
 31
0.0
  0
LINE
  5
98
330
65
100
AcDbEntity
  8
図面枠
100
AcDbLine
 10
2047.0
 20
255.5077550734495
 30
0.0
 11
2047.0
 21
295.5077550734495
 31
0.0
  0
LINE
  5
99
330
65
100
AcDbEntity
  8
図面枠
100
AcDbLine
 10
2124.0
 20
255.5077550734495
 30
0.0
 11
2124.0
 21
295.5077550734495
 31
0.0
  0
LINE
  5
9A
330
65
100
AcDbEntity
  8
図面枠
100
AcDbLine
 10
2243.0
 20
255.5077550734495
 30
0.0
 11
2243.0
 21
295.5077550734495
 31
0.0
  0
LINE
  5
9B
330
65
100
AcDbEntity
  8
図面枠
100
AcDbLine
 10
2320.0
 20
255.5077550734495
 30
0.0
 11
2320.0
 21
505.5077550734495
 31
0.0
  0
LINE
  5
9C
330
65
100
AcDbEntity
  8
図面枠
100
AcDbLine
 10
2459.999999999999
 20
255.5077550734495
 30
0.0
 11
2459.999999999999
 21
345.5077550734495
 31
0.0
  0
LINE
  5
9D
330
65
100
AcDbEntity
  8
図面枠
100
AcDbLine
 10
2570.0
 20
345.5077550734495
 30
0.0
 11
2570.0
 21
505.5077550734495
 31
0.0
  0
LINE
  5
9E
330
65
100
AcDbEntity
  8
図面枠
100
AcDbLine
 10
2750.0
 20
255.5077550734495
 30
0.0
 11
2750.0
 21
345.5077550734495
 31
0.0
  0
MTEXT
  5
9F
330
65
100
AcDbEntity
  8
0
100
AcDbMText
 10
2507.064
 20
210.5077550734495
 30
0.0
 40
35.0
 41
625.8709999999997
 71
     5
 72
     5
  1
Kawagure Co., Ltd.
  7
A4Logos
 73
     1
 44
1.0
1001
ACAD
1000
MTEXTBEGIN
1070
    73
1070
     1
1070
    44
1040
1.0
1070
    74
1070
     0
1000
MTEXTEND
1000
ACAD_MTEXT_DEFINED_HEIGHT_BEGIN
1070
    46
1040
70.0
1000
ACAD_MTEXT_DEFINED_HEIGHT_END
  0
MTEXT
  5
A1
330
65
100
AcDbEntity
  8
0
100
AcDbMText
 10
2008.5
 20
273.5077550734495
 30
0.0
 40
10.0
 41
77.0
 71
     5
 72
     5
  1
決定図
  7
A4MspGothic
 73
     1
 44
1.0
1001
ACAD
1000
MTEXTBEGIN
1070
    73
1070
     1
1070
    44
1040
1.0
1070
    74
1070
     0
1000
MTEXTEND
1000
ACAD_MTEXT_DEFINED_HEIGHT_BEGIN
1070
    46
1040
19.006
1000
ACAD_MTEXT_DEFINED_HEIGHT_END
  0
MTEXT
  5
A3
330
65
100
AcDbEntity
  8
0
100
AcDbMText
 10
2085.5
 20
273.5077550734495
 30
0.0
 40
10.0
 41
77.0
 71
     5
 72
     5
  1
承認図
  7
A4MspGothic
 73
     1
 44
1.0
1001
ACAD
1000
MTEXTBEGIN
1070
    73
1070
     1
1070
    44
1040
1.0
1070
    74
1070
     0
1000
MTEXTEND
1000
ACAD_MTEXT_DEFINED_HEIGHT_BEGIN
1070
    46
1040
19.006
1000
ACAD_MTEXT_DEFINED_HEIGHT_END
  0
MTEXT
  5
A4
330
65
100
AcDbEntity
  8
0
100
AcDbMText
 10
2183.5
 20
273.5077550734495
 30
0.0
 40
10.0
 41
119.0
 71
     5
 72
     5
  1
訂正図（        ）
  7
A4MspGothic
 73
     1
 44
1.0
1001
ACAD
1000
MTEXTBEGIN
1070
    73
1070
     1
1070
    44
1040
1.0
1070
    74
1070
     0
1000
MTEXTEND
1000
ACAD_MTEXT_DEFINED_HEIGHT_BEGIN
1070
    46
1040
19.006
1000
ACAD_MTEXT_DEFINED_HEIGHT_END
  0
MTEXT
  5
A5
330
65
100
AcDbEntity
  8
0
100
AcDbMText
 10
2281.5
 20
273.5077550734495
 30
0.0
 40
10.0
 41
77.0
 71
     5
 72
     5
  1
参考図
  7
A4MspGothic
 73
     1
 44
1.0
1001
ACAD
1000
MTEXTBEGIN
1070
    73
1070
     1
1070
    44
1040
1.0
1070
    74
1070
     0
1000
MTEXTEND
1000
ACAD_MTEXT_DEFINED_HEIGHT_BEGIN
1070
    46
1040
19.006
1000
ACAD_MTEXT_DEFINED_HEIGHT_END
  0
MTEXT
  5
A6
330
65
100
AcDbEntity
  8
0
100
AcDbMText
 10
2291.029
 20
457.5077550734495
 30
0.0
 40
17.0
 41
18.483
 71
     1
 72
     5
  1
殿
  7
A4MspGothic2
 73
     1
 44
1.0
1001
ACAD
1000
MTEXTBEGIN
1070
    73
1070
     1
1070
    44
1040
1.0
1070
    74
1070
     0
1000
MTEXTEND
1000
ACAD_MTEXT_DEFINED_HEIGHT_BEGIN
1070
    46
1040
21.83
1000
ACAD_MTEXT_DEFINED_HEIGHT_END
  0
MTEXT
  5
A7
330
65
100
AcDbEntity
  8
0
100
AcDbMText
 10
2324.0
 20
490.5077550734495
 30
0.0
 40
10.0
 41
209.325
 71
     7
 72
     5
  1
ORDER No.
  7
A4small
 73
     1
 44
1.0
1001
ACAD
1000
MTEXTBEGIN
1070
    73
1070
     1
1070
    44
1040
1.0
1070
    74
1070
     0
1000
MTEXTEND
1000
ACAD_MTEXT_DEFINED_HEIGHT_BEGIN
1070
    46
1040
13.5
1000
ACAD_MTEXT_DEFINED_HEIGHT_END
  0
MTEXT
  5
A9
330
65
100
AcDbEntity
  8
0
100
AcDbMText
 10
2324.0
 20
450.5077550734495
 30
0.0
 40
10.0
 41
209.325
 71
     7
 72
     5
  1
WORK No.
  7
A4small
 73
     1
 44
1.0
1001
ACAD
1000
MTEXTBEGIN
1070
    73
1070
     1
1070
    44
1040
1.0
1070
    74
1070
     0
1000
MTEXTEND
1000
ACAD_MTEXT_DEFINED_HEIGHT_BEGIN
1070
    46
1040
13.5
1000
ACAD_MTEXT_DEFINED_HEIGHT_END
  0
MTEXT
  5
AA
330
65
100
AcDbEntity
  8
0
100
AcDbMText
 10
2324.0
 20
410.5077550734494
 30
0.0
 40
10.0
 41
209.325
 71
     7
 72
     5
  1
QUANTITY
  7
A4small
 73
     1
 44
1.0
1001
ACAD
1000
MTEXTBEGIN
1070
    73
1070
     1
1070
    44
1040
1.0
1070
    74
1070
     0
1000
MTEXTEND
1000
ACAD_MTEXT_DEFINED_HEIGHT_BEGIN
1070
    46
1040
13.5
1000
ACAD_MTEXT_DEFINED_HEIGHT_END
  0
MTEXT
  5
AB
330
65
100
AcDbEntity
  8
0
100
AcDbMText
 10
2324.0
 20
370.5077550734495
 30
0.0
 40
10.0
 41
209.325
 71
     7
 72
     5
  1
WEIGTH
  7
A4small
 73
     1
 44
1.0
1001
ACAD
1000
MTEXTBEGIN
1070
    73
1070
     1
1070
    44
1040
1.0
1070
    74
1070
     0
1000
MTEXTEND
1000
ACAD_MTEXT_DEFINED_HEIGHT_BEGIN
1070
    46
1040
13.5
1000
ACAD_MTEXT_DEFINED_HEIGHT_END
  0
MTEXT
  5
AC
330
65
100
AcDbEntity
  8
0
100
AcDbMText
 10
2324.0
 20
330.5077550734495
 30
0.0
 40
10.0
 41
209.325
 71
     7
 72
     5
  1
LEAF No.
  7
A4small
 73
     1
 44
1.0
1001
ACAD
1000
MTEXTBEGIN
1070
    73
1070
     1
1070
    44
1040
1.0
1070
    74
1070
     0
1000
MTEXTEND
1000
ACAD_MTEXT_DEFINED_HEIGHT_BEGIN
1070
    46
1040
13.5
1000
ACAD_MTEXT_DEFINED_HEIGHT_END
  0
MTEXT
  5
AD
330
65
100
AcDbEntity
  8
0
100
AcDbMText
 10
2464.0
 20
330.5077550734495
 30
0.0
 40
10.0
 41
209.325
 71
     7
 72
     5
  1
DRAWING No.
  7
A4small
 73
     1
 44
1.0
1001
ACAD
1000
MTEXTBEGIN
1070
    73
1070
     1
1070
    44
1040
1.0
1070
    74
1070
     0
1000
MTEXTEND
1000
ACAD_MTEXT_DEFINED_HEIGHT_BEGIN
1070
    46
1040
13.5
1000
ACAD_MTEXT_DEFINED_HEIGHT_END
  0
MTEXT
  5
AE
330
65
100
AcDbEntity
  8
0
100
AcDbMText
 10
2574.0
 20
490.5077550734495
 30
0.0
 40
10.0
 41
209.325
 71
     7
 72
     5
  1
MANAGER
  7
A4small
 73
     1
 44
1.0
1001
ACAD
1000
MTEXTBEGIN
1070
    73
1070
     1
1070
    44
1040
1.0
1070
    74
1070
     0
1000
MTEXTEND
1000
ACAD_MTEXT_DEFINED_HEIGHT_BEGIN
1070
    46
1040
13.5
1000
ACAD_MTEXT_DEFINED_HEIGHT_END
  0
MTEXT
  5
AF
330
65
100
AcDbEntity
  8
0
100
AcDbMText
 10
2574.0
 20
450.5077550734495
 30
0.0
 40
10.0
 41
209.325
 71
     7
 72
     5
  1
CHECKED BY
  7
A4small
 73
     1
 44
1.0
1001
ACAD
1000
MTEXTBEGIN
1070
    73
1070
     1
1070
    44
1040
1.0
1070
    74
1070
     0
1000
MTEXTEND
1000
ACAD_MTEXT_DEFINED_HEIGHT_BEGIN
1070
    46
1040
13.5
1000
ACAD_MTEXT_DEFINED_HEIGHT_END
  0
MTEXT
  5
B0
330
65
100
AcDbEntity
  8
0
100
AcDbMText
 10
2574.0
 20
410.5077550734494
 30
0.0
 40
10.0
 41
209.325
 71
     7
 72
     5
  1
DESIGNED BY
  7
A4small
 73
     1
 44
1.0
1001
ACAD
1000
MTEXTBEGIN
1070
    73
1070
     1
1070
    44
1040
1.0
1070
    74
1070
     0
1000
MTEXTEND
1000
ACAD_MTEXT_DEFINED_HEIGHT_BEGIN
1070
    46
1040
13.5
1000
ACAD_MTEXT_DEFINED_HEIGHT_END
  0
MTEXT
  5
B1
330
65
100
AcDbEntity
  8
0
100
AcDbMText
 10
2574.0
 20
370.5077550734495
 30
0.0
 40
10.0
 41
209.325
 71
     7
 72
     5
  1
DRAWN BY
  7
A4small
 73
     1
 44
1.0
1001
ACAD
1000
MTEXTBEGIN
1070
    73
1070
     1
1070
    44
1040
1.0
1070
    74
1070
     0
1000
MTEXTEND
1000
ACAD_MTEXT_DEFINED_HEIGHT_BEGIN
1070
    46
1040
13.5
1000
ACAD_MTEXT_DEFINED_HEIGHT_END
  0
MTEXT
  5
B2
330
65
100
AcDbEntity
  8
0
100
AcDbMText
 10
2754.0
 20
330.5077550734495
 30
0.0
 40
10.0
 41
209.325
 71
     7
 72
     5
  1
SCALE
  7
A4small
 73
     1
 44
1.0
1001
ACAD
1000
MTEXTBEGIN
1070
    73
1070
     1
1070
    44
1040
1.0
1070
    74
1070
     0
1000
MTEXTEND
1000
ACAD_MTEXT_DEFINED_HEIGHT_BEGIN
1070
    46
1040
13.5
1000
ACAD_MTEXT_DEFINED_HEIGHT_END
  0
MTEXT
  5
BE
330
65
100
AcDbEntity
  8
0
100
AcDbMText
 10
2760.0
 20
299.5077550734495
 30
0.0
 40
20.0
 41
60.0
 71
     1
 72
     5
  1
1/10
  7
A4smallText
 73
     1
 44
1.0
1001
ACAD
1000
MTEXTBEGIN
1070
    73
1070
     1
1070
    44
1040
1.0
1070
    74
1070
     0
1000
MTEXTEND
1000
ACAD_MTEXT_DEFINED_HEIGHT_BEGIN
1070
    46
1040
20.0
1000
ACAD_MTEXT_DEFINED_HEIGHT_END
  0
MTEXT
  5
C0
330
65
100
AcDbEntity
  8
0
100
AcDbMText
 10
1670.0
 20
180.0
 30
0.0
 40
20.0
 41
270.0
 71
     1
 72
     5
  1

  7
A4smallText
 73
     1
 44
1.0
1001
ACAD
1000
MTEXTBEGIN
1070
    73
1070
     1
1070
    44
1040
1.0
1070
    74
1070
     0
1000
MTEXTEND
1000
ACAD_MTEXT_DEFINED_HEIGHT_BEGIN
1070
    46
1040
20.0
1000
ACAD_MTEXT_DEFINED_HEIGHT_END
  0
MTEXT
  5
C1
330
65
100
AcDbEntity
  8
0
100
AcDbMText
 10
1670.0
 20
201.0
 30
0.0
 40
20.0
 41
270.0
 71
     1
 72
     5
  1

  7
A4smallText
 73
     1
 44
1.0
1001
ACAD
1000
MTEXTBEGIN
1070
    73
1070
     1
1070
    44
1040
1.0
1070
    74
1070
     0
1000
MTEXTEND
1000
ACAD_MTEXT_DEFINED_HEIGHT_BEGIN
1070
    46
1040
20.0
1000
ACAD_MTEXT_DEFINED_HEIGHT_END
  0
MTEXT
  5
C2
330
65
100
AcDbEntity
  8
0
100
AcDbMText
 10
1670.0
 20
222.0
 30
0.0
 40
20.0
 41
270.0
 71
     1
 72
     5
  1

  7
A4smallText
 73
     1
 44
1.0
1001
ACAD
1000
MTEXTBEGIN
1070
    73
1070
     1
1070
    44
1040
1.0
1070
    74
1070
     0
1000
MTEXTEND
1000
ACAD_MTEXT_DEFINED_HEIGHT_BEGIN
1070
    46
1040
20.0
1000
ACAD_MTEXT_DEFINED_HEIGHT_END
  0
MTEXT
  5
C3
330
65
100
AcDbEntity
  8
0
100
AcDbMText
 10
1670.0
 20
243.0
 30
0.0
 40
20.0
 41
270.0
 71
     1
 72
     5
  1

  7
A4smallText
 73
     1
 44
1.0
1001
ACAD
1000
MTEXTBEGIN
1070
    73
1070
     1
1070
    44
1040
1.0
1070
    74
1070
     0
1000
MTEXTEND
1000
ACAD_MTEXT_DEFINED_HEIGHT_BEGIN
1070
    46
1040
20.0
1000
ACAD_MTEXT_DEFINED_HEIGHT_END
  0
MTEXT
  5
C4
330
65
100
AcDbEntity
  8
0
100
AcDbMText
 10
1670.0
 20
264.0
 30
0.0
 40
20.0
 41
270.0
 71
     1
 72
     5
  1

  7
A4smallText
 73
     1
 44
1.0
1001
ACAD
1000
MTEXTBEGIN
1070
    73
1070
     1
1070
    44
1040
1.0
1070
    74
1070
     0
1000
MTEXTEND
1000
ACAD_MTEXT_DEFINED_HEIGHT_BEGIN
1070
    46
1040
20.0
1000
ACAD_MTEXT_DEFINED_HEIGHT_END
  0
IMAGE
  5
C7
330
65
100
AcDbEntity
  8
0
 92
      140
310
8C00000001000000840000000600000005000000000000000098A040005B91873F9066400000000000000000000000000098A040025B91873F106E400000000000000000000000000010A140025B91873F106E400000000000000000000000000010A140005B91873F9066400000000000000000000000000098A040005B91
310
873F9066400000000000000000
100
AcDbRasterImage
 90
        0
 10
2124.0
 20
180.5077550734495
 30
0.0
 11
0.06
 21
0.0
 31
0.0
 12
0.0
 22
0.0606673407482306
 32
0.0
 13
1000.0
 23
989.0
340
C6
 70
     7
280
     0
281
    50
282
    50
283
     0
360
C8
 71
     1
 91
        2
 14
-0.5
 24
-0.5
 14
999.5
 24
988.4999999999999
  0
LINE
  5
213A
330
65
100
AcDbEntity
  8
0
100
AcDbLine
 10
0.0
 20
25.50775507344952
 30
0.0
 11
0.0
 21
25.50775507344952
 31
0.0
  0
LINE
  5
213B
330
65
100
AcDbEntity
  8
0
100
AcDbLine
 10
0.0
 20
25.50775507344952
 30
0.0
 11
0.0
 21
25.50775507344952
 31
0.0
  0
LINE
  5
213C
330
65
100
AcDbEntity
  8
0
100
AcDbLine
 10
0.0
 20
25.50775507344952
 30
0.0
 11
0.0
 21
25.50775507344952
 31
0.0
  0
LINE
  5
213D
330
65
100
AcDbEntity
  8
0
100
AcDbLine
 10
0.0
 20
25.50775507344952
 30
0.0
 11
0.0
 21
25.50775507344952
 31
0.0
  0
LINE
  5
224B
330
65
100
AcDbEntity
  8
0
100
AcDbLine
 10
0.0
 20
1655.507755073449
 30
0.0
 11
0.0
 21
1655.507755073449
 31
0.0
  0
LINE
  5
2250
330
65
100
AcDbEntity
  8
0
100
AcDbLine
 10
0.0
 20
855.5077550734495
 30
0.0
 11
0.0
 21
855.5077550734495
 31
0.0
  0
LINE
  5
24C9
330
65
100
AcDbEntity
  8
ﾚｲﾔ1
100
AcDbLine
 10
487.6187359555983
 20
1442.634233025184
 30
0.0
 11
604.6768475246912
 21
1442.634233025184
 31
0.0
  0
LINE
  5
24CA
330
65
100
AcDbEntity
  8
ﾚｲﾔ1
100
AcDbLine
 10
723.6454068542053
 20
1361.08892952346
 30
0.0
 11
723.6454068542053
 21
1226.08892952346
 31
0.0
  0
LINE
  5
24CB
330
65
100
AcDbEntity
  8
ﾚｲﾔ1
100
AcDbLine
 10
1723.645406854205
 20
1226.08892952346
 30
0.0
 11
1723.645406854205
 21
1361.08892952346
 31
0.0
  0
LINE
  5
24CC
330
65
100
AcDbEntity
  8
ﾚｲﾔ1
100
AcDbLine
 10
723.6454068542053
 20
1361.08892952346
 30
0.0
 11
1723.645406854205
 21
1361.08892952346
 31
0.0
  0
LINE
  5
24CD
330
65
100
AcDbEntity
  8
ﾚｲﾔ1
100
AcDbLine
 10
1003.645406854205
 20
1343.588929523459
 30
0.0
 11
1003.645406854205
 21
1353.588929523459
 31
0.0
  0
LINE
  5
24CE
330
65
100
AcDbEntity
  8
ﾚｲﾔ1
100
AcDbLine
 10
1003.645406854205
 20
1353.588929523459
 30
0.0
 11
1017.645406854205
 21
1353.588929523459
 31
0.0
  0
LINE
  5
24CF
330
65
100
AcDbEntity
  8
ﾚｲﾔ1
100
AcDbLine
 10
1017.645406854205
 20
1353.588929523459
 30
0.0
 11
1017.645406854205
 21
1343.588929523459
 31
0.0
  0
LINE
  5
24D0
330
65
100
AcDbEntity
  8
ﾚｲﾔ1
100
AcDbLine
 10
928.6454068542054
 20
1243.588929523459
 30
0.0
 11
928.6454068542054
 21
1233.58892952346
 31
0.0
  0
LINE
  5
24D1
330
65
100
AcDbEntity
  8
ﾚｲﾔ1
100
AcDbLine
 10
928.6454068542054
 20
1233.58892952346
 30
0.0
 11
942.6454068542053
 21
1233.58892952346
 31
0.0
  0
LINE
  5
24D2
330
65
100
AcDbEntity
  8
ﾚｲﾔ1
100
AcDbLine
 10
942.6454068542053
 20
1233.58892952346
 30
0.0
 11
942.6454068542053
 21
1243.588929523459
 31
0.0
  0
LINE
  5
24D3
330
65
100
AcDbEntity
  8
ﾚｲﾔ1
100
AcDbLine
 10
1443.645406854205
 20
1243.588929523459
 30
0.0
 11
1443.645406854205
 21
1233.58892952346
 31
0.0
  0
LINE
  5
24D4
330
65
100
AcDbEntity
  8
ﾚｲﾔ1
100
AcDbLine
 10
1443.645406854205
 20
1233.58892952346
 30
0.0
 11
1429.645406854205
 21
1233.58892952346
 31
0.0
  0
LINE
  5
24D5
330
65
100
AcDbEntity
  8
ﾚｲﾔ1
100
AcDbLine
 10
1429.645406854205
 20
1233.58892952346
 30
0.0
 11
1429.645406854205
 21
1243.588929523459
 31
0.0
  0
LINE
  5
24D6
330
65
100
AcDbEntity
  8
ﾚｲﾔ1
100
AcDbLine
 10
1518.645406854205
 20
1343.588929523459
 30
0.0
 11
1518.645406854205
 21
1353.588929523459
 31
0.0
  0
LINE
  5
24D7
330
65
100
AcDbEntity
  8
ﾚｲﾔ1
100
AcDbLine
 10
1518.645406854205
 20
1353.588929523459
 30
0.0
 11
1504.645406854205
 21
1353.588929523459
 31
0.0
  0
LINE
  5
24D8
330
65
100
AcDbEntity
  8
ﾚｲﾔ1
100
AcDbLine
 10
1504.645406854205
 20
1353.588929523459
 30
0.0
 11
1504.645406854205
 21
1343.588929523459
 31
0.0
  0
LINE
  5
24D9
330
65
100
AcDbEntity
  8
ﾚｲﾔ1
100
AcDbLine
 10
723.6454068542053
 20
1357.888929523459
 30
0.0
 11
1723.645406854205
 21
1357.888929523459
 31
0.0
  0
LINE
  5
24DA
330
65
100
AcDbEntity
  8
ﾚｲﾔ1
100
AcDbLine
 10
723.6454068542053
 20
1229.28892952346
 30
0.0
 11
1723.645406854205
 21
1229.28892952346
 31
0.0
  0
LINE
  5
24DB
330
65
100
AcDbEntity
  8
ﾚｲﾔ1
100
AcDbLine
 10
723.6454068542053
 20
1343.588929523459
 30
0.0
 11
1723.645406854205
 21
1343.588929523459
 31
0.0
  0
LINE
  5
24DC
330
65
100
AcDbEntity
  8
ﾚｲﾔ1
100
AcDbLine
 10
723.6454068542053
 20
1243.588929523459
 30
0.0
 11
1723.645406854205
 21
1243.588929523459
 31
0.0
  0
LINE
  5
24DD
102
{ACAD_REACTORS
330
28C2
102
}
330
65
100
AcDbEntity
  8
ﾚｲﾔ1
100
AcDbLine
 10
723.6454068542053
 20
1226.08892952346
 30
0.0
 11
1723.645406854205
 21
1226.08892952346
 31
0.0
  0
LINE
  5
24DE
330
65
100
AcDbEntity
  8
ﾚｲﾔ1
100
AcDbLine
 10
1723.645406854205
 20
1253.588929523459
 30
0.0
 11
1730.645406854205
 21
1255.588929523461
 31
0.0
  0
LINE
  5
24DF
330
65
100
AcDbEntity
  8
ﾚｲﾔ1
100
AcDbLine
 10
1723.645406854205
 20
1333.588929523459
 30
0.0
 11
1730.645406854205
 21
1331.588929523459
 31
0.0
  0
LINE
  5
24E0
330
65
100
AcDbEntity
  8
ﾚｲﾔ1
100
AcDbLine
 10
1730.645406854205
 20
1331.588929523459
 30
0.0
 11
1730.645406854205
 21
1255.588929523461
 31
0.0
  0
CIRCLE
  5
24E4
330
65
100
AcDbEntity
  8
ﾚｲﾔ1
100
AcDbCircle
 10
1623.645406854205
 20
1293.588929523459
 30
0.0
 40
55.0
  0
LINE
  5
24E7
330
65
100
AcDbEntity
  8
ﾚｲﾔ1
100
AcDbLine
 10
723.6454068542053
 20
881.4987295234601
 30
0.0
 11
1723.645406854205
 21
881.4987295234601
 31
0.0
  0
LINE
  5
24E8
102
{ACAD_REACTORS
330
2790
102
}
330
65
100
AcDbEntity
  8
ﾚｲﾔ1
100
AcDbLine
 10
723.6454068542053
 20
881.4987295234601
 30
0.0
 11
723.6454068542053
 21
801.49872952346
 31
0.0
  0
LINE
  5
24E9
102
{ACAD_REACTORS
330
26CA
102
}
330
65
100
AcDbEntity
  8
ﾚｲﾔ1
100
AcDbLine
 10
1723.645406854205
 20
881.4987295234601
 30
0.0
 11
1723.645406854205
 21
801.49872952346
 31
0.0
  0
POLYLINE
  5
24EA
330
65
100
AcDbEntity
  8
ﾚｲﾔ1
100
AcDb2dPolyline
 66
     1
 10
0.0
 20
0.0
 30
0.0
  0
VERTEX
  5
24EB
330
24EA
100
AcDbEntity
  8
ﾚｲﾔ1
100
AcDbVertex
100
AcDb2dVertex
 10
1683.645406854205
 20
818.4987295234602
 30
0.0
  0
VERTEX
  5
24EC
330
24EA
100
AcDbEntity
  8
ﾚｲﾔ1
100
AcDbVertex
100
AcDb2dVertex
 10
763.6454068542053
 20
818.4987295234602
 30
0.0
  0
VERTEX
  5
24ED
330
24EA
100
AcDbEntity
  8
ﾚｲﾔ1
100
AcDbVertex
100
AcDb2dVertex
 10
763.6454068542053
 20
808.4987295234601
 30
0.0
  0
VERTEX
  5
24EE
330
24EA
100
AcDbEntity
  8
ﾚｲﾔ1
100
AcDbVertex
100
AcDb2dVertex
 10
1683.645406854205
 20
808.4987295234601
 30
0.0
  0
VERTEX
  5
24EF
330
24EA
100
AcDbEntity
  8
ﾚｲﾔ1
100
AcDbVertex
100
AcDb2dVertex
 10
1683.645406854205
 20
818.4987295234602
 30
0.0
  0
SEQEND
  5
24F0
330
24EA
100
AcDbEntity
  8
ﾚｲﾔ1
  0
LINE
  5
24F1
330
65
100
AcDbEntity
  8
ﾚｲﾔ1
100
AcDbLine
 10
723.6454068542053
 20
860.4987295234602
 30
0.0
 11
1723.645406854205
 21
860.4987295234602
 31
0.0
  0
POLYLINE
  5
24F2
330
65
100
AcDbEntity
  8
ﾚｲﾔ1
100
AcDb2dPolyline
 66
     1
 10
0.0
 20
0.0
 30
0.0
  0
VERTEX
  5
24F3
330
24F2
100
AcDbEntity
  8
ﾚｲﾔ1
100
AcDbVertex
100
AcDb2dVertex
 10
749.6454068542053
 20
839.4987295234601
 30
0.0
  0
VERTEX
  5
24F4
330
24F2
100
AcDbEntity
  8
ﾚｲﾔ1
100
AcDbVertex
100
AcDb2dVertex
 10
739.6454068542054
 20
839.4987295234601
 30
0.0
  0
VERTEX
  5
24F5
330
24F2
100
AcDbEntity
  8
ﾚｲﾔ1
100
AcDbVertex
100
AcDb2dVertex
 10
739.6454068542054
 20
819.4987295234602
 30
0.0
  0
VERTEX
  5
24F6
330
24F2
100
AcDbEntity
  8
ﾚｲﾔ1
100
AcDbVertex
100
AcDb2dVertex
 10
749.6454068542053
 20
819.4987295234602
 30
0.0
  0
VERTEX
  5
24F7
330
24F2
100
AcDbEntity
  8
ﾚｲﾔ1
100
AcDbVertex
100
AcDb2dVertex
 10
749.6454068542053
 20
839.4987295234601
 30
0.0
  0
SEQEND
  5
24F8
330
24F2
100
AcDbEntity
  8
ﾚｲﾔ1
  0
POLYLINE
  5
24F9
330
65
100
AcDbEntity
  8
ﾚｲﾔ1
100
AcDb2dPolyline
 66
     1
 10
0.0
 20
0.0
 30
0.0
  0
VERTEX
  5
24FA
330
24F9
100
AcDbEntity
  8
ﾚｲﾔ1
100
AcDbVertex
100
AcDb2dVertex
 10
1697.645406854205
 20
839.4987295234601
 30
0.0
  0
VERTEX
  5
24FB
330
24F9
100
AcDbEntity
  8
ﾚｲﾔ1
100
AcDbVertex
100
AcDb2dVertex
 10
1707.645406854205
 20
839.4987295234601
 30
0.0
  0
VERTEX
  5
24FC
330
24F9
100
AcDbEntity
  8
ﾚｲﾔ1
100
AcDbVertex
100
AcDb2dVertex
 10
1707.645406854205
 20
819.4987295234602
 30
0.0
  0
VERTEX
  5
24FD
330
24F9
100
AcDbEntity
  8
ﾚｲﾔ1
100
AcDbVertex
100
AcDb2dVertex
 10
1697.645406854205
 20
819.4987295234602
 30
0.0
  0
VERTEX
  5
24FE
330
24F9
100
AcDbEntity
  8
ﾚｲﾔ1
100
AcDbVertex
100
AcDb2dVertex
 10
1697.645406854205
 20
839.4987295234601
 30
0.0
  0
SEQEND
  5
24FF
330
24F9
100
AcDbEntity
  8
ﾚｲﾔ1
  0
LINE
  5
2500
330
65
100
AcDbEntity
  8
ﾚｲﾔ1
100
AcDbLine
 10
1730.645406854205
 20
805.1282455234602
 30
0.0
 11
1730.645406854205
 21
801.49872952346
 31
0.0
  0
LINE
  5
2501
102
{ACAD_REACTORS
330
26CA
102
}
330
65
100
AcDbEntity
  8
ﾚｲﾔ1
100
AcDbLine
 10
723.6454068542053
 20
801.49872952346
 30
0.0
 11
1730.645406854205
 21
801.49872952346
 31
0.0
  0
LINE
  5
2502
330
65
100
AcDbEntity
  8
ﾚｲﾔ1
100
AcDbLine
 10
1723.645406854205
 20
808.4987295234601
 30
0.0
 11
1730.645406854205
 21
806.4987295234601
 31
0.0
  0
LINE
  5
2503
330
65
100
AcDbEntity
  8
ﾚｲﾔ1
100
AcDbLine
 10
1730.645406854205
 20
805.1282455234602
 30
0.0
 11
1730.645406854205
 21
806.4987295234601
 31
0.0
  0
ARC
  5
2507
330
65
100
AcDbEntity
  8
ﾚｲﾔ1
100
AcDbCircle
 10
1932.245406854205
 20
843.0987295234601
 30
0.0
 40
1.6
100
AcDbArc
 50
180.0
 51
0.0
  0
ARC
  5
2508
330
65
100
AcDbEntity
  8
ﾚｲﾔ1
100
AcDbCircle
 10
1933.045406854205
 20
844.9987295234601
 30
0.0
 40
0.8
100
AcDbArc
 50
0.0
 51
180.0
  0
LINE
  5
2509
330
65
100
AcDbEntity
  8
ﾚｲﾔ1
100
AcDbLine
 10
1933.845406854205
 20
844.9987295234601
 30
0.0
 11
1933.845406854205
 21
843.0987295234601
 31
0.0
  0
ARC
  5
250A
330
65
100
AcDbEntity
  8
ﾚｲﾔ1
100
AcDbCircle
 10
1932.245406854205
 20
879.90206652346
 30
0.0
 40
1.6
100
AcDbArc
 50
0.0
 51
180.0
  0
LINE
  5
250B
330
65
100
AcDbEntity
  8
ﾚｲﾔ1
100
AcDbLine
 10
1933.845406854205
 20
879.90206652346
 30
0.0
 11
1933.845406854205
 21
861.2987295234599
 31
0.0
  0
ARC
  5
250C
330
65
100
AcDbEntity
  8
ﾚｲﾔ1
100
AcDbCircle
 10
1934.645406854205
 20
861.2987295234599
 30
0.0
 40
0.8
100
AcDbArc
 50
180.0
 51
270.0
  0
LINE
  5
250D
330
65
100
AcDbEntity
  8
ﾚｲﾔ1
100
AcDbLine
 10
1932.245406854205
 20
879.90206652346
 30
0.0
 11
1932.245406854205
 21
843.0987295234601
 31
0.0
  0
ARC
  5
250E
330
65
100
AcDbEntity
  8
ﾚｲﾔ1
100
AcDbCircle
 10
1934.645406854205
 20
861.2987295234599
 30
0.0
 40
2.399999999999999
100
AcDbArc
 50
180.0
 51
270.0
  0
LINE
  5
250F
330
65
100
AcDbEntity
  8
ﾚｲﾔ1
100
AcDbLine
 10
1934.645406854205
 20
858.8987295234602
 30
0.0
 11
1945.745406854205
 21
858.8987295234602
 31
0.0
  0
ARC
  5
2510
330
65
100
AcDbEntity
  8
ﾚｲﾔ1
100
AcDbCircle
 10
1945.745406854205
 20
858.0987295234601
 30
0.0
 40
0.8
100
AcDbArc
 50
0.0
 51
90.0
  0
LINE
  5
2511
330
65
100
AcDbEntity
  8
ﾚｲﾔ1
100
AcDbLine
 10
1934.645406854205
 20
860.4987295234602
 30
0.0
 11
1945.745406854205
 21
860.4987295234602
 31
0.0
  0
ARC
  5
2512
330
65
100
AcDbEntity
  8
ﾚｲﾔ1
100
AcDbCircle
 10
1945.745406854205
 20
858.0987295234601
 30
0.0
 40
2.399999999999999
100
AcDbArc
 50
0.0
 51
90.0
  0
ARC
  5
2513
330
65
100
AcDbEntity
  8
ﾚｲﾔ1
100
AcDbCircle
 10
1946.545406854205
 20
835.0987295234601
 30
0.0
 40
1.6
100
AcDbArc
 50
180.0
 51
0.0
  0
ARC
  5
2514
330
65
100
AcDbEntity
  8
ﾚｲﾔ1
100
AcDbCircle
 10
1945.745406854205
 20
836.9987295234601
 30
0.0
 40
0.8
100
AcDbArc
 50
0.0
 51
180.0
  0
LINE
  5
2515
330
65
100
AcDbEntity
  8
ﾚｲﾔ1
100
AcDbLine
 10
1944.945406854205
 20
836.9987295234601
 30
0.0
 11
1944.945406854205
 21
835.0987295234601
 31
0.0
  0
LINE
  5
2516
330
65
100
AcDbEntity
  8
ﾚｲﾔ1
100
AcDbLine
 10
1946.545406854205
 20
835.0987295234601
 30
0.0
 11
1946.545406854205
 21
858.0987295234601
 31
0.0
  0
ARC
  5
2517
330
65
100
AcDbEntity
  8
ﾚｲﾔ1
100
AcDbCircle
 10
2064.045406854205
 20
843.0987295234601
 30
0.0
 40
1.6
100
AcDbArc
 50
180.0
 51
0.0
  0
ARC
  5
2518
330
65
100
AcDbEntity
  8
ﾚｲﾔ1
100
AcDbCircle
 10
2063.245406854205
 20
844.9987295234601
 30
0.0
 40
0.8
100
AcDbArc
 50
0.0
 51
180.0
  0
LINE
  5
2519
330
65
100
AcDbEntity
  8
ﾚｲﾔ1
100
AcDbLine
 10
2062.445406854205
 20
844.9987295234601
 30
0.0
 11
2062.445406854205
 21
843.0987295234601
 31
0.0
  0
ARC
  5
251A
330
65
100
AcDbEntity
  8
ﾚｲﾔ1
100
AcDbCircle
 10
2064.045406854205
 20
879.90206652346
 30
0.0
 40
1.6
100
AcDbArc
 50
0.0
 51
180.0
  0
LINE
  5
251B
330
65
100
AcDbEntity
  8
ﾚｲﾔ1
100
AcDbLine
 10
2062.445406854205
 20
879.90206652346
 30
0.0
 11
2062.445406854205
 21
861.2987295234599
 31
0.0
  0
ARC
  5
251C
330
65
100
AcDbEntity
  8
ﾚｲﾔ1
100
AcDbCircle
 10
2061.645406854205
 20
861.2987295234599
 30
0.0
 40
0.8
100
AcDbArc
 50
270.0
 51
0.0
  0
LINE
  5
251D
330
65
100
AcDbEntity
  8
ﾚｲﾔ1
100
AcDbLine
 10
2064.045406854205
 20
879.90206652346
 30
0.0
 11
2064.045406854205
 21
843.0987295234601
 31
0.0
  0
ARC
  5
251E
330
65
100
AcDbEntity
  8
ﾚｲﾔ1
100
AcDbCircle
 10
2061.645406854205
 20
861.2987295234599
 30
0.0
 40
2.399999999999999
100
AcDbArc
 50
270.0
 51
0.0
  0
LINE
  5
251F
330
65
100
AcDbEntity
  8
ﾚｲﾔ1
100
AcDbLine
 10
2061.645406854205
 20
858.8987295234602
 30
0.0
 11
2050.545406854205
 21
858.8987295234602
 31
0.0
  0
ARC
  5
2520
330
65
100
AcDbEntity
  8
ﾚｲﾔ1
100
AcDbCircle
 10
2050.545406854205
 20
858.0987295234601
 30
0.0
 40
0.8
100
AcDbArc
 50
90.0
 51
180.0
  0
LINE
  5
2521
330
65
100
AcDbEntity
  8
ﾚｲﾔ1
100
AcDbLine
 10
2061.645406854205
 20
860.4987295234602
 30
0.0
 11
2050.545406854205
 21
860.4987295234602
 31
0.0
  0
ARC
  5
2522
330
65
100
AcDbEntity
  8
ﾚｲﾔ1
100
AcDbCircle
 10
2050.545406854205
 20
858.0987295234601
 30
0.0
 40
2.399999999999999
100
AcDbArc
 50
90.0
 51
180.0
  0
ARC
  5
2523
330
65
100
AcDbEntity
  8
ﾚｲﾔ1
100
AcDbCircle
 10
2049.745406854205
 20
835.0987295234601
 30
0.0
 40
1.6
100
AcDbArc
 50
180.0
 51
0.0
  0
ARC
  5
2524
330
65
100
AcDbEntity
  8
ﾚｲﾔ1
100
AcDbCircle
 10
2050.545406854205
 20
836.9987295234601
 30
0.0
 40
0.8
100
AcDbArc
 50
0.0
 51
180.0
  0
LINE
  5
2525
330
65
100
AcDbEntity
  8
ﾚｲﾔ1
100
AcDbLine
 10
2051.345406854205
 20
836.9987295234601
 30
0.0
 11
2051.345406854205
 21
835.0987295234601
 31
0.0
  0
LINE
  5
2526
330
65
100
AcDbEntity
  8
ﾚｲﾔ1
100
AcDbLine
 10
2049.745406854205
 20
835.0987295234601
 30
0.0
 11
2049.745406854205
 21
858.0987295234601
 31
0.0
  0
LINE
  5
2527
330
65
100
AcDbEntity
  8
ﾚｲﾔ1
100
AcDbLine
 10
2065.645406854205
 20
879.99872952346
 30
0.0
 11
2065.645406854205
 21
801.49872952346
 31
0.0
  0
LINE
  5
2528
330
65
100
AcDbEntity
  8
ﾚｲﾔ1
100
AcDbLine
 10
1930.645406854205
 20
801.49872952346
 30
0.0
 11
2065.645406854205
 21
801.49872952346
 31
0.0
  0
LINE
  5
2529
330
65
100
AcDbEntity
  8
ﾚｲﾔ1
100
AcDbLine
 10
1930.645406854205
 20
879.90206652346
 30
0.0
 11
1930.645406854205
 21
801.49872952346
 31
0.0
  0
LINE
  5
252A
102
{ACAD_REACTORS
330
2BCD
102
}
330
65
100
AcDbEntity
  8
ﾚｲﾔ1
100
AcDbLine
 10
2048.145406854205
 20
858.0987295234601
 30
0.0
 11
2048.145406854205
 21
821.4987295234601
 31
0.0
  0
ARC
  5
252B
330
65
100
AcDbEntity
  8
ﾚｲﾔ1
100
AcDbCircle
 10
2045.145406854205
 20
821.4987295234601
 30
0.0
 40
3.0
100
AcDbArc
 50
270.0
 51
0.0
  0
LINE
  5
252C
330
65
100
AcDbEntity
  8
ﾚｲﾔ1
100
AcDbLine
 10
1951.145406854205
 20
818.4987295234602
 30
0.0
 11
2045.145406854205
 21
818.4987295234602
 31
0.0
  0
LINE
  5
252D
102
{ACAD_REACTORS
330
2BCD
102
}
330
65
100
AcDbEntity
  8
ﾚｲﾔ1
100
AcDbLine
 10
1948.145406854205
 20
858.0987295234601
 30
0.0
 11
1948.145406854205
 21
821.4987295234601
 31
0.0
  0
ARC
  5
252E
330
65
100
AcDbEntity
  8
ﾚｲﾔ1
100
AcDbCircle
 10
1951.145406854205
 20
821.4987295234601
 30
0.0
 40
3.0
100
AcDbArc
 50
180.0
 51
270.0
  0
LINE
  5
252F
330
65
100
AcDbEntity
  8
ﾚｲﾔ1
100
AcDbLine
 10
1958.145406854205
 20
801.49872952346
 30
0.0
 11
1958.145406854205
 21
808.4987295234601
 31
0.0
  0
LINE
  5
2530
330
65
100
AcDbEntity
  8
ﾚｲﾔ1
100
AcDbLine
 10
1958.145406854205
 20
808.4987295234601
 30
0.0
 11
2038.145406854205
 21
808.4987295234601
 31
0.0
  0
LINE
  5
2531
330
65
100
AcDbEntity
  8
ﾚｲﾔ1
100
AcDbLine
 10
2038.145406854205
 20
808.4987295234601
 30
0.0
 11
2038.145406854205
 21
801.49872952346
 31
0.0
  0
LINE
  5
2538
330
65
100
AcDbEntity
  8
04_中心線
100
AcDbLine
 10
1623.645406854205
 20
1368.588929523459
 30
0.0
 11
1623.645406854205
 21
1218.588929523459
 31
0.0
  0
DIMENSION
  5
2640
330
65
100
AcDbEntity
  8
0
100
AcDbDimension
  2
*D42
 10
1723.645406854205
 20
1406.088929523459
 30
0.0
 11
1223.645406854205
 21
1419.768670314728
 31
0.0
 70
    32
 71
     5
 42
999.9999999999996
  3
DimStyle
100
AcDbAlignedDimension
 13
723.6454068542053
 23
1361.08892952346
 33
0.0
 14
1723.645406854205
 24
1361.08892952346
 34
0.0
100
AcDbRotatedDimension
  0
DIMENSION
  5
264F
330
65
100
AcDbEntity
  8
0
100
AcDbDimension
  2
*D43
 10
1730.645406854205
 20
1406.085270845132
 30
0.0
 11
1727.145406854205
 21
1406.085270845132
 31
0.0
 70
   160
 71
     5
 42
7.0
  3
DimStyle
100
AcDbAlignedDimension
 13
1723.645406854205
 23
1361.08892952346
 33
0.0
 14
1730.645406854205
 24
1361.08892952346
 34
0.0
100
AcDbRotatedDimension
  0
DIMENSION
  5
26B3
102
{ACAD_XDICTIONARY
360
26C0
102
}
102
{ACAD_REACTORS
330
26CA
102
}
330
65
100
AcDbEntity
  8
0
100
AcDbDimension
  2
*D44
 10
1783.282073520872
 20
801.49872952346
 30
0.0
 11
1769.602332729603
 21
841.4987295234604
 31
0.0
 70
    32
 71
     5
 42
80.0
  3
DimStyle
100
AcDbAlignedDimension
 13
1723.645406854205
 23
881.4987295234601
 33
0.0
 14
1723.645406854205
 24
801.49872952346
 34
0.0
 50
90.0
100
AcDbRotatedDimension
  0
DIMENSION
  5
26CB
330
65
100
AcDbEntity
  8
0
100
AcDbDimension
  2
*D45
 10
2065.645406854205
 20
983.6812040816033
 30
0.0
 11
1998.145406854205
 21
983.6812040816033
 31
0.0
 70
   160
 71
     5
 42
134.9999999999997
  3
DimStyle
100
AcDbAlignedDimension
 13
1930.645406854205
 23
881.4987295234601
 33
0.0
 14
2065.645406854205
 24
881.4987295234601
 34
0.0
100
AcDbRotatedDimension
  0
DIMENSION
  5
26D8
330
65
100
AcDbEntity
  8
0
100
AcDbDimension
  2
*D46
 10
2155.525672621809
 20
881.4987295234601
 30
0.0
 11
2155.525672621809
 21
922.2047322519735
 31
0.0
 70
   160
 71
     5
 42
21.0
  3
DimStyle
100
AcDbAlignedDimension
 13
2065.645406854205
 23
860.4987295234602
 33
0.0
 14
2065.645406854205
 24
881.4987295234601
 34
0.0
 50
90.0
100
AcDbRotatedDimension
  0
DIMENSION
  5
2738
330
65
100
AcDbEntity
  8
0
100
AcDbDimension
  2
*D48
 10
2155.525672621809
 20
818.4987295234602
 30
0.0
 11
2155.525672621809
 21
839.4987295234605
 31
0.0
 70
   160
 71
     5
 42
42.0
  3
DimStyle
100
AcDbAlignedDimension
 13
2066.645406854205
 23
860.4987295234602
 33
0.0
 14
2066.645406854205
 24
818.4987295234602
 34
0.0
 50
90.0
100
AcDbRotatedDimension
  0
DIMENSION
  5
2754
330
65
100
AcDbEntity
  8
0
100
AcDbDimension
  2
*D50
 10
2235.438119700097
 20
801.49872952346
 30
0.0
 11
2235.438119700097
 21
841.4987295234604
 31
0.0
 70
   160
 71
     5
 42
80.0
  3
DimStyle
100
AcDbAlignedDimension
 13
2065.645406854205
 23
881.4987295234601
 33
0.0
 14
2066.645406854205
 24
801.49872952346
 34
0.0
 50
90.0
100
AcDbRotatedDimension
  0
DIMENSION
  5
2779
102
{ACAD_XDICTIONARY
360
2786
102
}
102
{ACAD_REACTORS
330
2790
102
}
330
65
100
AcDbEntity
  8
0
100
AcDbDimension
  2
*D52
 10
1723.645406854205
 20
926.0888863572448
 30
0.0
 11
1223.645406854205
 21
939.7686271485136
 31
0.0
 70
    32
 71
     5
 42
999.9999999999996
  3
DimStyle
100
AcDbAlignedDimension
 13
723.6454068542053
 23
881.4987295234601
 33
0.0
 14
1723.645406854205
 24
881.4987295234601
 34
0.0
100
AcDbRotatedDimension
  0
DIMENSION
  5
2827
330
65
100
AcDbEntity
  8
0
100
AcDbDimension
  2
*D53
 10
2155.525672621809
 20
801.49872952346
 30
0.0
 11
2155.525672621809
 21
759.7695344347837
 31
0.0
 70
   160
 71
     5
 42
17.0
  3
DimStyle
100
AcDbAlignedDimension
 13
2066.645406854205
 23
818.4987295234602
 33
0.0
 14
2066.645406854205
 24
801.49872952346
 34
0.0
 50
90.0
100
AcDbRotatedDimension
  0
MTEXT
  5
2860
102
{ACAD_REACTORS
330
2861
102
}
330
65
100
AcDbEntity
  8
0
100
AcDbMText
 10
1763.080509268241
 20
1132.312696278575
 30
0.0
 40
20.0
 41
0.0
 71
     7
 72
     5
  1
φ110mm\Pﾉｯｸｱｳﾄ機構(底部)
  7
LeaderLine
 73
     1
 44
1.0
1001
ACAD
1000
MTEXTBEGIN
1070
    73
1070
     1
1070
    44
1040
1.0
1070
    74
1070
     0
1000
MTEXTEND
  0
LEADER
  5
2861
330
65
100
AcDbEntity
  8
寸法線
100
AcDbLeader
  3
DimStyle
 73
     0
 74
     0
 75
     1
 40
62.76515151515152
 41
225.7954545454546
 76
     3
 10
1666.318337385481
 20
1258.889923775846
 30
0.0
 10
1748.080509268241
 20
1127.312696278575
 30
0.0
 10
1758.080509268241
 20
1127.312696278575
 30
0.0
340
2860
1001
ACAD
1000
DSTYLE
1002
{
1070
   340
1005
80
1002
}
  0
MTEXT
  5
2877
330
65
100
AcDbEntity
  8
0
100
AcDbMText
 10
289.6370556393972
 20
1661.590935290538
 30
0.0
 40
30.0
 41
0.0
 71
     7
 72
     5
  1
e-drain ﾚｼﾞﾝｺﾝｸﾘｰﾄ側溝 typeX-5 ｼｬﾛｰ(浅型)
  7
LeaderLine
 73
     1
 44
1.0
1001
ACAD
1000
MTEXTBEGIN
1070
    73
1070
     1
1070
    44
1040
1.0
1070
    74
1070
     0
1000
MTEXTEND
  0
LINE
  5
2878
330
65
100
AcDbEntity
  8
ﾚｲﾔ1
100
AcDbLine
 10
278.224588804454
 20
1656.830788751569
 30
0.0
 11
1178.224588804454
 21
1656.830788751569
 31
0.0
  0
MTEXT
  5
2879
330
65
100
AcDbEntity
  8
0
100
AcDbMText
 10
491.0645658568729
 20
1451.903845172241
 30
0.0
 40
26.0
 41
0.0
 71
     7
 72
     5
  1
側面図
  7
LeaderLine
 73
     1
 44
1.0
1001
ACAD
1000
MTEXTBEGIN
1070
    73
1070
     1
1070
    44
1040
1.0
1070
    74
1070
     0
1000
MTEXTEND
  0
LINE
  5
2881
330
65
100
AcDbEntity
  8
ﾚｲﾔ1
100
AcDbLine
 10
487.6187359555983
 20
974.1417380008801
 30
0.0
 11
604.6768475246912
 21
974.1417380008801
 31
0.0
  0
MTEXT
  5
2882
330
65
100
AcDbEntity
  8
0
100
AcDbMText
 10
491.0645658568729
 20
983.4113501479379
 30
0.0
 40
26.0
 41
0.0
 71
     7
 72
     5
  1
平面図
  7
LeaderLine
 73
     1
 44
1.0
1001
ACAD
1000
MTEXTBEGIN
1070
    73
1070
     1
1070
    44
1040
1.0
1070
    74
1070
     0
1000
MTEXTEND
  0
DIMENSION
  5
28AB
102
{ACAD_XDICTIONARY
360
28B8
102
}
102
{ACAD_REACTORS
330
28C2
102
}
330
65
100
AcDbEntity
  8
0
100
AcDbDimension
  2
*D54
 10
1723.645406854205
 20
1153.95020494438
 30
0.0
 11
1673.645406854205
 21
1167.629945735649
 31
0.0
 70
    32
 71
     5
 42
100.0
  3
DimStyle
100
AcDbAlignedDimension
 13
1623.645406854205
 23
1218.588929523459
 33
0.0
 14
1723.645406854205
 24
1226.08892952346
 34
0.0
100
AcDbRotatedDimension
  0
MTEXT
  5
2987
330
65
100
AcDbEntity
  8
0
100
AcDbMText
 10
1991.35774813403
 20
407.1487848426686
 30
0.0
 40
17.0
 41
416.1157865678559
 71
     1
 72
     5
  1
e-drain ﾚｼﾞﾝｺﾝｸﾘｰﾄ側溝
  7
A4MspGothic2
 73
     1
 44
1.0
1001
ACAD
1000
MTEXTBEGIN
1070
    73
1070
     1
1070
    44
1040
1.0
1070
    74
1070
     0
1000
MTEXTEND
1000
ACAD_MTEXT_DEFINED_HEIGHT_BEGIN
1070
    46
1040
21.83
1000
ACAD_MTEXT_DEFINED_HEIGHT_END
  0
MTEXT
  5
2988
330
65
100
AcDbEntity
  8
0
100
AcDbMText
 10
1991.340112534351
 20
373.6530603774399
 30
0.0
 40
17.0
 41
416.1157865678559
 71
     1
 72
     5
  1
typeX-5ｼｬﾛｰ(浅型)
  7
A4MspGothic2
 73
     1
 44
1.0
1001
ACAD
1000
MTEXTBEGIN
1070
    73
1070
     1
1070
    44
1040
1.0
1070
    74
1070
     0
1000
MTEXTEND
1000
ACAD_MTEXT_DEFINED_HEIGHT_BEGIN
1070
    46
1040
21.83
1000
ACAD_MTEXT_DEFINED_HEIGHT_END
  0
MTEXT
  5
298A
330
65
100
AcDbEntity
  8
0
100
AcDbMText
 10
1991.486487150155
 20
334.6699133309275
 30
0.0
 40
17.0
 41
416.1157865678559
 71
     1
 72
     5
  1
平面・側面図
  7
A4MspGothic2
 73
     1
 44
1.0
1001
ACAD
1000
MTEXTBEGIN
1070
    73
1070
     1
1070
    44
1040
1.0
1070
    74
1070
     0
1000
MTEXTEND
1000
ACAD_MTEXT_DEFINED_HEIGHT_BEGIN
1070
    46
1040
21.83
1000
ACAD_MTEXT_DEFINED_HEIGHT_END
  0
LINE
  5
2997
330
65
100
AcDbEntity
  8
点線２
  6
HIDDEN4
100
AcDbLine
 10
723.6454068542053
 20
1338.16035852346
 30
0.0
 11
732.6454068542053
 21
1335.588929523459
 31
0.0
  0
LINE
  5
2998
330
65
100
AcDbEntity
  8
点線２
  6
HIDDEN4
100
AcDbLine
 10
732.6454068542053
 20
1335.588929523459
 30
0.0
 11
732.6454068542053
 21
1251.588929523459
 31
0.0
  0
LINE
  5
299B
330
65
100
AcDbEntity
  8
点線２
100
AcDbLine
 10
723.6454068542053
 20
1249.01750052346
 30
0.0
 11
723.07098715341
 21
1249.01750052346
 31
0.0
  0
LINE
  5
299C
330
65
100
AcDbEntity
  8
点線２
  6
HIDDEN4
100
AcDbLine
 10
723.6454068542053
 20
1249.01750052346
 30
0.0
 11
732.6454068542053
 21
1251.588929523459
 31
0.0
  0
LINE
  5
299F
330
65
100
AcDbEntity
  8
点線２
  6
HIDDEN4
100
AcDbLine
 10
723.6454068542053
 20
810.4987295234602
 30
0.0
 11
732.6454068542053
 21
808.4987295234601
 31
0.0
  0
LINE
  5
29A0
330
65
100
AcDbEntity
  8
点線２
  6
HIDDEN4
100
AcDbLine
 10
732.6454068542053
 20
808.4987295234601
 30
0.0
 11
732.6454068542053
 21
801.49872952346
 31
0.0
  0
LINE
  5
29A1
330
65
100
AcDbEntity
  8
点線２
100
AcDbLine
 10
1930.645406854205
 20
815.9587295234601
 30
0.0
 11
1933.145406854205
 21
814.9587295234601
 31
0.0
  0
LINE
  5
29A2
330
65
100
AcDbEntity
  8
点線２
100
AcDbLine
 10
1933.145406854205
 20
814.9587295234601
 30
0.0
 11
1933.145406854205
 21
806.9587295234601
 31
0.0
  0
LINE
  5
29A3
330
65
100
AcDbEntity
  8
点線２
100
AcDbLine
 10
1933.145406854205
 20
806.9587295234601
 30
0.0
 11
1930.645406854205
 21
805.9587295234601
 31
0.0
  0
LINE
  5
29A4
330
65
100
AcDbEntity
  8
点線２
100
AcDbLine
 10
2065.645406854205
 20
815.9587295234601
 30
0.0
 11
2063.145406854205
 21
814.9587295234601
 31
0.0
  0
LINE
  5
29A5
330
65
100
AcDbEntity
  8
点線２
100
AcDbLine
 10
2063.145406854205
 20
814.9587295234601
 30
0.0
 11
2063.145406854205
 21
806.9587295234601
 31
0.0
  0
LINE
  5
29A6
330
65
100
AcDbEntity
  8
点線２
100
AcDbLine
 10
2063.145406854205
 20
806.9587295234601
 30
0.0
 11
2065.645406854205
 21
805.9587295234601
 31
0.0
  0
DIMENSION
  5
2AA3
330
65
100
AcDbEntity
  8
寸法線
100
AcDbDimension
  2
*D56
 10
1783.53019689295
 20
1226.08892952346
 30
0.0
 11
1783.53019689295
 21
1293.58892952346
 31
0.0
 70
   160
 71
     5
 42
135.0
  3
DimStyle
100
AcDbAlignedDimension
 13
1723.645406854205
 23
1361.08892952346
 33
0.0
 14
1723.645406854205
 24
1226.08892952346
 34
0.0
 50
90.0
100
AcDbRotatedDimension
  0
LINE
  5
2B40
330
65
100
AcDbEntity
  8
0
100
AcDbLine
 10
2155.525672621809
 20
860.4987295234602
 30
0.0
 11
2155.525672621809
 21
881.4987295234601
 31
0.0
  0
LINE
  5
2B41
330
65
100
AcDbEntity
  8
0
100
AcDbLine
 10
2155.525672621809
 20
801.49872952346
 30
0.0
 11
2155.525672621809
 21
818.4987295234602
 31
0.0
  0
MTEXT
  5
2B43
330
65
100
AcDbEntity
  8
0
100
AcDbMText
 10
2549.536949595744
 20
304.1457579446478
 30
0.0
 40
17.0
 41
416.1157865678559
 71
     1
 72
     5
  1
14-05-01
  7
A4MspGothic2
 73
     1
 44
1.0
1001
ACAD
1000
MTEXTBEGIN
1070
    73
1070
     1
1070
    44
1040
1.0
1070
    74
1070
     0
1000
MTEXTEND
1000
ACAD_MTEXT_DEFINED_HEIGHT_BEGIN
1070
    46
1040
21.83
1000
ACAD_MTEXT_DEFINED_HEIGHT_END
  0
LINE
  5
2B6B
330
65
100
AcDbEntity
  8
04_中心線
100
AcDbLine
 10
708.6454068542053
 20
1293.588929523459
 30
0.0
 11
1746.645406854205
 21
1293.588929523459
 31
0.0
  0
DIMENSION
  5
2BB6
102
{ACAD_XDICTIONARY
360
2BC3
102
}
102
{ACAD_REACTORS
330
2BCD
102
}
330
65
100
AcDbEntity
  8
0
100
AcDbDimension
  2
*D57
 10
2048.145406854205
 20
926.0888863572448
 30
0.0
 11
1998.145406854205
 21
939.7686271485136
 31
0.0
 70
    32
 71
     5
 42
99.99999999999978
  3
DimStyle
100
AcDbAlignedDimension
 13
1948.145406854205
 23
858.0987295234601
 33
0.0
 14
2048.145406854205
 24
858.0987295234601
 34
0.0
100
AcDbRotatedDimension
1001
ACAD
1000
DSTYLE
1002
{
1070
    50
1040
1.570796326794896
1002
}
  0
ENDSEC
  0
SECTION
  2
OBJECTS
  0
DICTIONARY
  5
C
330
0
100
AcDbDictionary
281
     1
  3
ACAD_2007HEADERVARS_RT
350
2CAC
  3
ACAD_COLOR
350
5B
  3
ACAD_GROUP
350
D
  3
ACAD_IMAGE_DICT
350
C5
  3
ACAD_IMAGE_VARS
350
C9
  3
ACAD_LAYOUT
350
5A
  3
ACAD_MATERIAL
350
10
  3
ACAD_MLEADERSTYLE
350
5E
  3
ACAD_MLINESTYLE
350
57
  3
ACAD_PLOTSETTINGS
350
59
  3
ACAD_PLOTSTYLENAME
350
E
  3
ACAD_SCALELIST
350
3A
  3
ACAD_TABLESTYLE
350
5C
  3
ACAD_VISUALSTYLE
350
29
  3
ACDB_RECOMPOSE_DATA
350
238B
  3
AcDbVariableDictionary
350
237D
  3
ASE_INDEX_DICTIONARY
350
23B0
  3
DWGPROPS
350
2CAB
  0
DICTIONARY
  5
2856
330
2
100
AcDbDictionary
280
     1
281
     1
  3
ACAD_LAYERSTATES
360
2857
  0
DICTIONARY
  5
29DA
330
29D9
100
AcDbDictionary
280
     1
281
     1
  0
IMAGEDEF_REACTOR
  5
C8
330
C7
100
AcDbRasterImageDefReactor
 90
        2
330
C7
  0
DICTIONARY
  5
26C0
330
26B3
100
AcDbDictionary
280
     1
281
     1
  3
ACAD_DIMASSOC
360
26CA
  0
DICTIONARY
  5
2786
330
2779
100
AcDbDictionary
280
     1
281
     1
  3
ACAD_DIMASSOC
360
2790
  0
DICTIONARY
  5
28B8
330
28AB
100
AcDbDictionary
280
     1
281
     1
  3
ACAD_DIMASSOC
360
28C2
  0
DICTIONARY
  5
2BC3
330
2BB6
100
AcDbDictionary
280
     1
281
     1
  3
ACAD_DIMASSOC
360
2BCD
  0
DICTIONARY
  5
2CAC
102
{ACAD_REACTORS
330
C
102
}
330
C
100
AcDbDictionary
281
     1
  3
DIMJOGANG
350
2CAD
  0
DICTIONARY
  5
5B
102
{ACAD_REACTORS
330
C
102
}
330
C
100
AcDbDictionary
281
     1
  0
DICTIONARY
  5
D
102
{ACAD_REACTORS
330
C
102
}
330
C
100
AcDbDictionary
281
     1
  0
DICTIONARY
  5
C5
102
{ACAD_REACTORS
330
C
102
}
330
C
100
AcDbDictionary
281
     1
  3
KWGLOGO
350
C6
  0
RASTERVARIABLES
  5
C9
102
{ACAD_REACTORS
330
C
102
}
330
C
100
AcDbRasterVariables
 90
        0
 70
     1
 71
     1
 72
     1
  0
DICTIONARY
  5
5A
102
{ACAD_REACTORS
330
C
102
}
330
C
100
AcDbDictionary
281
     1
  3
Model
350
68
  3
レイアウト1
350
64
  3
レイアウト2
350
6C
  0
DICTIONARY
  5
10
102
{ACAD_REACTORS
330
C
102
}
330
C
100
AcDbDictionary
281
     1
  3
ByBlock
350
19
  3
ByLayer
350
11
  3
Global
350
21
  0
DICTIONARY
  5
5E
102
{ACAD_REACTORS
330
C
102
}
330
C
100
AcDbDictionary
281
     1
  3
Standard
350
5F
  0
DICTIONARY
  5
57
102
{ACAD_REACTORS
330
C
102
}
330
C
100
AcDbDictionary
281
     1
  3
Standard
350
58
  0
DICTIONARY
  5
59
102
{ACAD_REACTORS
330
C
102
}
330
C
100
AcDbDictionary
281
     1
  0
ACDBDICTIONARYWDFLT
  5
E
102
{ACAD_REACTORS
330
C
102
}
330
C
100
AcDbDictionary
281
     1
  3
Normal
350
F
100
AcDbDictionaryWithDefault
340
F
  0
DICTIONARY
  5
3A
102
{ACAD_REACTORS
330
C
102
}
330
C
100
AcDbDictionary
281
     1
  3
A0
350
3B
  3
A1
350
3C
  3
A2
350
3D
  3
A3
350
3E
  3
A4
350
3F
  3
A5
350
40
  3
A6
350
41
  3
A7
350
42
  3
A8
350
43
  3
A9
350
44
  3
B0
350
45
  3
B1
350
46
  3
B2
350
47
  3
B3
350
48
  3
B4
350
49
  3
B5
350
4A
  3
B6
350
4B
  0
DICTIONARY
  5
5C
102
{ACAD_REACTORS
330
C
102
}
330
C
100
AcDbDictionary
281
     1
  3
Standard
350
5D
  0
DICTIONARY
  5
29
102
{ACAD_REACTORS
330
C
102
}
330
C
100
AcDbDictionary
281
     1
  3
2dWireframe
350
2F
  3
3D Hidden
350
31
  3
3dWireframe
350
30
  3
Basic
350
2E
  3
Brighten
350
35
  3
ColorChange
350
39
  3
Conceptual
350
32
  3
Dim
350
34
  3
Facepattern
350
38
  3
Flat
350
2A
  3
FlatWithEdges
350
2B
  3
Gouraud
350
2C
  3
GouraudWithEdges
350
2D
  3
Linepattern
350
37
  3
Realistic
350
33
  3
Thicken
350
36
  0
XRECORD
  5
238B
102
{ACAD_REACTORS
330
C
102
}
330
C
100
AcDbXrecord
280
     1
 90
        1
330
5D
  0
DICTIONARY
  5
237D
102
{ACAD_REACTORS
330
C
102
}
330
C
100
AcDbDictionary
281
     1
  3
CANNOSCALE
350
2381
  3
CMLEADERSTYLE
350
237F
  3
CTABLESTYLE
350
237E
  3
DIMASSOC
350
2388
  3
HIDETEXT
350
2387
  3
INDEXCTL
350
2386
  3
LAYEREVAL
350
2383
  3
LAYERNOTIFY
350
2384
  3
LIGHTINGUNITS
350
2382
  3
MSLTSCALE
350
2380
  3
SORTENTS
350
2385
  0
DICTIONARY
  5
23B0
102
{ACAD_REACTORS
330
C
102
}
330
C
100
AcDbDictionary
281
     1
  3
ASEBlockHierarchyIndexRecord
350
23B2
1001
DCO15
1040
1837846794.228
  0
XRECORD
  5
2CAB
102
{ACAD_REACTORS
330
C
102
}
330
C
100
AcDbXrecord
280
     1
  1
DWGPROPS COOKIE
  2

  3

  4

  6

  7

  8
PCuser
  9

300
=
301
=
302
=
303
=
304
=
305
=
306
=
307
=
308
=
309
=
 40
0.1233377314814815
 41
2457029.721060139
 42
2457082.575627732
  1

 90
        0
  0
DICTIONARY
  5
2857
102
{ACAD_REACTORS
330
2856
102
}
330
2856
100
AcDbDictionary
281
     1
  0
DIMASSOC
  5
26CA
102
{ACAD_REACTORS
330
26C0
102
}
330
26C0
100
AcDbDimAssoc
330
26B3
 90
        3
 70
     0
 71
     0
  1
AcDbOsnapPointRef
 72
    13
331
24E9
 73
     2
 91
        0
 40
0.0
 10
0.0
 20
0.0
 30
2.000000000000000E+50
 75
     0
  1
AcDbOsnapPointRef
 72
     8
331
2501
 73
     2
 91
        0
 40
0.9930486593843099
 10
0.0
 20
0.0
 30
0.0
 75
     1
  1
AcDbOsnapPointRef
 72
    13
331
24E9
 73
     2
 91
        0
 40
0.0
 10
0.0
 20
0.0
 30
2.000000000000000E+50
 75
     0
  0
DIMASSOC
  5
2790
102
{ACAD_REACTORS
330
2786
102
}
330
2786
100
AcDbDimAssoc
330
2779
 90
        1
 70
     0
 71
     0
  1
AcDbOsnapPointRef
 72
    13
331
24E8
 73
     2
 91
        0
 40
0.0
 10
0.0
 20
0.0
 30
2.000000000000000E+50
 75
     0
  0
DIMASSOC
  5
28C2
102
{ACAD_REACTORS
330
28B8
102
}
330
28B8
100
AcDbDimAssoc
330
28AB
 90
        2
 70
     0
 71
     0
  1
AcDbOsnapPointRef
 72
     1
331
24DD
 73
     2
 91
        0
 40
1.0
 10
0.0
 20
0.0
 30
2.000000000000000E+50
 75
     0
  0
DIMASSOC
  5
2BCD
102
{ACAD_REACTORS
330
2BC3
102
}
330
2BC3
100
AcDbDimAssoc
330
2BB6
 90
        3
 70
     0
 71
     0
  1
AcDbOsnapPointRef
 72
    13
331
252D
 73
     2
 91
        0
 40
0.0
 10
0.0
 20
0.0
 30
2.000000000000000E+50
 75
     0
  1
AcDbOsnapPointRef
 72
    13
331
252A
 73
     2
 91
        0
 40
0.0
 10
0.0
 20
0.0
 30
2.000000000000000E+50
 75
     0
  0
XRECORD
  5
2CAD
102
{ACAD_REACTORS
330
2CAC
102
}
330
2CAC
100
AcDbXrecord
280
     1
 40
1.570796326794896
  0
IMAGEDEF
  5
C6
102
{ACAD_REACTORS
330
C5
330
C8
102
}
330
C5
100
AcDbRasterImageDef
 90
        0
  1
E:\logo\kwglogo.gif
 10
1000.0
 20
989.0
 11
0.001
 21
0.001
280
     1
281
     0
  0
LAYOUT
  5
68
102
{ACAD_XDICTIONARY
360
2CB1
102
}
102
{ACAD_REACTORS
330
5A
102
}
330
5A
100
AcDbPlotSettings
  1

  2
LBP3970
  4
A4
  6

 40
5.873749732971191
 41
5.873747825622557
 42
5.873748779296875
 43
5.873748779296875
 44
209.9733276367186
 45
296.9259948730469
 46
0.0
 47
0.0
 48
0.0
 49
0.0
140
0.0
141
0.0
142
1.0
143
15.78396912790973
 70
 11952
 72
     1
 73
     1
 74
     0
  7
monochrome.ctb
 75
     0
147
0.0633554204203154
148
652.7655747704675
149
308.0635983804841
100
AcDbLayout
  1
Model
 70
     1
 71
     0
 10
0.0
 20
0.0
 11
12.0
 21
9.0
 12
0.0
 22
0.0
 32
0.0
 14
0.0
 24
0.0
 34
0.0
 15
0.0
 25
0.0
 35
0.0
146
0.0
 13
0.0
 23
0.0
 33
0.0
 16
1.0
 26
0.0
 36
0.0
 17
0.0
 27
1.0
 37
0.0
 76
     0
330
65
331
4F
1001
ACAD_PSEXT
1000
LBP3970
1000
Canon LBP3920/3970 LIPSLX
1000
IP_192.168.2.220
1000

1070
     0
  0
LAYOUT
  5
64
102
{ACAD_XDICTIONARY
360
2CAF
102
}
102
{ACAD_REACTORS
330
5A
102
}
330
5A
100
AcDbPlotSettings
  1

  2
LBP3970
  4

  6

 40
0.0
 41
0.0
 42
0.0
 43
0.0
 44
0.0
 45
0.0
 46
0.0
 47
0.0
 48
0.0
 49
0.0
140
0.0
141
0.0
142
1.0
143
1.0
 70
   688
 72
     0
 73
     0
 74
     5
  7
monochrome.ctb
 75
    16
147
1.0
148
0.0
149
0.0
100
AcDbLayout
  1
レイアウト1
 70
     1
 71
     1
 10
0.0
 20
0.0
 11
420.0
 21
297.0
 12
0.0
 22
0.0
 32
0.0
 14
1.000000000000000E+20
 24
1.000000000000000E+20
 34
1.000000000000000E+20
 15
-1.000000000000000E+20
 25
-1.000000000000000E+20
 35
-1.000000000000000E+20
146
0.0
 13
0.0
 23
0.0
 33
0.0
 16
1.0
 26
0.0
 36
0.0
 17
0.0
 27
1.0
 37
0.0
 76
     0
330
61
  0
LAYOUT
  5
6C
102
{ACAD_XDICTIONARY
360
2CB3
102
}
102
{ACAD_REACTORS
330
5A
102
}
330
5A
100
AcDbPlotSettings
  1

  2
LBP3970
  4

  6

 40
0.0
 41
0.0
 42
0.0
 43
0.0
 44
0.0
 45
0.0
 46
0.0
 47
0.0
 48
0.0
 49
0.0
140
0.0
141
0.0
142
1.0
143
1.0
 70
   688
 72
     0
 73
     0
 74
     5
  7
monochrome.ctb
 75
    16
147
1.0
148
0.0
149
0.0
100
AcDbLayout
  1
レイアウト2
 70
     1
 71
     2
 10
0.0
 20
0.0
 11
12.0
 21
9.0
 12
0.0
 22
0.0
 32
0.0
 14
0.0
 24
0.0
 34
0.0
 15
0.0
 25
0.0
 35
0.0
146
0.0
 13
0.0
 23
0.0
 33
0.0
 16
1.0
 26
0.0
 36
0.0
 17
0.0
 27
1.0
 37
0.0
 76
     0
330
69
  0
MATERIAL
  5
19
102
{ACAD_XDICTIONARY
360
1A
102
}
102
{ACAD_REACTORS
330
10
102
}
330
10
100
AcDbMaterial
  1
ByBlock
 72
     0
 43
0.0208333333333333
 43
0.0
 43
0.0
 43
0.0
 43
0.0
 43
0.0208333333333333
 43
0.0
 43
0.0
 43
0.0
 43
0.0
 43
1.0
 43
0.0
 43
0.0
 43
0.0
 43
0.0
 43
1.0
 77
     0
 47
0.0208333333333333
 47
0.0
 47
0.0
 47
0.0
 47
0.0
 47
0.0208333333333333
 47
0.0
 47
0.0
 47
0.0
 47
0.0
 47
1.0
 47
0.0
 47
0.0
 47
0.0
 47
0.0
 47
1.0
171
     0
 49
0.0208333333333333
 49
0.0
 49
0.0
 49
0.0
 49
0.0
 49
0.0208333333333333
 49
0.0
 49
0.0
 49
0.0
 49
0.0
 49
1.0
 49
0.0
 49
0.0
 49
0.0
 49
0.0
 49
1.0
175
     0
142
0.0208333333333333
142
0.0
142
0.0
142
0.0
142
0.0
142
0.0208333333333333
142
0.0
142
0.0
142
0.0
142
0.0
142
1.0
142
0.0
142
0.0
142
0.0
142
0.0
142
1.0
179
     0
144
0.0208333333333333
144
0.0
144
0.0
144
0.0
144
0.0
144
0.0208333333333333
144
0.0
144
0.0
144
0.0
144
0.0
144
1.0
144
0.0
144
0.0
144
0.0
144
0.0
144
1.0
147
0.0208333333333333
147
0.0
147
0.0
147
0.0
147
0.0
147
0.0208333333333333
147
0.0
147
0.0
147
0.0
147
0.0
147
1.0
147
0.0
147
0.0
147
0.0
147
0.0
147
1.0
  0
MATERIAL
  5
11
102
{ACAD_XDICTIONARY
360
12
102
}
102
{ACAD_REACTORS
330
10
102
}
330
10
100
AcDbMaterial
  1
ByLayer
 72
     0
 43
0.0208333333333333
 43
0.0
 43
0.0
 43
0.0
 43
0.0
 43
0.0208333333333333
 43
0.0
 43
0.0
 43
0.0
 43
0.0
 43
1.0
 43
0.0
 43
0.0
 43
0.0
 43
0.0
 43
1.0
 77
     0
 47
0.0208333333333333
 47
0.0
 47
0.0
 47
0.0
 47
0.0
 47
0.0208333333333333
 47
0.0
 47
0.0
 47
0.0
 47
0.0
 47
1.0
 47
0.0
 47
0.0
 47
0.0
 47
0.0
 47
1.0
171
     0
 49
0.0208333333333333
 49
0.0
 49
0.0
 49
0.0
 49
0.0
 49
0.0208333333333333
 49
0.0
 49
0.0
 49
0.0
 49
0.0
 49
1.0
 49
0.0
 49
0.0
 49
0.0
 49
0.0
 49
1.0
175
     0
142
0.0208333333333333
142
0.0
142
0.0
142
0.0
142
0.0
142
0.0208333333333333
142
0.0
142
0.0
142
0.0
142
0.0
142
1.0
142
0.0
142
0.0
142
0.0
142
0.0
142
1.0
179
     0
144
0.0208333333333333
144
0.0
144
0.0
144
0.0
144
0.0
144
0.0208333333333333
144
0.0
144
0.0
144
0.0
144
0.0
144
1.0
144
0.0
144
0.0
144
0.0
144
0.0
144
1.0
147
0.0208333333333333
147
0.0
147
0.0
147
0.0
147
0.0
147
0.0208333333333333
147
0.0
147
0.0
147
0.0
147
0.0
147
1.0
147
0.0
147
0.0
147
0.0
147
0.0
147
1.0
  0
MATERIAL
  5
21
102
{ACAD_XDICTIONARY
360
22
102
}
102
{ACAD_REACTORS
330
10
102
}
330
10
100
AcDbMaterial
  1
Global
 72
     0
 43
0.0208333333333333
 43
0.0
 43
0.0
 43
0.0
 43
0.0
 43
0.0208333333333333
 43
0.0
 43
0.0
 43
0.0
 43
0.0
 43
1.0
 43
0.0
 43
0.0
 43
0.0
 43
0.0
 43
1.0
 77
     0
 47
0.0208333333333333
 47
0.0
 47
0.0
 47
0.0
 47
0.0
 47
0.0208333333333333
 47
0.0
 47
0.0
 47
0.0
 47
0.0
 47
1.0
 47
0.0
 47
0.0
 47
0.0
 47
0.0
 47
1.0
171
     0
 49
0.0208333333333333
 49
0.0
 49
0.0
 49
0.0
 49
0.0
 49
0.0208333333333333
 49
0.0
 49
0.0
 49
0.0
 49
0.0
 49
1.0
 49
0.0
 49
0.0
 49
0.0
 49
0.0
 49
1.0
175
     0
142
0.0208333333333333
142
0.0
142
0.0
142
0.0
142
0.0
142
0.0208333333333333
142
0.0
142
0.0
142
0.0
142
0.0
142
1.0
142
0.0
142
0.0
142
0.0
142
0.0
142
1.0
179
     0
144
0.0208333333333333
144
0.0
144
0.0
144
0.0
144
0.0
144
0.0208333333333333
144
0.0
144
0.0
144
0.0
144
0.0
144
1.0
144
0.0
144
0.0
144
0.0
144
0.0
144
1.0
147
0.0208333333333333
147
0.0
147
0.0
147
0.0
147
0.0
147
0.0208333333333333
147
0.0
147
0.0
147
0.0
147
0.0
147
1.0
147
0.0
147
0.0
147
0.0
147
0.0
147
1.0
  0
MLEADERSTYLE
  5
5F
102
{ACAD_REACTORS
330
5E
102
}
330
5E
100
AcDbMLeaderStyle
170
     2
171
     1
172
     0
 90
        2
 40
0.0
 41
0.0
173
     1
 91
-1056964608
340
53
 92
       -2
290
     1
 42
0.09
291
     1
 43
0.36
  3
Standard
 44
0.18
300

342
4D
174
     1
178
     6
175
     1
176
     0
 93
-1056964608
 45
0.18
292
     0
297
     0
 46
0.18
 94
-1056964608
 47
1.0
 49
1.0
140
1.0
293
     1
141
0.0
294
     1
177
     0
142
1.0
295
     0
296
     0
143
0.125
1001
ACAD_MLEADERVER
1070
     2
  0
MLINESTYLE
  5
58
102
{ACAD_REACTORS
330
57
102
}
330
57
100
AcDbMlineStyle
  2
STANDARD
 70
     0
  3

 62
   256
 51
90.0
 52
90.0
 71
     2
 49
0.5
 62
   256
  6
BYLAYER
 49
-0.5
 62
   256
  6
BYLAYER
  0
ACDBPLACEHOLDER
  5
F
102
{ACAD_REACTORS
330
E
102
}
330
E
  0
SCALE
  5
3B
102
{ACAD_REACTORS
330
3A
102
}
330
3A
100
AcDbScale
 70
     0
300
1:1
140
1.0
141
1.0
290
     1
  0
SCALE
  5
3C
102
{ACAD_REACTORS
330
3A
102
}
330
3A
100
AcDbScale
 70
     0
300
1:2
140
1.0
141
2.0
290
     0
  0
SCALE
  5
3D
102
{ACAD_REACTORS
330
3A
102
}
330
3A
100
AcDbScale
 70
     0
300
1:4
140
1.0
141
4.0
290
     0
  0
SCALE
  5
3E
102
{ACAD_REACTORS
330
3A
102
}
330
3A
100
AcDbScale
 70
     0
300
1:5
140
1.0
141
5.0
290
     0
  0
SCALE
  5
3F
102
{ACAD_REACTORS
330
3A
102
}
330
3A
100
AcDbScale
 70
     0
300
1:8
140
1.0
141
8.0
290
     0
  0
SCALE
  5
40
102
{ACAD_REACTORS
330
3A
102
}
330
3A
100
AcDbScale
 70
     0
300
1:10
140
1.0
141
10.0
290
     0
  0
SCALE
  5
41
102
{ACAD_REACTORS
330
3A
102
}
330
3A
100
AcDbScale
 70
     0
300
1:16
140
1.0
141
16.0
290
     0
  0
SCALE
  5
42
102
{ACAD_REACTORS
330
3A
102
}
330
3A
100
AcDbScale
 70
     0
300
1:20
140
1.0
141
20.0
290
     0
  0
SCALE
  5
43
102
{ACAD_REACTORS
330
3A
102
}
330
3A
100
AcDbScale
 70
     0
300
1:30
140
1.0
141
30.0
290
     0
  0
SCALE
  5
44
102
{ACAD_REACTORS
330
3A
102
}
330
3A
100
AcDbScale
 70
     0
300
1:40
140
1.0
141
40.0
290
     0
  0
SCALE
  5
45
102
{ACAD_REACTORS
330
3A
102
}
330
3A
100
AcDbScale
 70
     0
300
1:50
140
1.0
141
50.0
290
     0
  0
SCALE
  5
46
102
{ACAD_REACTORS
330
3A
102
}
330
3A
100
AcDbScale
 70
     0
300
1:100
140
1.0
141
100.0
290
     0
  0
SCALE
  5
47
102
{ACAD_REACTORS
330
3A
102
}
330
3A
100
AcDbScale
 70
     0
300
2:1
140
2.0
141
1.0
290
     0
  0
SCALE
  5
48
102
{ACAD_REACTORS
330
3A
102
}
330
3A
100
AcDbScale
 70
     0
300
4:1
140
4.0
141
1.0
290
     0
  0
SCALE
  5
49
102
{ACAD_REACTORS
330
3A
102
}
330
3A
100
AcDbScale
 70
     0
300
8:1
140
8.0
141
1.0
290
     0
  0
SCALE
  5
4A
102
{ACAD_REACTORS
330
3A
102
}
330
3A
100
AcDbScale
 70
     0
300
10:1
140
10.0
141
1.0
290
     0
  0
SCALE
  5
4B
102
{ACAD_REACTORS
330
3A
102
}
330
3A
100
AcDbScale
 70
     0
300
100:1
140
100.0
141
1.0
290
     0
  0
TABLESTYLE
  5
5D
102
{ACAD_XDICTIONARY
360
2389
102
}
102
{ACAD_REACTORS
330
5C
102
}
330
5C
100
AcDbTableStyle
  3
Standard
 70
     0
 71
     0
 40
1.5
 41
1.5
280
     0
281
     0
  7
Standard
140
4.5
170
     2
 62
     0
 63
     7
283
     0
274
    -2
284
     1
 64
     0
275
    -2
285
     1
 65
     0
276
    -2
286
     1
 66
     0
277
    -2
287
     1
 67
     0
278
    -2
288
     1
 68
     0
279
    -2
289
     1
 69
     0
  7
Standard
140
6.0
170
     5
 62
     0
 63
     7
283
     0
274
    -2
284
     1
 64
     0
275
    -2
285
     1
 65
     0
276
    -2
286
     1
 66
     0
277
    -2
287
     1
 67
     0
278
    -2
288
     1
 68
     0
279
    -2
289
     1
 69
     0
  7
Standard
140
4.5
170
     5
 62
     0
 63
     7
283
     0
274
    -2
284
     1
 64
     0
275
    -2
285
     1
 65
     0
276
    -2
286
     1
 66
     0
277
    -2
287
     1
 67
     0
278
    -2
288
     1
 68
     0
279
    -2
289
     1
 69
     0
  0
VISUALSTYLE
  5
2F
102
{ACAD_REACTORS
330
29
102
}
330
29
100
AcDbVisualStyle
  2
2dWireframe
 70
     4
 71
     0
 72
     2
 73
     0
 90
        0
 40
-0.6
 41
-30.0
 62
     5
 63
     7
 74
     1
 91
        4
 64
     7
 65
   257
 75
     1
175
     1
 42
1.0
 92
        0
 66
   257
 43
1.0
 76
     1
 77
     6
 78
     2
 67
     7
 79
     5
170
     0
171
     0
290
     0
174
     0
 93
        1
 44
0.0
173
     0
291
     0
 45
0.0
1001
ACAD
1000
AcDbSavedByObjectVersion
1070
     0
1000
AcDbSavedByObjectVersion
1070
     0
1000
AcDbSavedByObjectVersion
1070
     0
1000
AcDbSavedByObjectVersion
1070
     0
1000
AcDbSavedByObjectVersion
1070
     0
1000
AcDbSavedByObjectVersion
1070
     0
  0
VISUALSTYLE
  5
31
102
{ACAD_REACTORS
330
29
102
}
330
29
100
AcDbVisualStyle
  2
3D Hidden
 70
     6
 71
     1
 72
     2
 73
     2
 90
        0
 40
-0.6
 41
-30.0
 62
     5
 63
     7
 74
     2
 91
        2
 64
     7
 65
   257
 75
     2
175
     1
 42
40.0
 92
        0
 66
   257
 43
1.0
 76
     1
 77
     6
 78
     2
 67
     7
 79
     3
170
     0
171
     0
290
     0
174
     0
 93
        1
 44
0.0
173
     0
291
     0
 45
0.0
1001
ACAD
1000
AcDbSavedByObjectVersion
1070
     0
1000
AcDbSavedByObjectVersion
1070
     0
1000
AcDbSavedByObjectVersion
1070
     0
1000
AcDbSavedByObjectVersion
1070
     0
1000
AcDbSavedByObjectVersion
1070
     0
1000
AcDbSavedByObjectVersion
1070
     0
  0
VISUALSTYLE
  5
30
102
{ACAD_REACTORS
330
29
102
}
330
29
100
AcDbVisualStyle
  2
3dWireframe
 70
     5
 71
     0
 72
     2
 73
     0
 90
        0
 40
-0.6
 41
-30.0
 62
     5
 63
     7
 74
     1
 91
        4
 64
     7
 65
   257
 75
     1
175
     1
 42
1.0
 92
        0
 66
   257
 43
1.0
 76
     1
 77
     6
 78
     2
 67
     7
 79
     5
170
     0
171
     0
290
     0
174
     0
 93
        1
 44
0.0
173
     0
291
     0
 45
0.0
1001
ACAD
1000
AcDbSavedByObjectVersion
1070
     0
1000
AcDbSavedByObjectVersion
1070
     0
1000
AcDbSavedByObjectVersion
1070
     0
1000
AcDbSavedByObjectVersion
1070
     0
1000
AcDbSavedByObjectVersion
1070
     0
1000
AcDbSavedByObjectVersion
1070
     0
  0
VISUALSTYLE
  5
2E
102
{ACAD_REACTORS
330
29
102
}
330
29
100
AcDbVisualStyle
  2
Basic
 70
     7
 71
     1
 72
     0
 73
     1
 90
        0
 40
-0.6
 41
-30.0
 62
     5
 63
     7
 74
     0
 91
        4
 64
     7
 65
   257
 75
     1
175
     1
 42
1.0
 92
        8
 66
     7
 43
1.0
 76
     1
 77
     6
 78
     2
 67
     7
 79
     5
170
     0
171
     0
290
     0
174
     0
 93
        1
 44
0.0
173
     0
291
     1
 45
0.0
1001
ACAD
1000
AcDbSavedByObjectVersion
1070
     0
1000
AcDbSavedByObjectVersion
1070
     0
1000
AcDbSavedByObjectVersion
1070
     0
1000
AcDbSavedByObjectVersion
1070
     0
1000
AcDbSavedByObjectVersion
1070
     0
1000
AcDbSavedByObjectVersion
1070
     0
  0
VISUALSTYLE
  5
35
102
{ACAD_REACTORS
330
29
102
}
330
29
100
AcDbVisualStyle
  2
Brighten
 70
    12
 71
     2
 72
     2
 73
     0
 90
        0
 40
-0.6
 41
-30.0
 62
     5
 63
     7
 74
     1
 91
        4
 64
     7
 65
   257
 75
     1
175
     1
 42
1.0
 92
        8
 66
     7
 43
1.0
 76
     1
 77
     6
 78
     2
 67
     7
 79
     5
170
     0
171
     0
290
     0
174
     0
 93
        1
 44
50.0
173
     0
291
     1
 45
0.0
1001
ACAD
1000
AcDbSavedByObjectVersion
1070
     0
1000
AcDbSavedByObjectVersion
1070
     0
1000
AcDbSavedByObjectVersion
1070
     0
1000
AcDbSavedByObjectVersion
1070
     0
1000
AcDbSavedByObjectVersion
1070
     0
1000
AcDbSavedByObjectVersion
1070
     0
  0
VISUALSTYLE
  5
39
102
{ACAD_REACTORS
330
29
102
}
330
29
100
AcDbVisualStyle
  2
ColorChange
 70
    16
 71
     2
 72
     2
 73
     3
 90
        0
 40
-0.6
 41
-30.0
 62
     5
 63
     8
 74
     1
 91
        4
 64
     7
 65
   257
 75
     1
175
     1
 42
1.0
 92
        8
 66
     8
 43
1.0
 76
     1
 77
     6
 78
     2
 67
     7
 79
     5
170
     0
171
     0
290
     0
174
     0
 93
        1
 44
0.0
173
     0
291
     1
 45
0.0
1001
ACAD
1000
AcDbSavedByObjectVersion
1070
     0
1000
AcDbSavedByObjectVersion
1070
     0
1000
AcDbSavedByObjectVersion
1070
     0
1000
AcDbSavedByObjectVersion
1070
     0
1000
AcDbSavedByObjectVersion
1070
     0
1000
AcDbSavedByObjectVersion
1070
     0
  0
VISUALSTYLE
  5
32
102
{ACAD_REACTORS
330
29
102
}
330
29
100
AcDbVisualStyle
  2
Conceptual
 70
     9
 71
     3
 72
     2
 73
     0
 90
        0
 40
-0.6
 41
-30.0
 62
     5
 63
     7
 74
     2
 91
        2
 64
     7
 65
   257
 75
     1
175
     1
 42
40.0
 92
        8
 66
     7
 43
1.0
 76
     1
 77
     6
 78
     2
 67
     7
 79
     3
170
     0
171
     0
290
     0
174
     0
 93
        1
 44
0.0
173
     0
291
     0
 45
0.0
1001
ACAD
1000
AcDbSavedByObjectVersion
1070
     0
1000
AcDbSavedByObjectVersion
1070
     0
1000
AcDbSavedByObjectVersion
1070
     0
1000
AcDbSavedByObjectVersion
1070
     0
1000
AcDbSavedByObjectVersion
1070
     0
1000
AcDbSavedByObjectVersion
1070
     0
  0
VISUALSTYLE
  5
34
102
{ACAD_REACTORS
330
29
102
}
330
29
100
AcDbVisualStyle
  2
Dim
 70
    11
 71
     2
 72
     2
 73
     0
 90
        0
 40
-0.6
 41
-30.0
 62
     5
 63
     7
 74
     1
 91
        4
 64
     7
 65
   257
 75
     1
175
     1
 42
1.0
 92
        8
 66
     7
 43
1.0
 76
     1
 77
     6
 78
     2
 67
     7
 79
     5
170
     0
171
     0
290
     0
174
     0
 93
        1
 44
-50.0
173
     0
291
     1
 45
0.0
1001
ACAD
1000
AcDbSavedByObjectVersion
1070
     0
1000
AcDbSavedByObjectVersion
1070
     0
1000
AcDbSavedByObjectVersion
1070
     0
1000
AcDbSavedByObjectVersion
1070
     0
1000
AcDbSavedByObjectVersion
1070
     0
1000
AcDbSavedByObjectVersion
1070
     0
  0
VISUALSTYLE
  5
38
102
{ACAD_REACTORS
330
29
102
}
330
29
100
AcDbVisualStyle
  2
Facepattern
 70
    15
 71
     2
 72
     2
 73
     0
 90
        0
 40
-0.6
 41
-30.0
 62
     5
 63
     7
 74
     1
 91
        4
 64
     7
 65
   257
 75
     1
175
     1
 42
1.0
 92
        8
 66
     7
 43
1.0
 76
     1
 77
     6
 78
     2
 67
     7
 79
     5
170
     0
171
     0
290
     0
174
     0
 93
        1
 44
0.0
173
     0
291
     1
 45
0.0
1001
ACAD
1000
AcDbSavedByObjectVersion
1070
     0
1000
AcDbSavedByObjectVersion
1070
     0
1000
AcDbSavedByObjectVersion
1070
     0
1000
AcDbSavedByObjectVersion
1070
     0
1000
AcDbSavedByObjectVersion
1070
     0
1000
AcDbSavedByObjectVersion
1070
     0
  0
VISUALSTYLE
  5
2A
102
{ACAD_REACTORS
330
29
102
}
330
29
100
AcDbVisualStyle
  2
Flat
 70
     0
 71
     2
 72
     1
 73
     1
 90
        2
 40
-0.6
 41
30.0
 62
     5
 63
     7
 74
     0
 91
        4
 64
     7
 65
   257
 75
     1
175
     1
 42
1.0
 92
        8
 66
     7
 43
1.0
 76
     1
 77
     6
 78
     2
 67
     7
 79
     5
170
     0
171
     0
290
     0
174
     0
 93
       13
 44
0.0
173
     0
291
     1
 45
0.0
1001
ACAD
1000
AcDbSavedByObjectVersion
1070
     0
1000
AcDbSavedByObjectVersion
1070
     0
1000
AcDbSavedByObjectVersion
1070
     0
1000
AcDbSavedByObjectVersion
1070
     0
1000
AcDbSavedByObjectVersion
1070
     0
1000
AcDbSavedByObjectVersion
1070
     0
  0
VISUALSTYLE
  5
2B
102
{ACAD_REACTORS
330
29
102
}
330
29
100
AcDbVisualStyle
  2
FlatWithEdges
 70
     1
 71
     2
 72
     1
 73
     1
 90
        2
 40
-0.6
 41
30.0
 62
     5
 63
     7
 74
     1
 91
        4
 64
     7
 65
   257
 75
     1
175
     1
 42
1.0
 92
        0
 66
   257
 43
1.0
 76
     1
 77
     6
 78
     2
 67
     7
 79
     5
170
     0
171
     0
290
     0
174
     0
 93
       13
 44
0.0
173
     0
291
     1
 45
0.0
1001
ACAD
1000
AcDbSavedByObjectVersion
1070
     0
1000
AcDbSavedByObjectVersion
1070
     0
1000
AcDbSavedByObjectVersion
1070
     0
1000
AcDbSavedByObjectVersion
1070
     0
1000
AcDbSavedByObjectVersion
1070
     0
1000
AcDbSavedByObjectVersion
1070
     0
  0
VISUALSTYLE
  5
2C
102
{ACAD_REACTORS
330
29
102
}
330
29
100
AcDbVisualStyle
  2
Gouraud
 70
     2
 71
     2
 72
     2
 73
     1
 90
        2
 40
-0.6
 41
30.0
 62
     5
 63
     7
 74
     0
 91
        4
 64
     7
 65
   257
 75
     1
175
     1
 42
1.0
 92
        0
 66
     7
 43
1.0
 76
     1
 77
     6
 78
     2
 67
     7
 79
     5
170
     0
171
     0
290
     0
174
     0
 93
       13
 44
0.0
173
     0
291
     1
 45
0.0
1001
ACAD
1000
AcDbSavedByObjectVersion
1070
     0
1000
AcDbSavedByObjectVersion
1070
     0
1000
AcDbSavedByObjectVersion
1070
     0
1000
AcDbSavedByObjectVersion
1070
     0
1000
AcDbSavedByObjectVersion
1070
     0
1000
AcDbSavedByObjectVersion
1070
     0
  0
VISUALSTYLE
  5
2D
102
{ACAD_REACTORS
330
29
102
}
330
29
100
AcDbVisualStyle
  2
GouraudWithEdges
 70
     3
 71
     2
 72
     2
 73
     1
 90
        2
 40
-0.6
 41
30.0
 62
     5
 63
     7
 74
     1
 91
        4
 64
     7
 65
   257
 75
     1
175
     1
 42
1.0
 92
        0
 66
   257
 43
1.0
 76
     1
 77
     6
 78
     2
 67
     7
 79
     5
170
     0
171
     0
290
     0
174
     0
 93
       13
 44
0.0
173
     0
291
     1
 45
0.0
1001
ACAD
1000
AcDbSavedByObjectVersion
1070
     0
1000
AcDbSavedByObjectVersion
1070
     0
1000
AcDbSavedByObjectVersion
1070
     0
1000
AcDbSavedByObjectVersion
1070
     0
1000
AcDbSavedByObjectVersion
1070
     0
1000
AcDbSavedByObjectVersion
1070
     0
  0
VISUALSTYLE
  5
37
102
{ACAD_REACTORS
330
29
102
}
330
29
100
AcDbVisualStyle
  2
Linepattern
 70
    14
 71
     2
 72
     2
 73
     0
 90
        0
 40
-0.6
 41
-30.0
 62
     5
 63
     7
 74
     1
 91
        4
 64
     7
 65
   257
 75
     7
175
     7
 42
1.0
 92
        8
 66
     7
 43
1.0
 76
     1
 77
     6
 78
     2
 67
     7
 79
     5
170
     0
171
     0
290
     0
174
     0
 93
        1
 44
0.0
173
     0
291
     1
 45
0.0
1001
ACAD
1000
AcDbSavedByObjectVersion
1070
     0
1000
AcDbSavedByObjectVersion
1070
     0
1000
AcDbSavedByObjectVersion
1070
     0
1000
AcDbSavedByObjectVersion
1070
     0
1000
AcDbSavedByObjectVersion
1070
     0
1000
AcDbSavedByObjectVersion
1070
     0
  0
VISUALSTYLE
  5
33
102
{ACAD_REACTORS
330
29
102
}
330
29
100
AcDbVisualStyle
  2
Realistic
 70
     8
 71
     2
 72
     2
 73
     0
 90
        0
 40
-0.6
 41
-30.0
 62
     5
 63
     7
 74
     1
 91
        0
 64
     7
 65
   257
 75
     1
175
     1
 42
1.0
 92
        8
 66
     8
 43
1.0
 76
     1
 77
     6
 78
     2
 67
     7
 79
     5
170
     0
171
     0
290
     0
174
     0
 93
       13
 44
0.0
173
     0
291
     0
 45
0.0
1001
ACAD
1000
AcDbSavedByObjectVersion
1070
     0
1000
AcDbSavedByObjectVersion
1070
     0
1000
AcDbSavedByObjectVersion
1070
     0
1000
AcDbSavedByObjectVersion
1070
     0
1000
AcDbSavedByObjectVersion
1070
     0
1000
AcDbSavedByObjectVersion
1070
     0
  0
VISUALSTYLE
  5
36
102
{ACAD_REACTORS
330
29
102
}
330
29
100
AcDbVisualStyle
  2
Thicken
 70
    13
 71
     2
 72
     2
 73
     0
 90
        0
 40
-0.6
 41
-30.0
 62
     5
 63
     7
 74
     1
 91
        4
 64
     7
 65
   257
 75
     1
175
     1
 42
1.0
 92
       12
 66
     7
 43
1.0
 76
     1
 77
     6
 78
     2
 67
     7
 79
     5
170
     0
171
     0
290
     0
174
     0
 93
        1
 44
0.0
173
     0
291
     1
 45
0.0
1001
ACAD
1000
AcDbSavedByObjectVersion
1070
     0
1000
AcDbSavedByObjectVersion
1070
     0
1000
AcDbSavedByObjectVersion
1070
     0
1000
AcDbSavedByObjectVersion
1070
     0
1000
AcDbSavedByObjectVersion
1070
     0
1000
AcDbSavedByObjectVersion
1070
     0
  0
DICTIONARYVAR
  5
2381
102
{ACAD_REACTORS
330
237D
102
}
330
237D
100
DictionaryVariables
280
     0
  1
1:1
  0
DICTIONARYVAR
  5
237F
102
{ACAD_REACTORS
330
237D
102
}
330
237D
100
DictionaryVariables
280
     0
  1
STANDARD
  0
DICTIONARYVAR
  5
237E
102
{ACAD_REACTORS
330
237D
102
}
330
237D
100
DictionaryVariables
280
     0
  1
STANDARD
  0
DICTIONARYVAR
  5
2388
102
{ACAD_REACTORS
330
237D
102
}
330
237D
100
DictionaryVariables
280
     0
  1
2
  0
DICTIONARYVAR
  5
2387
102
{ACAD_REACTORS
330
237D
102
}
330
237D
100
DictionaryVariables
280
     0
  1
1
  0
DICTIONARYVAR
  5
2386
102
{ACAD_REACTORS
330
237D
102
}
330
237D
100
DictionaryVariables
280
     0
  1
0
  0
DICTIONARYVAR
  5
2383
102
{ACAD_REACTORS
330
237D
102
}
330
237D
100
DictionaryVariables
280
     0
  1
0
  0
DICTIONARYVAR
  5
2384
102
{ACAD_REACTORS
330
237D
102
}
330
237D
100
DictionaryVariables
280
     0
  1
0
  0
DICTIONARYVAR
  5
2382
102
{ACAD_REACTORS
330
237D
102
}
330
237D
100
DictionaryVariables
280
     0
  1
2
  0
DICTIONARYVAR
  5
2380
102
{ACAD_REACTORS
330
237D
102
}
330
237D
100
DictionaryVariables
280
     0
  1
1
  0
DICTIONARYVAR
  5
2385
102
{ACAD_REACTORS
330
237D
102
}
330
237D
100
DictionaryVariables
280
     0
  1
127
  0
XRECORD
  5
23B2
102
{ACAD_REACTORS
330
23B0
102
}
330
23B0
100
AcDbXrecord
280
     1
330
2544
  0
DICTIONARY
  5
2CB1
330
68
100
AcDbDictionary
280
     1
281
     1
  3
ACAD_XREC_ROUNDTRIP
360
2CB2
  0
DICTIONARY
  5
2CAF
330
64
100
AcDbDictionary
280
     1
281
     1
  3
ACAD_XREC_ROUNDTRIP
360
2CB0
  0
DICTIONARY
  5
2CB3
330
6C
100
AcDbDictionary
280
     1
281
     1
  3
ACAD_XREC_ROUNDTRIP
360
2CB4
  0
DICTIONARY
  5
1A
330
19
100
AcDbDictionary
280
     1
281
     1
  3
ACAD_XREC_ROUNDTRIP
360
238F
  3
BUMPTILE
360
1C
  3
DIFFUSETILE
360
1B
  3
OPACITYTILE
360
1F
  3
REFLECTIONTILE
360
1E
  3
REFRACTIONTILE
360
20
  3
SPECULARTILE
360
1D
  0
DICTIONARY
  5
12
330
11
100
AcDbDictionary
280
     1
281
     1
  3
ACAD_XREC_ROUNDTRIP
360
238E
  3
BUMPTILE
360
14
  3
DIFFUSETILE
360
13
  3
OPACITYTILE
360
17
  3
REFLECTIONTILE
360
16
  3
REFRACTIONTILE
360
18
  3
SPECULARTILE
360
15
  0
DICTIONARY
  5
22
330
21
100
AcDbDictionary
280
     1
281
     1
  3
ACAD_XREC_ROUNDTRIP
360
2390
  3
BUMPTILE
360
24
  3
DIFFUSETILE
360
23
  3
OPACITYTILE
360
27
  3
REFLECTIONTILE
360
26
  3
REFRACTIONTILE
360
28
  3
SPECULARTILE
360
25
  0
DICTIONARY
  5
2389
330
5D
100
AcDbDictionary
280
     1
281
     1
  3
ACAD_ROUNDTRIP_2008_TABLESTYLE_CELLSTYLEMAP
360
2CAA
  3
ACAD_XREC_ROUNDTRIP
360
2CAE
  0
XRECORD
  5
2CB2
102
{ACAD_REACTORS
330
2CB1
102
}
330
2CB1
100
AcDbXrecord
280
     1
102
SHADEPLOT
 70
     0
102
SHADEPLOTRESLEVEL
 70
     2
102
SHADEPLOTCUSTOMDPI
 70
   300
  0
XRECORD
  5
2CB0
102
{ACAD_REACTORS
330
2CAF
102
}
330
2CAF
100
AcDbXrecord
280
     1
102
SHADEPLOT
 70
     0
102
SHADEPLOTRESLEVEL
 70
     2
102
SHADEPLOTCUSTOMDPI
 70
   300
  0
XRECORD
  5
2CB4
102
{ACAD_REACTORS
330
2CB3
102
}
330
2CB3
100
AcDbXrecord
280
     1
102
SHADEPLOT
 70
     0
102
SHADEPLOTRESLEVEL
 70
     2
102
SHADEPLOTCUSTOMDPI
 70
   300
  0
XRECORD
  5
238F
102
{ACAD_REACTORS
330
1A
102
}
330
1A
100
AcDbXrecord
280
     1
102
MATERIAL
148
0.0
149
0.0
149
0.0
 93
        0
 94
      127
282
     0
 72
     0
 77
     0
171
     0
175
     0
179
     0
273
     0
  0
XRECORD
  5
1C
102
{ACAD_REACTORS
330
1A
102
}
330
1A
100
AcDbXrecord
280
     1
270
     1
271
     1
  0
XRECORD
  5
1B
102
{ACAD_REACTORS
330
1A
102
}
330
1A
100
AcDbXrecord
280
     1
270
     1
271
     1
  0
XRECORD
  5
1F
102
{ACAD_REACTORS
330
1A
102
}
330
1A
100
AcDbXrecord
280
     1
270
     1
271
     1
  0
XRECORD
  5
1E
102
{ACAD_REACTORS
330
1A
102
}
330
1A
100
AcDbXrecord
280
     1
270
     1
271
     1
  0
XRECORD
  5
20
102
{ACAD_REACTORS
330
1A
102
}
330
1A
100
AcDbXrecord
280
     1
270
     1
271
     1
  0
XRECORD
  5
1D
102
{ACAD_REACTORS
330
1A
102
}
330
1A
100
AcDbXrecord
280
     1
270
     1
271
     1
  0
XRECORD
  5
238E
102
{ACAD_REACTORS
330
12
102
}
330
12
100
AcDbXrecord
280
     1
102
MATERIAL
148
0.0
149
0.0
149
0.0
 93
        0
 94
      127
282
     0
 72
     0
 77
     0
171
     0
175
     0
179
     0
273
     0
  0
XRECORD
  5
14
102
{ACAD_REACTORS
330
12
102
}
330
12
100
AcDbXrecord
280
     1
270
     1
271
     1
  0
XRECORD
  5
13
102
{ACAD_REACTORS
330
12
102
}
330
12
100
AcDbXrecord
280
     1
270
     1
271
     1
  0
XRECORD
  5
17
102
{ACAD_REACTORS
330
12
102
}
330
12
100
AcDbXrecord
280
     1
270
     1
271
     1
  0
XRECORD
  5
16
102
{ACAD_REACTORS
330
12
102
}
330
12
100
AcDbXrecord
280
     1
270
     1
271
     1
  0
XRECORD
  5
18
102
{ACAD_REACTORS
330
12
102
}
330
12
100
AcDbXrecord
280
     1
270
     1
271
     1
  0
XRECORD
  5
15
102
{ACAD_REACTORS
330
12
102
}
330
12
100
AcDbXrecord
280
     1
270
     1
271
     1
  0
XRECORD
  5
2390
102
{ACAD_REACTORS
330
22
102
}
330
22
100
AcDbXrecord
280
     1
102
MATERIAL
148
0.0
149
0.0
149
0.0
 93
        0
 94
      127
282
     0
 72
     0
 77
     0
171
     0
175
     0
179
     0
273
     0
  0
XRECORD
  5
24
102
{ACAD_REACTORS
330
22
102
}
330
22
100
AcDbXrecord
280
     1
270
     1
271
     1
  0
XRECORD
  5
23
102
{ACAD_REACTORS
330
22
102
}
330
22
100
AcDbXrecord
280
     1
270
     1
271
     1
  0
XRECORD
  5
27
102
{ACAD_REACTORS
330
22
102
}
330
22
100
AcDbXrecord
280
     1
270
     1
271
     1
  0
XRECORD
  5
26
102
{ACAD_REACTORS
330
22
102
}
330
22
100
AcDbXrecord
280
     1
270
     1
271
     1
  0
XRECORD
  5
28
102
{ACAD_REACTORS
330
22
102
}
330
22
100
AcDbXrecord
280
     1
270
     1
271
     1
  0
XRECORD
  5
25
102
{ACAD_REACTORS
330
22
102
}
330
22
100
AcDbXrecord
280
     1
270
     1
271
     1
  0
CELLSTYLEMAP
  5
2CAA
102
{ACAD_REACTORS
330
2389
102
}
330
2389
100
AcDbCellStyleMap
 90
        3
300
CELLSTYLE
  1
TABLEFORMAT_BEGIN
 90
        5
170
     1
 91
        0
 92
    32768
 62
   257
 93
        1
300
CONTENTFORMAT
  1
CONTENTFORMAT_BEGIN
 90
        0
 91
        0
 92
      512
 93
        0
300

 40
0.0
140
1.0
 94
        5
 62
     0
340
4D
144
6.0
309
CONTENTFORMAT_END
171
     1
301
MARGIN
  1
CELLMARGIN_BEGIN
 40
1.5
 40
1.5
 40
1.5
 40
1.5
 40
0.18
 40
0.18
309
CELLMARGIN_END
 94
        6
 95
        1
302
GRIDFORMAT
  1
GRIDFORMAT_BEGIN
 90
        0
 91
        1
 62
     0
 92
       -2
340
0
 93
        0
 40
1.125
309
GRIDFORMAT_END
 95
        2
302
GRIDFORMAT
  1
GRIDFORMAT_BEGIN
 90
        0
 91
        1
 62
     0
 92
       -2
340
0
 93
        0
 40
1.125
309
GRIDFORMAT_END
 95
        4
302
GRIDFORMAT
  1
GRIDFORMAT_BEGIN
 90
        0
 91
        1
 62
     0
 92
       -2
340
0
 93
        0
 40
1.125
309
GRIDFORMAT_END
 95
        8
302
GRIDFORMAT
  1
GRIDFORMAT_BEGIN
 90
        0
 91
        1
 62
     0
 92
       -2
340
0
 93
        0
 40
1.125
309
GRIDFORMAT_END
 95
       16
302
GRIDFORMAT
  1
GRIDFORMAT_BEGIN
 90
        0
 91
        1
 62
     0
 92
       -2
340
0
 93
        0
 40
1.125
309
GRIDFORMAT_END
 95
       32
302
GRIDFORMAT
  1
GRIDFORMAT_BEGIN
 90
        0
 91
        1
 62
     0
 92
       -2
340
0
 93
        0
 40
1.125
309
GRIDFORMAT_END
309
TABLEFORMAT_END
  1
CELLSTYLE_BEGIN
 90
        1
 91
        1
300
_TITLE
309
CELLSTYLE_END
300
CELLSTYLE
  1
TABLEFORMAT_BEGIN
 90
        5
170
     1
 91
        0
 92
        0
 62
   257
 93
        1
300
CONTENTFORMAT
  1
CONTENTFORMAT_BEGIN
 90
        0
 91
        0
 92
      512
 93
        0
300

 40
0.0
140
1.0
 94
        5
 62
     0
340
4D
144
4.5
309
CONTENTFORMAT_END
171
     1
301
MARGIN
  1
CELLMARGIN_BEGIN
 40
1.5
 40
1.5
 40
1.5
 40
1.5
 40
0.18
 40
0.18
309
CELLMARGIN_END
 94
        6
 95
        1
302
GRIDFORMAT
  1
GRIDFORMAT_BEGIN
 90
        0
 91
        1
 62
     0
 92
       -2
340
0
 93
        0
 40
1.125
309
GRIDFORMAT_END
 95
        2
302
GRIDFORMAT
  1
GRIDFORMAT_BEGIN
 90
        0
 91
        1
 62
     0
 92
       -2
340
0
 93
        0
 40
1.125
309
GRIDFORMAT_END
 95
        4
302
GRIDFORMAT
  1
GRIDFORMAT_BEGIN
 90
        0
 91
        1
 62
     0
 92
       -2
340
0
 93
        0
 40
1.125
309
GRIDFORMAT_END
 95
        8
302
GRIDFORMAT
  1
GRIDFORMAT_BEGIN
 90
        0
 91
        1
 62
     0
 92
       -2
340
0
 93
        0
 40
1.125
309
GRIDFORMAT_END
 95
       16
302
GRIDFORMAT
  1
GRIDFORMAT_BEGIN
 90
        0
 91
        1
 62
     0
 92
       -2
340
0
 93
        0
 40
1.125
309
GRIDFORMAT_END
 95
       32
302
GRIDFORMAT
  1
GRIDFORMAT_BEGIN
 90
        0
 91
        1
 62
     0
 92
       -2
340
0
 93
        0
 40
1.125
309
GRIDFORMAT_END
309
TABLEFORMAT_END
  1
CELLSTYLE_BEGIN
 90
        2
 91
        1
300
_HEADER
309
CELLSTYLE_END
300
CELLSTYLE
  1
TABLEFORMAT_BEGIN
 90
        5
170
     1
 91
        0
 92
        0
 62
   257
 93
        1
300
CONTENTFORMAT
  1
CONTENTFORMAT_BEGIN
 90
        0
 91
        0
 92
      512
 93
        0
300

 40
0.0
140
1.0
 94
        2
 62
     0
340
4D
144
4.5
309
CONTENTFORMAT_END
171
     1
301
MARGIN
  1
CELLMARGIN_BEGIN
 40
1.5
 40
1.5
 40
1.5
 40
1.5
 40
0.18
 40
0.18
309
CELLMARGIN_END
 94
        6
 95
        1
302
GRIDFORMAT
  1
GRIDFORMAT_BEGIN
 90
        0
 91
        1
 62
     0
 92
       -2
340
0
 93
        0
 40
1.125
309
GRIDFORMAT_END
 95
        2
302
GRIDFORMAT
  1
GRIDFORMAT_BEGIN
 90
        0
 91
        1
 62
     0
 92
       -2
340
0
 93
        0
 40
1.125
309
GRIDFORMAT_END
 95
        4
302
GRIDFORMAT
  1
GRIDFORMAT_BEGIN
 90
        0
 91
        1
 62
     0
 92
       -2
340
0
 93
        0
 40
1.125
309
GRIDFORMAT_END
 95
        8
302
GRIDFORMAT
  1
GRIDFORMAT_BEGIN
 90
        0
 91
        1
 62
     0
 92
       -2
340
0
 93
        0
 40
1.125
309
GRIDFORMAT_END
 95
       16
302
GRIDFORMAT
  1
GRIDFORMAT_BEGIN
 90
        0
 91
        1
 62
     0
 92
       -2
340
0
 93
        0
 40
1.125
309
GRIDFORMAT_END
 95
       32
302
GRIDFORMAT
  1
GRIDFORMAT_BEGIN
 90
        0
 91
        1
 62
     0
 92
       -2
340
0
 93
        0
 40
1.125
309
GRIDFORMAT_END
309
TABLEFORMAT_END
  1
CELLSTYLE_BEGIN
 90
        3
 91
        2
300
_DATA
309
CELLSTYLE_END
  0
XRECORD
  5
2CAE
102
{ACAD_REACTORS
330
2389
102
}
330
2389
100
AcDbXrecord
280
     1
102
ACAD_ROUNDTRIP_PRE2007_TABLESTYLE
 90
      512
 91
        0
  1

 92
      512
 93
        0
  2

 94
      512
 95
        0
  3

  0
ENDSEC
  0
EOF
